#TITLE:Castles In The Sky;
#SUBTITLE:(Extended Mix);
#ARTIST:Ian Van Dahl feat. Marsha;
#TITLETRANSLIT:;
#SUBTITLETRANSLIT:;
#ARTISTTRANSLIT:;
#CREDIT:Owem;
#BANNER:../banner.png;
#BACKGROUND:../bg.png;
#LYRICSPATH:;
#CDTITLE:../cdtitleowem.png;
#MUSIC:Ian Van Dahl feat. Marsha - Castles In The Sky (Extended Mix).ogg;
#OFFSET:-0.563;
#SAMPLESTART:151.404;
#SAMPLELENGTH:27.426;
#SELECTABLE:YES;
#DISPLAYBPM:70.000:140.000;
#BPMS:0.000=140.015,192.000=70.007,224.000=140.015,544.000=70.007,586.000=140.015;
#STOPS:;
#BGCHANGES:;
// cache tags:
#FIRSTBEAT:0.000;
#LASTBEAT:862.375;
#SONGFILENAME:Songs/Owem's Simfiles 08 - 1.2/Castles In The Sky (Extended Mix) - [Owem & Braeden] v1.0.0/Castles In The Sky.sm;
#HASMUSIC:1;
#HASBANNER:1;
#MUSICLENGTH:404.453;
// end cache tags

//---------------dance-single - ----------------
#NOTES:
     dance-single:
     :
     Beginner:
     1:
     0.078,0.133,0.012,0.022,0.000,207.000,5.000,9.000,0.000,0.000:
0000
0000
0000
0000
,
0000
0000
0000
0000
,
0000
0000
0000
0000
,
0000
0000
0000
0000
,
0001
0000
0000
0000
,
0001
0000
0000
0000
,
0010
0000
0000
0000
,
0010
0000
0000
0000
,
0100
0000
0000
0000
,
0100
0000
0000
0000
,
1000
0000
0000
0000
,
0001
0000
0000
0000
,
0100
0000
0000
0000
,
0010
0000
0000
0000
,
1000
0000
0000
0000
,
0001
0000
0000
0000
,
0001
0000
0000
0000
,
0001
0000
0000
0000
,
0100
0000
0000
0000
,
0010
0000
0000
0000
,
1000
0000
0000
0000
,
0100
0000
0000
0000
,
0010
0000
0000
0000
,
0001
0000
0000
0000
,
0010
0000
0000
0000
,
0100
0000
0000
0000
,
1000
0000
0000
0000
,
0010
0000
0000
0000
,
0100
0000
0000
0000
,
0001
0000
0000
0000
,
0100
0000
0000
0000
,
0010
0000
0000
0000
,
1001
0000
0000
0000
,
0010
0000
0000
0000
,
0100
0000
0000
0000
,
0001
0000
0000
0000
,
0010
0000
0000
0000
,
0001
0000
0000
0000
,
0100
0000
0000
0000
,
0010
0000
0000
0000
,
1001
0000
0000
0000
,
0010
0000
0000
0000
,
0100
0000
0000
0000
,
0001
0000
0000
0000
,
1000
0000
0000
0000
,
0010
0000
0000
0000
,
0100
0000
0000
0000
,
0001
0000
0001
0000
,
2002
0000
0000
0000
,
3003
0000
0000
0000
,
0000
0002
0000
0000
,
0003
0000
0000
0000
,
2000
0000
0000
0000
,
0000
3000
0000
0000
,
0200
0000
0000
0000
,
0000
0300
0000
0000
,
1000
0000
0000
0000
,
0001
0000
0000
0000
,
0100
0000
0000
0000
,
0010
0000
0000
0000
,
0100
0000
0000
0000
,
0001
0000
0000
0000
,
1000
0000
0000
0000
,
0100
0000
0000
0000
,
1000
0000
0000
0000
,
0001
0000
0000
0000
,
0010
0000
0000
0000
,
0001
0000
0000
0000
,
0100
0000
0000
0000
,
0010
0000
0000
0000
,
1000
0000
0000
0000
,
0100
0000
0000
0000
,
0010
0000
0000
0000
,
0100
0000
0000
0000
,
1000
0000
0000
0000
,
0001
0000
0000
0000
,
0100
0000
0000
0000
,
0010
0000
0000
0000
,
0100
0000
0000
0000
,
0001
0000
0000
0000
,
0010
0000
0000
0000
,
0001
0000
0000
0000
,
1000
0000
0000
0000
,
0100
0000
0000
0000
,
1000
0000
0000
0000
,
0001
0000
0000
0000
,
0100
0000
0000
0000
,
0010
0000
0000
0000
,
0100
0000
0000
0000
,
0001
0000
0000
0000
,
0010
0000
0000
0000
,
0001
0000
0000
0000
,
1000
0000
0000
0000
,
0100
0000
0000
0000
,
1000
0000
0000
0000
,
0001
0000
0000
0000
,
0010
0000
0000
0000
,
0100
0000
0000
0000
,
1000
0000
0000
0000
,
0001
0000
0000
0000
,
0100
0000
0000
0000
,
0010
0000
0000
0000
,
0100
0000
0000
0000
,
0001
0000
0000
0000
,
0010
0000
0000
0000
,
0001
0000
0000
0000
,
1000
0000
0000
0000
,
0100
0000
0000
0000
,
0010
0000
0000
0000
,
0001
0000
0000
0000
,
1000
0000
0000
0000
,
0010
0000
0000
0000
,
0100
0000
0000
0000
,
0001
0000
0000
0000
,
0010
0000
0000
0000
,
0001
0000
0000
0000
,
1000
0000
0000
0000
,
0010
0000
0000
0000
,
0100
0000
0000
0000
,
0001
0000
0000
0000
,
0010
0000
0000
0000
,
0100
0000
0000
0000
,
1000
0000
0000
0000
,
0001
0000
0000
0000
,
0100
0000
0000
0000
,
0010
0000
0000
0000
,
0100
0000
0000
0000
,
0010
0000
0000
0000
,
1000
0000
0000
0000
,
0100
0000
0000
0000
,
1000
0000
0000
0000
,
0001
0000
0000
0000
,
0010
0000
0000
0000
,
0100
0000
0000
0000
,
1000
0000
0000
0000
,
0001
0000
0000
0000
,
1001
0000
0000
0002
,
0000
0000
0000
0003
,
0000
0000
0000
2000
,
0000
0000
0000
3000
,
0000
0000
0000
0200
,
0000
0000
0000
0300
,
0000
0000
0000
0020
,
0000
0000
0000
0030
,
0000
0000
0001
0000
,
1000
0000
0010
0000
,
0100
0000
0010
0000
,
0000
0000
1000
0000
,
0000
0000
0001
0000
,
0000
0000
0100
0000
,
0000
0000
0100
0000
,
0000
0000
0010
0000
,
0000
0000
1000
0000
,
0000
0000
0001
0000
,
0000
0000
0100
0000
,
0000
0000
0010
0000
,
0000
0000
1000
0000
,
0000
0000
0100
0000
,
0000
0000
0010
0000
,
0000
0000
0100
0000
,
0000
0000
1000
0000
,
0000
0000
0001
0000
,
0000
0000
0010
0000
,
0000
0000
0001
0000
,
0000
0000
0100
0000
,
0000
0000
0010
0000
,
0000
0000
1000
0000
,
0000
0000
0100
0000
,
0000
0000
0010
0000
,
0000
0000
0100
0000
,
0000
0000
1000
0000
,
0000
0000
0001
0000
,
0000
0000
0010
0000
,
0000
0000
0100
0000
,
0000
0000
1000
0000
,
0000
0000
0001
0000
,
0000
0000
0100
0000
,
0000
0000
0010
0000
,
0000
0000
0100
0000
,
0000
0000
0001
0000
,
0000
0000
0010
0000
,
0000
0000
0001
0000
,
0000
0000
0100
0000
,
0000
0000
0010
0000
,
0000
0000
0100
0000
,
0000
0000
0001
0000
,
0000
0000
1000
0000
,
0000
0000
0010
0000
,
0000
0000
0100
0000
,
0000
0000
0001
0000
,
0000
0000
0010
0000
,
0000
0000
0001
0000
,
0000
0000
1000
0000
,
0000
0000
0100
0000
,
0000
0000
0010
0000
,
0000
0000
0001
0000
,
0000
0000
1000
0000
,
0000
0000
0010
0000
,
0000
0000
0100
0000
,
0000
0000
0001
0000
,
0000
0000
0010
0000
,
0000
0000
0001
0000
,
0000
0000
1000
0000
,
0000
0000
0100
0000
,
0000
0000
1000
0000
,
0000
0000
0001
0000
,
0000
0000
0100
0000
,
0000
0000
0010
0000
,
0000
0000
0100
0000
,
0000
0000
0001
0000
,
0000
0000
0010
0000
,
0000
0000
0001
0000
,
0000
0000
1000
0000
,
0000
0000
0100
0000
,
0000
0000
1001
0000
;

//---------------dance-single - ----------------
#NOTES:
     dance-single:
     :
     Easy:
     5:
     0.291,0.451,0.091,0.094,0.000,748.000,37.000,38.000,0.000,0.000:
0000
0000
0000
0000
,
0001
1000
0001
1000
,
0010
0100
0010
0100
,
0001
0010
0001
0010
,
0001
1000
0010
1000
,
0001
0100
0010
1000
,
0100
0010
0001
0100
,
0001
1000
0010
0100
,
0001
0010
0100
1000
,
0001
0100
0010
0000
,
1000
0100
0010
0001
,
0100
0010
1000
0000
,
0001
1000
0001
0100
,
0001
0010
0001
0000
,
1000
0100
1000
0001
,
0100
0010
1000
0000
,
1001
0001
0100
0000
,
0010
1000
0001
0000
,
0010
0100
1000
0000
,
0001
1000
0010
0000
,
0010
1000
0001
0000
,
0100
0010
0100
0000
,
1001
0000
0010
0000
,
1001
0000
0100
0000
,
1000
0001
0100
0000
,
0010
1000
0001
0000
,
0010
0100
0010
0000
,
0001
1000
0001
0000
,
0100
0010
1000
0000
,
0001
0010
0001
0000
,
0001
0100
0010
0000
,
1000
0100
0010
0000
,
1001
0001
0100
0000
,
0010
1000
0010
0000
,
0100
0001
0010
0000
,
0001
1000
0001
0000
,
1001
0001
1000
0100
,
1000
0001
1000
0100
,
0010
0001
0010
0100
,
1000
0001
0100
0010
,
1010
1000
0001
0010
,
0001
1000
0100
0010
,
0001
1000
0010
0100
,
0001
0010
0100
1000
,
1001
0001
0100
0010
,
1000
0001
0100
0010
,
1000
0100
0010
0001
,
1001
1001
1001
1001
,
1001
0020
0000
0000
,
0230
0000
0000
0302
0000
0000
0003
0000
,
0000
2000
0000
0000
,
3200
0000
0300
0000
,
0020
0000
0032
0000
,
0203
0000
0000
0300
0000
0000
0000
0000
,
0010
1000
0100
0010
,
0001
0100
0010
1000
,
0001
0000
0000
0000
,
0100
0000
0000
0000
,
0010
0000
0000
0000
,
1000
0000
0000
0000
,
0001
0100
0001
0100
,
0010
1000
0010
1000
,
0100
0010
0001
0100
,
1001
1001
0110
0110
,
1001
0001
0100
0010
,
1000
0000
0100
1000
0000
0100
0000
0010
,
0000
0001
0000
0100
0000
0010
0000
1000
,
0000
0100
0000
0010
0000
0001
0000
0100
,
0010
0000
0010
0000
,
1000
0000
0000
0000
0001
0000
1000
0100
,
0000
1000
0000
0001
0000
1000
0000
0010
,
0000
0100
0000
0001
0000
0010
0000
0000
,
1001
0001
0100
0010
,
1000
0000
0100
0010
0000
0001
0000
0100
,
0000
0010
0000
1000
0000
0100
0000
0010
,
0000
0001
0000
0100
0000
0010
0000
0000
,
1000
0001
0100
0001
,
0010
0001
1000
0010
,
1000
0001
0010
0100
,
1000
0100
0010
0001
,
1001
0001
0100
0010
,
1000
0100
0010
0001
,
0100
0010
1000
0010
,
0100
0001
0010
0100
,
1000
0001
1000
0010
,
0100
0001
0010
0001
,
0100
0010
1000
0100
,
1000
0001
0100
0001
,
1001
0001
0010
0100
,
1000
0001
0100
0010
,
1000
0100
0010
0001
,
0100
0010
1000
0001
,
1000
0010
1000
0001
,
0100
0001
0010
0001
,
0100
0001
1000
0001
,
0001
0010
0100
1000
,
1001
0001
0100
0010
,
1000
1000
1000
0000
,
0001
0000
1000
0000
,
0010
0000
0100
0000
,
1001
0000
0010
0000
,
0100
0000
0001
0000
,
0010
0000
0100
0000
,
1010
0100
0001
0000
,
0010
0100
1000
0000
,
0001
0100
0010
0000
,
1000
0100
1000
0000
,
0001
0100
0001
0000
,
0010
0001
0100
0000
,
0010
1000
0010
0000
,
0100
0001
0010
0000
,
0001
0100
0001
0000
,
1001
0010
0100
0000
,
0001
0010
0001
0000
,
0100
0010
0100
0000
,
0001
0001
0001
0000
,
1000
1000
1000
0000
,
0010
0100
0010
0000
,
0010
0001
0010
0001
,
1001
0001
1001
0001
,
1001
0010
0100
0001
,
0010
0100
1000
0001
,
0100
0010
1000
0100
,
0010
0001
0100
0010
,
1000
0100
0010
0001
,
0100
0010
1000
0000
,
0001
0100
0010
0100
,
0001
0010
0001
1000
,
0100
0010
0001
1000
,
0010
0100
0001
0010
,
0001
1000
0100
0010
,
0001
1000
0010
0100
,
0001
0010
0001
1000
,
0100
1000
0001
0010
,
0100
1000
0001
0100
,
0010
0100
0001
1000
,
0010
0000
0000
0200
,
0000
0000
0000
0000
0302
0000
0000
2003
,
0000
0000
3000
0002
,
0000
0000
0203
0000
,
0000
0300
0020
2030
,
3020
0230
0302
2003
,
3200
0320
0230
2300
,
3002
0203
0320
2030
,
3200
0320
0230
2300
,
3002
0203
0320
2030
,
3200
0310
2002
0000
,
0000
3003
0110
0000
,
0000
0000
0001
0010
,
0001
0010
0011
1100
,
0011
1100
1001
0001
,
0010
0000
1000
0000
0001
0000
0010
0100
,
0000
1000
0000
0100
0000
0010
0000
0001
,
0000
0100
0000
0010
0000
1000
0000
0100
,
0000
0010
0000
0000
0001
0000
0100
0000
,
0010
1000
0100
0010
,
0001
0000
0100
0010
0000
1000
0000
0001
,
0000
0010
0000
0100
0000
1000
0000
0100
,
0000
0000
1001
0010
,
0100
0000
0001
0000
0010
0000
0100
1000
,
0000
0100
0000
0010
0000
0001
0000
0100
,
0000
0010
0000
1000
0000
0100
0000
0010
,
0000
0100
0000
0000
1000
0000
0001
0000
,
0100
0010
1000
0100
,
0010
0100
1000
0001
,
0100
0010
0010
1000
,
1000
0001
1001
1000
,
0001
0010
0001
1000
,
0100
0010
0001
0010
,
0100
1000
0001
0100
,
0010
0100
0001
0010
,
0001
1000
0100
0010
,
0001
1000
0010
0100
,
0001
0010
0001
1000
,
0100
1000
0001
0010
,
0100
0010
0001
1000
,
0010
0100
0001
0010
,
0001
1000
0100
0010
,
0001
1000
0010
0100
,
0001
0010
0001
1000
,
0100
0010
0001
1000
,
0100
1000
0001
0100
,
0001
1000
0010
1000
,
0001
0010
0100
1000
,
0001
0100
0010
0100
,
0001
0010
0001
1000
,
0100
0010
0001
1000
,
0010
1000
0001
0010
,
0001
1000
0100
0010
,
0001
1000
0010
0100
,
0001
0010
0100
1000
,
0001
0100
0010
0100
,
0001
0010
0001
1000
,
0100
0010
0001
1000
,
0010
1000
0001
0010
,
0001
0100
0010
1000
,
0001
0100
0010
1000
,
0001
0010
0100
1000
,
0001
0100
0010
0100
,
0001
0010
0001
1000
,
0100
0010
0100
1000
,
0001
0100
0010
0100
,
0001
0010
0001
1000
,
0100
1000
0001
0010
,
0100
1000
0001
0100
,
0010
0100
0001
0010
,
0001
1000
0100
0010
,
0001
1000
0010
0100
,
0001
0010
0100
1000
,
0001
0100
0010
0100
,
0001
0010
0001
1000
,
0100
1000
0001
0010
,
0001
0000
0100
0000
,
0010
0000
0100
0000
,
0000
0000
1001
0000
;

//---------------dance-single - ----------------
#NOTES:
     dance-single:
     :
     Medium:
     9:
     0.455,0.505,0.082,0.267,0.294,1148.000,33.000,108.000,0.000,0.000:
1000
0001
1000
0001
,
0100
0010
0100
0010
,
1000
0100
0010
0001
,
0010
0100
1000
0001
,
1001
0001
0100
0010
,
0110
0010
1000
0100
,
0110
0010
0001
0100
,
0001
0100
0010
1000
,
1000
0001
0100
0000
0010
0000
1000
0000
,
0100
0010
0100
0000
1000
0000
0001
0000
,
0100
0010
0100
0000
0001
0000
0010
0000
,
0100
1000
0100
0000
0010
0000
0001
0000
,
0100
0010
0100
0000
0001
0000
0010
0000
,
0100
1000
0100
0000
0010
0000
0001
0000
,
1000
0001
1000
0000
0001
0000
0100
0000
,
0010
1000
0001
0010
,
0100
0000
1000
0000
0100
0000
0000
0010
0000
0000
0001
0000
0000
0100
0000
0000
,
0010
0000
1000
0000
0010
0000
0000
0100
0000
0000
0001
0000
0000
0010
0000
0000
,
0100
0000
1000
0000
0100
0000
0000
0010
0000
0000
0001
0000
0000
0100
0000
0000
,
0010
0000
1000
0000
0010
0000
0000
0100
0000
0000
0001
0000
0000
0010
0000
0000
,
0100
0000
1000
0000
0100
0000
0000
0010
0000
0000
0001
0000
0000
0100
0000
0000
,
0010
0000
1000
0000
0010
0000
0000
0100
0000
0000
0001
0000
0000
0010
0000
0000
,
0100
0000
1000
0000
0100
0000
0000
0010
0000
0000
0001
0000
0000
0100
0000
0000
,
0001
0000
1000
0000
0001
0000
0000
0010
0000
0000
0100
0000
0000
1000
0000
0000
,
0001
0000
0010
0000
0001
0000
0000
1000
0000
0000
0001
0000
0000
0100
0000
0000
,
0010
0000
1000
0000
0010
0000
0000
0100
0000
0000
0001
0000
0000
0010
0000
0000
,
0100
0000
1000
0000
0100
0000
0000
0010
0000
0000
0001
0000
0000
0100
0000
0000
,
0001
0000
1000
0000
0001
0000
0000
0100
0000
0000
0010
0000
0000
1000
0000
0000
,
0100
0000
0010
0000
0100
0000
0000
0010
0000
0000
0001
0000
0000
0010
0000
0000
,
0001
0000
0100
0000
0001
0000
0000
1000
0000
0000
0010
0000
0000
1000
0000
0000
,
0001
0000
0100
0000
0001
0000
0000
0010
0000
0000
0100
0000
0000
1000
0000
0000
,
0001
0000
0100
0000
0010
0000
0000
0000
1000
0000
0000
0010
0000
0000
0100
0000
,
0011
0000
0001
0000
0010
0000
0000
0001
0000
0000
0010
0000
0000
0001
0000
0000
,
0010
0000
0001
0000
1000
0000
0000
0001
0000
0000
0100
0000
0000
0010
0000
0000
,
1000
0000
0001
0000
0100
0000
0000
0010
0000
0000
0100
0000
0000
0010
0000
0000
,
1000
0000
0001
0000
1000
0000
0000
0001
0000
0000
0010
0000
0000
0100
0000
0000
,
1000
0000
0100
0000
0010
0000
0000
0100
0000
0000
0010
0000
0000
0001
0000
0000
,
0010
0000
0100
0000
0010
0000
0000
0100
0000
0000
1000
0000
0000
0001
0000
0000
,
0100
0000
0010
0000
1000
0000
0000
0001
0000
0000
0100
0000
0000
0100
0000
0000
,
1000
0001
0000
0000
1000
0000
0000
0001
0000
0000
0100
0000
0000
0010
0000
0000
,
1000
0000
0001
0000
0010
0000
0000
0100
0000
0000
1000
0000
0000
0100
0000
0000
,
0010
0000
0001
0000
0010
0000
0000
0001
0000
0000
0100
0000
0000
0010
0000
0000
,
1000
0000
0001
0000
1000
0000
0000
0001
0000
0000
0010
0000
0000
0100
0000
0000
,
1000
0000
0100
0000
0010
0000
0000
0001
0000
0000
0010
0000
0000
0001
0000
0000
,
1000
0000
0001
0000
1000
0000
0000
0001
0000
0000
0100
0000
0000
0010
0000
0000
,
1000
0000
0100
0000
0010
0000
0000
0001
0000
0000
0100
0000
0000
0010
0000
0000
,
1000
0000
0100
0000
0010
0000
0000
0001
0000
0000
0100
0000
0000
0010
0000
0000
,
1000
0100
0010
0001
0100
0010
1000
0001
,
0100
0000
0000
0000
0200
0000
0310
2000
0000
3002
0000
0023
0000
0230
0000
0300
,
2000
0000
0000
0000
0000
0000
0000
0000
3000
0002
0000
0203
0000
0000
0000
0300
0000
0000
0000
0000
0000
0000
0000
0000
0000
0000
0000
0000
0000
0000
0000
0000
,
0000
0000
0000
0000
0020
0000
1030
0002
0000
0023
0000
0230
0000
2300
0000
3002
,
0000
0000
0000
0003
0000
0000
0000
0000
0000
0000
0000
0000
0000
0000
0000
0000
0000
0000
0000
0000
0000
0000
0000
0000
0000
0000
0000
0000
0000
0000
0000
0000
,
0000
0000
0000
0000
0200
0000
0310
2000
0000
3002
0000
0203
0000
0320
0000
2030
,
0000
0000
0000
0000
3002
0203
0000
0300
0000
0000
0000
0000
0000
0000
0000
0000
,
0000
0000
0000
0000
0002
0000
1003
0200
0000
0320
0000
0032
0000
2003
0000
3002
,
0000
0003
0000
0000
0000
0000
0000
0000
0000
0000
0000
0000
0000
0000
0000
0000
,
0002
0000
0000
0000
,
2003
0000
0000
0000
,
3020
0000
0000
0000
0000
0000
0000
0000
0000
0000
0000
0000
0000
0000
0000
0030
,
0200
0000
0000
0000
0000
0000
0000
0000
0000
0000
0000
0000
0000
0000
0000
0300
,
0001
1000
0001
0100
0001
0010
0100
1000
,
0100
0010
0001
0100
0010
1000
0010
0100
,
0001
0010
0100
1000
0100
0010
0100
0010
,
0110
0011
1001
0101
,
0001
0000
0000
0100
0000
0000
0001
0000
0000
0100
0000
0000
0001
0000
0000
0000
,
0010
0000
0000
0100
0000
0000
0010
0000
0000
0100
0000
0000
0010
0000
0000
0000
,
0100
0000
0000
1000
0000
0000
0100
0000
0000
1000
0000
0000
0100
0000
0100
0000
,
0010
0000
0000
0001
0000
0000
0100
0000
0000
0001
0000
0000
1000
0000
0001
0000
,
0100
0000
0000
0010
0000
0000
1000
0000
0000
0100
0000
0000
0010
0000
0001
0000
,
0010
0000
0000
0001
0000
0000
1000
0000
0001
0000
0000
0000
0100
0000
0020
0000
,
0000
2030
0000
3200
0000
0320
0000
0032
,
0000
0203
0000
0320
0000
2030
0000
3001
,
1001
0000
0000
0001
0000
0000
0100
0000
0000
0010
0000
0000
1000
0010
0000
0000
,
0100
0000
0001
0020
0000
0230
0000
2300
,
0000
3200
0000
0320
0000
0032
0000
0203
,
0000
0320
0000
2030
0000
3200
0000
0310
,
0001
0000
0000
0100
0000
0000
0010
0000
0000
1000
0000
0000
0001
0000
0010
0000
,
0100
0000
0000
1000
0000
0000
0001
0000
0100
0000
0000
0010
0000
0000
0200
0000
,
0000
0320
0000
0230
0000
0302
0000
1003
,
0001
0100
0001
0100
0001
0100
0001
0100
,
0001
0000
0000
0100
0000
0000
0001
0000
0000
0010
0000
0000
0001
0000
0000
0000
,
0100
0000
0000
0010
0000
0000
1000
0000
0000
0010
0000
0000
0100
0000
0000
0000
,
0001
0000
0000
0010
0000
0000
0001
0000
0000
0010
0000
0000
0001
0000
0000
0000
,
1000
0000
0000
0010
0000
0000
0100
0000
0000
0001
0000
0000
0010
0000
0000
0000
,
0100
0000
0000
1000
0000
0000
0100
0000
0000
0010
0000
0000
0001
0000
0100
0000
,
0001
0000
0000
1000
0000
0000
0010
0000
0000
0100
0000
0000
0001
0000
0010
0000
,
0100
0000
0000
1000
0000
0000
0001
0000
0000
0100
0000
0000
0010
0000
1000
0000
,
0010
0000
0000
0100
0000
0000
0001
0000
0000
0010
0000
0000
0001
0000
0010
0000
,
0011
0000
0000
0001
0000
0000
0100
0000
0000
0001
0000
0000
1000
0000
0001
0000
,
0100
0000
0000
0010
0000
0000
1000
0000
0000
0100
0000
0000
0010
0000
0001
0000
,
0100
0000
0000
0010
0000
0000
1000
0000
0000
0001
0000
0000
0010
0000
0100
0000
,
1000
0000
0000
0001
0000
0000
0100
0000
0000
0010
0000
0000
1000
0000
0000
0000
,
0100
1000
0100
0010
0001
0100
0001
1000
,
0001
0100
0010
1000
0100
0010
0001
0100
,
0010
1000
0100
1000
0001
0100
0001
0010
,
0011
0101
1001
1100
,
0001
1000
0001
0010
,
0001
0000
1000
0100
1000
0001
0100
0000
,
0010
0000
1000
0100
0010
0100
1000
0000
,
0001
0000
0010
0100
1000
0100
0010
0000
,
0001
0000
0100
0010
1000
0010
0100
0000
,
0001
0000
0010
0100
1000
0100
0010
0000
,
0001
0000
0100
0010
1000
0010
1000
0000
,
0001
0000
0010
0100
1000
0100
0010
0000
,
0001
0000
0100
0000
0001
0000
0000
0100
0000
0000
0001
0000
0000
0100
0000
0000
,
0010
0000
1000
0000
0010
0000
0000
1000
0000
0000
0001
0000
0000
0010
0000
0000
,
0100
0000
1000
0000
0100
0000
0000
0010
0000
0000
0001
0000
0000
0100
0000
0000
,
0010
0000
1000
0000
0010
0000
0000
1000
0000
0000
0001
0000
0000
0010
0000
0000
,
0100
0000
1000
0000
0100
0000
0000
0010
0000
0000
0001
0000
0000
0100
0000
0000
,
0010
0000
1000
0000
0010
0000
0000
0100
0000
0000
0001
0000
0000
0010
0000
0000
,
0100
0000
1000
0000
0100
0000
0000
0010
0000
0000
0001
0000
0000
0100
0000
0000
,
0010
0000
1000
0000
0010
0000
0000
0100
0000
0000
0001
0000
0000
0010
0000
0000
,
0100
1000
0100
0000
0010
0000
0100
0000
,
1000
0001
1000
0000
0001
0000
0100
0000
,
0010
1000
0010
0000
0100
0000
0001
0000
,
0010
0100
0010
0000
0100
0000
1000
0000
,
0001
0010
0001
0000
1000
0000
0010
0000
,
0100
0001
0010
0000
0100
0000
1000
0000
,
0001
0100
0010
0000
1000
0100
0010
0000
,
0010
0001
1000
0000
0001
0000
0001
0000
,
0001
0000
1000
0000
0010
0000
0000
0100
0000
0000
0001
0000
0000
0010
0000
0000
,
0100
0000
1000
0000
0100
0000
0000
0010
0000
0000
0001
0000
0000
0100
0000
0000
,
0001
0000
1000
0000
0001
0000
0000
0100
0000
0000
0010
0000
0000
1000
0000
0000
,
0100
0000
0010
0000
0001
0000
0000
0100
0000
0000
0001
0000
0000
1000
0000
0000
,
0010
0000
1000
0000
0010
0000
0000
0100
0000
0000
0001
0000
0000
0010
0000
0000
,
0100
0000
1000
0000
0100
0000
0000
0010
0000
0000
0001
0000
0000
0100
0000
0000
,
0010
0000
1000
0000
0010
0000
0000
0100
0000
0000
0001
0000
0000
0010
0000
0000
,
0110
0100
1000
0100
,
1100
0100
0010
0100
,
0110
0010
0001
0010
,
0001
0000
0100
0000
0001
0000
0000
0100
0000
0000
0010
0000
0000
1000
0000
0000
,
0001
0000
0010
0000
0100
0000
0000
1000
0000
0000
0001
0000
0000
0100
0000
0000
,
0010
0000
1000
0000
0010
0000
0000
1000
0000
0000
0001
0000
0000
0010
0000
0000
,
0100
0000
1000
0000
0001
0000
0000
0100
0000
0000
0010
0000
0000
1000
0000
0000
,
0100
0000
0010
0000
0001
0000
0000
1000
0000
0000
0001
0000
0000
1000
0000
0000
,
1010
0110
0101
1010
,
1000
0000
0000
0000
0000
0000
0000
0000
0000
0000
0000
0000
2000
0000
3010
0200
,
0000
0000
0302
0000
0000
0000
2003
0000
0000
0000
3020
0000
0000
0000
0030
0000
0200
0000
0000
0000
0000
0000
0000
0000
0300
0020
0000
2030
0000
0000
0000
3000
,
0000
0000
0000
0000
0000
0000
0000
0000
0000
0000
0000
0000
2000
0000
3010
0200
,
0000
0302
0000
2003
0000
3002
0000
0023
0000
0030
0000
0000
0000
0000
0000
0000
,
0000
0000
0000
0000
0000
0000
0000
0000
0000
0000
0000
0000
0002
0000
1003
0020
,
0000
0000
0230
0000
0000
0000
0302
0000
0000
0000
2003
0000
0000
0000
3200
0000
0000
0000
0000
0000
0000
0000
0000
0300
0020
0000
0032
0000
0000
0000
0003
0000
,
0000
0000
0000
0000
0000
0000
0000
0000
0000
0000
0000
0000
0200
0000
0301
2000
,
0000
3020
0000
0230
0000
0302
0000
2003
0000
3000
0000
0000
0000
0000
0000
0000
,
0000
0000
0000
0000
0000
0000
0000
0000
0000
0000
0000
0000
0000
0000
0000
0000
1000
0000
0000
0010
0000
0000
0100
0000
0000
0001
0000
0001
0000
0000
1000
0000
,
1000
0000
0000
0010
0000
0000
0100
0000
0000
0001
0000
0001
0000
0000
1000
0000
0100
0000
0000
0100
0000
0000
0100
0000
0000
0010
0000
0001
0000
0000
1000
0000
,
0010
0000
0000
0100
0000
0000
0001
0000
0000
1000
0000
0100
0000
0000
0010
0000
0100
0000
0000
0000
0001
0000
0000
0000
0100
0000
0000
0000
0001
0000
0000
0000
,
0100
0001
1000
0100
0010
0001
0100
0010
,
1000
0010
0100
0001
0010
0100
1000
0100
,
0010
0001
1000
0001
1001
0000
0110
0000
,
0011
0000
0000
0000
1001
0000
0000
0000
0001
0000
0000
0100
0000
0000
0001
0000
,
0000
0100
0000
0000
0001
0000
1000
0000
0001
0000
0000
0000
1000
0000
0100
0000
,
0000
0000
0020
0000
0000
0000
0032
0000
0000
0003
0200
0000
0000
0000
0320
0000
,
0000
2030
0000
3002
0000
0023
0000
0032
,
0000
0000
0203
0000
0000
0000
0301
0000
0100
0000
0000
0010
0000
0000
1000
0000
,
0000
0010
0000
0000
0100
0000
0001
0000
0010
0000
0000
0000
0100
0000
0000
0000
,
1000
0000
0001
0200
0000
0320
0000
2030
,
0000
3200
0000
0320
0000
0032
0000
0203
,
0000
0000
0310
0000
0000
0000
1000
0000
0001
0000
0000
0001
0000
0000
0010
0000
,
0000
0100
0000
0000
1000
0000
0000
0000
1000
0000
0000
0000
0100
0000
0010
0000
,
0000
0001
0000
0200
0000
0320
0000
2030
,
0000
3200
0000
0320
0000
0032
0000
0203
,
0000
0320
0000
0130
0001
0000
0100
0000
,
0010
0000
1000
0001
1000
0000
0010
0000
,
0100
0001
0010
0100
,
1000
0000
0001
0000
0100
0010
1000
0001
,
0010
0000
0001
0000
0010
0000
0001
0000
0011
0000
0000
0001
0000
0000
0100
0000
,
0000
0010
0000
0000
1000
0000
0010
0000
1000
0000
0000
0001
0000
0000
0010
0000
,
0000
0100
0000
0000
1000
0000
0001
0000
1000
0000
0000
0010
0000
0000
0100
0000
,
0000
0001
0000
0000
0010
0000
0100
0000
1000
0000
0000
0001
0000
0000
0100
0000
,
0000
0010
0000
0000
1000
0000
0100
0000
1000
0000
0000
0001
0000
0000
0100
0000
,
0000
0001
0000
0000
0010
0000
0001
0000
0100
0000
0000
0001
0000
0000
1000
0000
,
0000
0100
0000
0000
1000
0000
0001
0000
0100
0000
0000
0010
0000
0000
1000
0000
,
0000
0100
0000
0000
0010
0000
0001
0000
0010
0000
0000
0001
0000
0000
0100
0000
,
0000
0001
0000
0000
1000
0000
0001
0000
1001
0000
0000
0001
0000
0000
0100
0000
,
0000
0001
0000
0000
0010
0000
0001
0000
0100
0000
0000
0010
0000
0000
1000
0000
,
0000
0100
0000
0000
0010
0000
0001
0000
0100
0000
0000
0010
0000
0000
1000
0000
,
0000
0100
0000
0000
1000
0000
0001
0000
0100
0000
0000
0010
0000
0000
1000
0000
,
0000
0100
0000
0000
0010
0000
0001
0000
0010
0000
0001
0000
1000
0000
0001
0000
,
0100
0001
1000
0100
0010
0001
1000
0010
,
0100
0010
1000
0001
0010
0100
1000
0001
,
0100
0001
0010
0001
0100
0000
0001
0000
,
1000
0001
1001
0001
,
0010
0100
1000
0001
,
0100
0010
1000
0100
,
0010
0100
1000
0001
,
0100
0010
1000
0100
,
1000
0001
0100
0010
,
1000
0001
0100
0010
,
1000
0100
0010
0001
,
0100
0010
1000
0100
,
1000
0001
0100
0001
,
0010
0001
0100
0001
,
1000
0010
1000
0100
,
1000
0010
1000
0001
,
0100
0001
0011
0001
,
0100
0001
1001
1000
,
0010
0100
0110
0010
,
1000
0100
0110
0010
,
0001
0100
0001
1000
,
0010
0100
0010
0100
0010
0000
1000
0000
,
0100
0010
0100
0010
0100
0000
1000
0000
,
0001
0100
0001
0100
0001
0000
1000
0000
,
0010
0100
0010
0100
0010
0000
1000
0000
,
0100
0010
0100
0010
0100
0000
1000
0000
,
0001
0100
0001
0100
0001
0000
1000
0000
,
0010
1000
0010
1000
0010
0000
1000
0000
,
0001
0100
0001
0100
0001
0000
1000
0000
,
0010
0100
0010
1000
0001
0000
0010
0000
,
0100
1000
0001
0100
0010
0000
1000
0000
,
0100
0010
0001
0100
0010
0000
1000
0000
,
0001
0100
0010
1000
,
0001
0010
0100
1000
,
0001
0100
0010
1000
0001
0000
0010
0000
,
0100
1000
2002
0000
,
3003
0000
0000
0000
;

//---------------dance-single - 13 (Owem)----------------
#NOTES:
     dance-single:
     13 (Owem):
     Hard:
     13:
     1.000,1.000,0.002,0.141,1.000,2938.000,1.000,57.000,141.000,0.000:
1000
0100
0010
0001
1000
0001
0100
0010
,
1000
0001
0100
0001
0010
0100
1000
0001
,
0010
0001
0100
0010
1000
0001
0100
0010
,
0100
0001
1000
0100
0010
0100
1000
0001
,
1000
0010
0100
0001
1000
0010
1000
0001
,
0100
0010
0100
0001
1000
0100
0010
0001
,
1000
0100
1000
0001
0010
0001
0100
0010
,
1000
0001
0100
0001
0010
0100
1000
0010
,
0100
0001
0100
0000
0010
0000
1000
0000
0001
0010
0100
0000
1000
0000
0010
0000
,
1000
0010
0100
0000
0001
0000
1000
0000
0001
0100
0001
0000
1000
0000
0100
0000
,
0010
0001
0010
0000
0100
0000
1000
0000
0001
0100
0010
0000
1000
0000
0010
0000
,
0100
0001
1000
0000
0010
0000
1000
0000
0001
0010
0001
0000
0100
0000
0010
0000
,
1000
0001
1000
0000
0100
0000
0010
0000
0001
1000
0100
0000
0010
0000
0001
0000
,
1000
0010
0100
0000
0001
0000
1000
0000
0010
0100
0010
0000
1000
0000
0001
0000
,
1000
0010
1000
0000
0100
0000
0010
0000
0001
0100
0010
0000
1000
0000
0001
0000
,
0010
0100
1000
0000
0001
0000
1000
0000
0010
0100
0010
0000
1000
0000
1000
0000
,
00M1
0100
0010
1000
0001
0010
0100
1000
0001
0010
0001
0100
0010
1000
0001
1000
,
0010
0100
0001
1000
0100
1000
0010
1000
0001
0100
0010
1000
0001
0100
0001
0010
,
0100
1000
0100
0010
0001
1000
0100
1000
0001
0010
0001
0100
0010
1000
0001
0100
,
0010
0100
0001
1000
0100
1000
0010
0100
0001
1000
0100
0010
0100
1000
0001
0100
,
0001
0010
0100
1000
0010
0100
0001
1000
0001
0100
0010
1000
0001
0100
0001
0010
,
0100
1000
0001
0010
0001
0100
0010
1000
0001
0100
0010
0100
0001
1000
0100
1000
,
0010
0100
0001
1000
0100
1000
0001
0010
0001
0100
0010
1000
0001
0100
0010
1000
,
0100
1000
0001
0100
0010
1000
0001
0100
0001
0010
0100
1000
0100
0010
0001
1000
,
0100
1000
0001
0010
0001
0100
0010
1000
0001
0100
0001
0010
0100
1000
0001
0100
,
0010
1000
0001
0100
0010
0100
0001
1000
0100
1000
0010
0100
0001
1000
0001
0010
,
0100
1000
0001
0010
0001
1000
0100
1000
0001
0100
0010
1000
0001
0100
0010
0100
,
0001
1000
0100
0010
0100
1000
0001
0100
0001
0010
0100
1000
0001
0100
0010
1000
,
0001
0100
0001
1000
0100
1000
0010
0100
0001
1000
0100
1000
0001
0100
0010
0100
,
0001
1000
0100
0010
0100
1000
0001
0010
0001
0100
0010
1000
0001
0100
0001
1000
,
0100
0010
0001
1000
0100
1000
0010
0100
0001
1000
0100
1000
0010
0100
0001
1000
,
0100
0000
0010
0000
0001
0000
0100
0010
1000
0000
0001
0100
0010
0000
1000
0000
,
0M01
0010
0001
1000
0010
0100
0001
1000
0100
0010
0001
1000
0100
1000
0010
0100
,
0001
1000
0010
1000
0001
0100
0001
0010
0100
1000
0100
0010
0001
1000
0100
1000
,
0001
1000
0010
0100
0001
0100
0010
1000
0001
1000
0100
0010
0001
1000
0100
1000
,
0100
0001
0010
0001
1000
0100
0010
0001
1000
0001
0100
0010
1000
0001
0100
0001
,
0010
0100
1000
0001
0010
0001
0100
0010
1000
0001
0100
0010
1000
0001
0100
0001
,
0010
0100
1000
0001
0010
0001
1000
0010
1000
0001
0100
0010
1000
0001
0100
0001
,
1000
0100
0010
0001
0100
0010
1000
0001
0100
0001
0010
0100
1000
0001
0010
0001
,
0100
0010
1000
0001
0100
0010
0100
0001
1000
0100
0010
0001
1000
0100
1000
0001
,
0010
0001
0100
0010
1000
0001
0100
0001
1000
0100
0010
0001
1000
0100
1000
0001
,
0010
0001
0100
0010
1000
0001
0100
0001
1000
0100
0010
0100
1000
0001
0010
0001
,
0100
0010
1000
0001
0100
0001
1000
0010
0100
0001
1000
0010
1000
0001
0100
0001
,
0010
0100
1000
0001
0010
0001
0100
0010
1000
0001
0100
0010
0100
0001
1000
0100
,
0010
0001
1000
0100
1000
0001
0010
0001
0100
0010
1000
0001
0100
0010
0100
0001
,
1000
0100
0010
0001
1000
0100
1000
0001
0010
0001
0100
0010
1000
0001
0100
0010
,
0100
0001
1000
0100
0010
0001
1000
0100
1000
0001
0100
0010
1000
0001
0100
0010
,
1000
0100
0010
0001
1000
0001
0100
0010
1000
0010
0100
0001
1000
0010
0100
0001
,
0100
0000
0000
0000
M000
0000
0000
0000
0200
0000
0000
0000
0310
0000
2000
0000
0000
0000
3002
0000
0000
0000
0023
0000
0000
M000
0230
0000
0000
0000
0300
0000
,
2000
0000
0000
0000
0000
0000
0000
0000
3000
0002
0000
0203
0000
0000
0000
0300
0000
0000
0000
0000
0000
0000
0000
0000
0000
0000
0000
0000
00M0
0000
0000
M000
,
0000
000M
0000
0000
0000
0000
0000
0000
0020
0000
0000
0000
1030
0000
0002
0000
0M00
0000
0023
0000
0000
0000
0230
0000
0000
000M
2300
0000
0000
0000
3002
0000
,
0M00
0000
0000
0003
0000
0000
0000
0000
0000
0000
0000
0000
0000
0000
0000
0000
0000
0000
0000
0000
0000
0000
0000
0000
0000
0000
0000
0000
0000
0000
0000
0000
,
00M0
0000
0000
000M
0000
0000
M000
0000
02M0
0000
M000
0000
0310
000M
2000
00M0
0000
0000
3M02
0000
0000
M000
0203
0000
000M
0000
M320
0000
0000
000M
2030
0M00
,
0000
0000
00M0
0000
0000
0M00
0000
0000
30M2
0000
02M3
0000
0000
M000
0300
000M
0000
0000
00M0
0000
0000
0M00
0000
0000
M000
0000
00M0
0000
0000
00M0
0000
0M00
,
0000
0000
M000
0000
0000
000M
0000
0000
0M02
0000
00M0
0000
1003
00M0
0200
M000
0000
0000
M320
0000
0000
0M00
0032
0000
0M00
0000
20M3
0000
0000
00M0
3002
0000
,
0M00
0000
0003
00M0
0000
0000
M000
0000
0000
0M00
0000
00M0
0000
0000
000M
0000
M000
0000
0000
000M
0000
0000
0M00
0000
0000
00M0
0000
M000
0000
0000
000M
0000
,
1000
0100
0010
0001
1000
0100
1000
0001
0100
0010
1000
0001
0100
0001
0010
0100
,
1000
0100
0010
0001
1000
0001
0010
0100
1000
0001
0100
0001
0010
0100
1000
0001
,
0100
0010
1000
0001
0100
0001
0010
0100
1000
0001
0010
0001
0100
0010
1000
0001
,
0100
0010
0100
0001
1000
0100
0010
0100
1000
0001
0010
0001
0100
0010
1000
0001
,
0100
0001
0010
0100
1000
0001
0010
0001
0100
0010
1000
0001
0100
0010
0100
0001
,
1000
0100
0010
0100
1000
0001
0010
0001
0100
0010
1000
0001
0100
0010
0100
0001
,
1000
0100
0010
0001
1000
0100
1000
0001
0010
0001
0100
0010
1000
0001
0100
0001
,
1000
0100
0010
0001
1000
0001
0100
0010
1000
0001
0100
0001
0010
0100
1000
0001
0010
0001
0100
0010
1000
0001
0100
0010
,
100M
0010
0100
0001
1000
0001
0100
0010
0100
0001
1000
0100
0010
0001
1000
0100
,
1000
0001
0010
0001
0100
0010
1000
0001
0100
0010
1000
0001
0100
0001
0010
0100
,
1000
0001
0010
0001
0010
0100
1000
0001
1000
0010
0100
0001
1000
0100
0010
0100
,
1000
0001
0010
0100
0010
0001
1000
0100
1000
0001
1000
0010
0100
0001
1000
0010
,
1000
0001
0100
0001
1000
0010
0100
0001
0100
0010
1000
0001
1000
0100
0010
0001
,
1000
0100
1000
0001
0010
0001
0100
0010
1000
0001
0100
0001
0010
0100
1000
0100
,
0010
0001
1000
0100
1000
0001
1000
0010
0100
0001
1000
0100
0010
0001
1000
0100
,
1000
0001
0010
0001
0100
0010
1000
0001
0100
0001
0010
0100
1000
0001
0010
0001
,
0100
0010
1000
0001
0100
0010
0100
0001
1000
0100
0010
0100
1000
0001
0010
0001
,
0100
0010
1000
0001
0100
0001
0010
0100
1000
0001
0010
0001
0100
0010
1000
0001
,
0100
0010
0100
0001
1000
0010
1000
0001
0100
0001
0010
0100
1000
0100
0010
0001
,
1000
0100
1000
0001
0100
0010
0100
0001
1000
0100
0010
0100
1000
0001
0010
0001
,
0100
0010
1000
0001
0100
0010
0100
0001
1000
0100
0010
0001
1000
0100
1000
0001
,
1000
0100
0010
0001
1000
0100
1000
0001
0010
0001
0100
0010
1000
0001
0100
0010
,
1000
0001
0100
0001
0010
0100
1000
0001
0010
0001
0100
0010
1000
0001
1000
0100
,
0010
0001
1000
0010
1000
0100
0010
0001
1000
0100
1000
0001
0100
0010
1000
0001
,
10M0
0100
1000
0001
0010
0001
0100
0010
1000
0001
0100
0001
0010
0100
1000
0001
,
0010
0001
0100
0010
1000
0001
0100
0001
1000
0100
0010
0100
1000
0001
0010
0001
,
0100
0010
1000
0001
0100
0010
0100
0001
1000
0010
1000
0001
0100
0001
0010
0100
,
1000
0001
0010
0001
0100
0010
1000
0001
0100
0010
0100
0001
1000
0100
0010
0001
,
1000
0100
1000
0001
0010
0001
1000
0100
0010
0001
1000
0100
1000
0001
0010
0001
,
0100
0010
1000
0001
0100
0001
1000
0010
0100
0001
1000
0100
1000
0001
0100
0001
,
0010
0100
1000
0001
0010
0001
0100
0010
1000
0001
0100
0010
0100
0001
1000
0100
,
0010
0001
1000
0100
1000
0001
1000
0010
0100
0001
1000
0100
0010
0001
1000
0100
,
1000
0001
0010
0001
0100
0010
1000
0001
0100
0010
1000
0001
0100
0001
0010
0100
,
1000
0001
0010
0001
0100
0010
1000
0001
1000
0100
0010
0001
1000
0100
1000
0001
,
0010
0001
0100
0010
1000
0001
0100
0010
0100
0001
1000
0100
0010
0001
1000
0100
,
1000
0001
0010
0001
0100
0010
1000
0001
0100
0001
1000
0100
0010
0001
1000
0010
,
1000
0100
0010
0001
1000
0100
0010
0100
1000
0001
0010
0001
0100
0010
1000
0001
,
0100
0010
1000
0100
1000
0001
0100
0010
1000
0001
0100
0001
0010
0100
1000
0001
,
0010
0001
0100
0010
1000
0001
0100
0010
0100
0001
1000
0100
0010
0001
1000
0010
,
0100
0001
1000
0001
0010
0100
1000
0001
0010
0001
0100
0010
1000
0001
0100
0010
0100
0001
1000
0100
0010
0001
1000
0010
,
M100
0001
1000
0000
0100
0010
0001
1000
0001
0100
0010
0100
0001
1000
0100
0000
,
0010
0001
0000
1000
0100
0010
0100
1000
0001
1000
0010
0100
0001
1000
0010
0000
,
0100
0001
0000
1000
0010
0100
0001
1000
0001
0010
0100
1000
0001
0100
0001
0000
,
1000
0010
0000
0100
0001
1000
0100
1000
0010
0100
0010
1000
0001
0100
0001
0000
,
1000
0010
0000
1000
0100
0010
0001
1000
0010
1000
0001
0100
0010
1000
0010
0000
,
0100
0001
0000
1000
0100
1000
0010
0100
0001
1000
0100
0010
0001
1000
0001
0000
,
0010
0100
0000
1000
0001
0100
0001
1000
0100
1000
0100
0010
0001
1000
0001
0000
,
0100
0010
0000
0100
0001
1000
0100
0010
0001
1000
0001
0100
0010
1000
0001
0000
,
10M0
0000
0100
0000
0010
0000
0001
0100
0010
0000
1000
0000
0001
0100
0001
0000
,
0010
0000
0100
0000
1000
0000
0010
0100
0001
0000
1000
0000
0001
0010
0100
0000
,
1000
0000
0010
0000
0100
0000
0001
0010
0001
0000
1000
0000
0010
0100
0001
0000
,
1000
0000
0001
0000
0010
0000
0100
1000
0001
0000
1000
0000
0010
0100
0010
0000
,
1000
0000
0001
0000
0010
0000
0100
1000
0001
0000
1000
0000
0010
0100
0001
0000
,
1000
0000
0100
0000
0010
0000
0001
1000
0001
0000
0100
0000
0010
1000
0001
0000
,
1000
0000
0100
0000
1000
0000
0010
0100
0001
0000
1000
0000
0001
0010
0100
0000
,
1000
0000
0010
0000
0100
0000
0001
1000
0001
0000
0010
0000
0100
1000
0001
0000
,
10M0
0100
1000
0001
0100
0010
1000
0001
0100
0001
0010
0100
1000
0001
0010
0001
,
0100
0010
1000
0001
0100
0001
1000
0010
0100
0001
0100
0010
1000
0001
0010
0001
,
0100
0010
1000
0001
0100
0010
0100
0001
1000
0100
0010
0001
1000
0100
1000
0010
,
0100
0001
1000
0100
0010
0001
0100
0010
1000
0001
0100
0001
0010
0100
1000
0001
,
0010
0001
0100
0010
1000
0001
0100
0010
0100
0001
1000
0100
0010
0100
1000
0001
,
0100
0001
0010
0100
1000
0001
1000
0010
0100
0001
1000
0010
0100
0001
0100
0010
,
1000
0001
1000
0100
0010
0001
1000
0100
1000
0001
0010
0001
0100
0010
1000
0001
,
0100
0010
0100
0001
1000
0100
0010
0001
1000
0001
0010
0100
1000
0010
0100
0000
,
0001
1000
0010
0100
0001
1000
0010
1000
0100
0010
0001
1000
0100
1000
0001
0010
,
0001
0100
0010
1000
0001
0100
0010
0100
0001
1000
0100
0010
0001
1000
0100
1000
,
0001
0010
0001
1000
0001
0100
0010
1000
0001
0100
0010
0100
0001
0010
0001
1000
,
0100
0010
0100
1000
0001
0100
0001
0010
0100
1000
0001
0010
0001
0100
0010
1000
,
0001
0100
0010
1000
0001
1000
0100
0010
0100
1000
0001
1000
0010
1000
0001
0100
,
0001
1000
0001
0010
0100
0010
0001
1000
0100
1000
0001
1000
0010
0100
0001
1000
,
0100
0010
0001
1000
0100
1000
0001
0010
0001
0100
0010
1000
0001
0100
0001
1000
,
0100
0010
0001
1000
0100
1000
0001
0010
0001
0100
0010
1000
0001
0100
0010
0100
,
0001
1000
0100
0010
0001
1000
0100
1000
0001
0010
0001
0100
0010
1000
0001
0100
,
0010
0100
0001
1000
0100
0010
0100
1000
0001
0010
0001
0100
0010
1000
0001
0100
,
0001
1000
0100
0010
0001
1000
0100
1000
0001
0010
0001
0100
0010
1000
0001
0100
,
0001
1000
0010
0100
0001
1000
0010
1000
0001
1000
0100
0010
0001
1000
0100
1000
,
0001
0010
0001
0100
0010
1000
0001
0100
0010
0100
0001
1000
0100
0010
0001
1000
,
0100
1000
0010
1000
0001
0100
0001
0010
0100
1000
0100
0010
0001
1000
0010
0100
,
0001
0100
0010
1000
0100
1000
0001
0010
0001
0100
0010
1000
0001
0100
0001
1000
,
0100
0010
0001
1000
0100
1000
0010
0100
0001
1000
0010
1000
0001
0100
0001
0000
,
10M0
0000
0000
0000
0M00
0000
0000
000M
0000
0000
0000
00M0
0000
0000
0000
0000
0M00
0000
0000
0000
0000
0000
0000
0000
2000
0000
0000
0000
3010
0000
0200
0000
,
0000
0000
0302
0000
0000
0000
2003
0000
0000
0M00
3020
0000
0000
0000
0030
0000
0200
0000
0000
0000
0000
0000
0000
0000
0300
0020
0000
2030
0000
0000
0000
3000
,
0000
0000
0000
0000
0000
0000
0000
0000
0000
0000
0000
0000
00M0
0000
0000
0M00
0000
000M
0000
0000
0000
0000
0000
0000
2000
0000
0000
0000
3010
0000
0200
0000
,
M000
0000
0302
0000
0000
0000
2003
0000
0000
0M00
3002
0000
0000
0000
0023
0000
0000
0M00
0030
0000
0000
0000
0000
0000
000M
0000
0000
0000
0000
0000
0000
0000
,
000M
0000
0000
0000
0000
0000
0000
0000
0000
0000
0000
0000
0000
0000
0000
0000
M000
0000
0000
0M00
0000
0000
00M0
0000
M002
0000
00M0
0000
1003
0M00
0020
000M
,
0000
0000
M230
0000
0000
00M0
0302
0000
00M0
0000
2M03
0000
0000
00M0
3200
000M
0000
0000
M000
0000
0000
000M
0000
0300
M020
0000
0M32
0000
0000
M000
0003
00M0
,
0000
0000
0M00
0000
0000
000M
0000
0000
M000
0000
0000
0M00
0000
0000
00M0
0000
000M
0000
0000
M000
0000
0000
00M0
0000
0200
00M0
0000
M000
0301
0000
20M0
0000
,
0M00
0000
3020
000M
0000
0000
M230
0000
0000
00M0
0302
M000
0000
0000
2M03
0000
00M0
0000
3000
000M
0000
0000
0M00
0000
0000
00M0
0000
M000
0000
0000
000M
0000
,
0M00
0000
0000
00M0
0000
0000
M000
0000
0000
000M
0000
00M0
0000
0000
0M00
0000
1000
0000
0000
0010
0000
0000
0100
0000
0000
0001
0000
0001
0000
0000
1000
0000
,
1000
0000
0000
0010
0000
0000
0100
0000
0000
0001
0000
0001
0000
0000
1000
0000
0100
0000
0000
0100
0000
0000
0100
0000
0000
0010
0000
0001
0000
0000
1000
0000
,
0010
0000
0000
0100
0000
0000
0001
0000
0000
1000
0000
0100
0000
0000
0010
0000
0001
0000
1000
0000
0010
0000
0100
0000
0001
0000
1000
0000
0100
0000
1000
0000
,
0010
0100
0001
1000
0100
0010
0001
1000
0100
1000
0010
0100
0001
1000
0100
0010
,
0001
1000
0100
1000
0001
0010
0001
0100
0010
1000
0001
0100
0001
1000
0100
0010
,
0100
0000
0000
1000
0000
0000
0001
0000
0000
0100
0000
0000
0010
0000
0000
0100
0000
0000
0001
0000
0000
1000
0000
0000
0100
0000
0010
0000
0001
0000
1000
0000
0001
0000
0100
0000
0010
0000
1000
0000
0001
0000
0100
0000
0001
0000
0010
0000
,
0100
0000
1000
0000
0001
0000
0010
0000
0001
0000
0100
0000
0010
0000
1000
0000
0001
0000
0100
0000
0010
0000
0100
0000
M001
0000
0000
0100
0000
0000
0010
0000
0000
1000
0000
0000
0001
0000
0000
0100
0000
0000
0001
0000
0000
0010
0000
0000
,
0100
1000
0001
0010
0001
0100
0010
1000
0001
0100
0001
1000
0100
0010
0100
1000
,
0001
0010
0001
0100
0010
1000
0001
0100
0010
0100
0001
1000
0010
1000
0001
0100
,
0001
0010
0100
1000
0001
0010
0001
0100
0010
1000
0001
0100
0010
0100
0001
1000
,
0100
0010
0001
1000
0100
1000
0001
0010
0001
1000
0100
0010
0001
1000
0100
1000
,
0001
0010
0001
0100
0010
1000
0001
0100
0001
1000
0010
0100
0001
1000
0100
1000
,
0001
0100
0001
0010
0100
1000
0001
0010
0001
0100
0010
1000
0001
0100
0010
0100
,
0001
1000
0100
0010
0001
1000
0100
1000
0001
0100
0010
0100
0001
1000
0100
0010
,
0001
1000
0100
1000
0001
0010
0001
0100
0010
1000
0001
0100
0010
1000
0001
0100
,
0001
0010
0100
1000
0001
0010
0001
0100
0010
1000
0001
1000
0100
0010
0001
1000
,
0100
1000
0001
0010
0001
0100
0010
1000
0001
0100
0010
0100
0001
1000
0100
0010
,
0001
1000
0100
1000
0001
0010
0001
0100
0010
1000
0001
0100
0001
1000
0100
0010
,
0001
1000
0010
1000
0100
0010
0001
1000
0100
0010
0100
1000
0001
0010
0001
0100
,
0010
1000
0001
0100
0010
1000
0100
1000
0001
0100
0010
1000
0001
0100
0001
0010
,
0100
1000
0001
0010
0001
0100
0010
1000
0001
0100
0010
0100
0001
1000
0100
0010
,
0001
1000
0010
0100
0001
1000
0100
0010
0001
0100
0001
1000
0100
1000
0001
0010
,
0001
0100
0010
1000
0001
0010
0100
1000
00MM
0100
0001
1000
0010
0100
0001
0010
,
0100
1000
0001
0010
0001
0100
0010
1000
0001
0100
0001
1000
0100
0010
0100
1000
,
0001
0010
0001
0100
0010
1000
0001
0100
0010
0100
0001
1000
0010
1000
0001
0100
,
0001
0010
0100
1000
0001
0010
0001
0100
0010
1000
0001
0100
0010
0100
0001
1000
,
0100
0010
0001
1000
0100
1000
0001
0010
0001
1000
0100
0010
0001
1000
0100
1000
,
0001
0010
0001
0100
0010
1000
0001
0100
0001
1000
0010
0100
0001
1000
0100
1000
,
0001
0100
0001
0010
0100
1000
0001
0010
0001
0100
0010
1000
0001
0100
0010
0100
,
0001
1000
0100
0010
0001
1000
0100
1000
0001
1000
0010
0100
0001
1000
0100
0010
,
0001
1000
0100
1000
0001
0010
0001
0100
0010
1000
0001
0100
0010
1000
0001
0100
,
0001
0010
0100
1000
0001
0010
0001
0100
0010
1000
0001
1000
0100
0010
0001
1000
,
0100
1000
0001
0010
0001
0100
0010
1000
0001
0100
0010
0100
0001
1000
0100
0010
,
0001
1000
0100
1000
0001
0010
0001
0100
0010
1000
0001
0100
0001
1000
0100
0010
,
0001
1000
0010
1000
0100
0010
0001
1000
0100
0010
0100
1000
0001
0010
0001
0100
,
0010
1000
0001
0100
0010
1000
0100
1000
0001
0100
0010
1000
0001
0100
0001
0010
,
0100
1000
0001
0010
0001
0100
0010
1000
0001
0100
0010
0100
0001
1000
0100
0010
,
0001
1000
0100
0010
0001
1000
0100
1000
0010
0100
0001
1000
0100
1000
0010
0100
,
0001
1000
0100
0010
0001
1000
0010
0100
M001
0100
0010
1000
0001
0100
0010
0100
,
0001
1000
0100
0010
0100
1000
0001
0010
0001
0100
0010
1000
0001
0100
0010
0100
,
0001
1000
0100
0010
0001
1000
0100
1000
0010
0100
0001
1000
0100
0010
0100
1000
,
0001
0100
0001
0010
0100
1000
0001
0010
0001
0100
0010
1000
0001
0100
0010
1000
,
0100
1000
0001
0010
0001
0100
0010
1000
0001
0100
0010
0100
0001
1000
0100
0010
,
0100
1000
0001
0010
0001
1000
0100
0010
0001
1000
0100
1000
0001
0100
0010
1000
,
0001
0100
0001
0010
0100
1000
0001
0010
0001
1000
0100
0010
0001
1000
0100
1000
,
0010
0100
0001
1000
0100
1000
0001
0100
0001
0010
0100
1000
0010
0100
0001
1000
,
0100
1000
0001
0010
0001
1000
0100
1000
0001
0100
0001
1000
0010
0100
0001
1000
,
0001
0100
0010
1000
0001
0100
0001
0010
0100
1000
0001
0010
0001
1000
0100
0010
,
0001
1000
0100
1000
0010
0100
0001
1000
0100
1000
0001
0100
0010
1000
0001
0100
,
0010
0100
0001
1000
0100
0010
0100
1000
0001
0100
0001
0010
0100
1000
0010
1000
,
0001
0010
0001
0100
0010
1000
0001
0100
0010
1000
0001
0100
0010
0100
0001
1000
,
0100
0010
0001
1000
0100
1000
0001
0100
0010
1000
0100
1000
0001
0010
0001
0100
,
0010
1000
0001
0100
0001
0010
0100
1000
0001
0010
0001
1000
0100
0010
0001
1000
,
0100
1000
0001
1000
0100
0010
0100
1000
0001
0010
0001
0100
0010
1000
0001
0100
,
0010
0100
0001
1000
0100
0010
0001
1000
0M10
0000
0100
0000
0001
0000
1000
0000
,
0010
1000
0001
0100
0001
0010
0100
1000
,
0001
0010
0001
0100
0010
1000
0001
0100
,
0001
1000
0100
0010
0100
1000
0001
0010
,
0001
0100
0010
1000
0001
0100
0001
1000
,
0100
0010
0001
1000
0100
1000
0010
0100
,
0001
1000
0100
1000
0001
0010
0001
0100
,
0010
1000
0001
0100
0010
0100
0001
1000
,
0100
0010
0100
1000
0001
1000
0010
0100
,
0001
0100
0010
1000
0001
1000
0100
0010
,
0001
1000
0100
1000
0001
0010
0001
0100
,
0010
1000
0001
0100
0001
0010
0100
1000
,
0001
0010
0001
1000
0100
0010
0001
1000
,
0001
0100
0010
1000
0001
0100
0001
1000
,
0100
0010
0001
1000
0100
1000
0010
0100
,
0001
1000
0100
1000
0M01
0010
M001
0100
,
001M
0000
0100
0000
0M01
0000
1000
0000
1MM2
0000
0000
M000
0000
0000
0000
0000
,
0000
0000
0000
0000
0000
0000
0000
0000
0000
0000
0000
0000
0003
0000
0000
0000
0000
0000
0000
MMMM
0000
0000
0000
0000
0000
0000
0000
0000
0000
0000
0000
0000
;

//---------------dance-single - 17+ (Owem)----------------
#NOTES:
     dance-single:
     17+ (Owem):
     Challenge:
     17:
     1.000,1.000,0.000,0.143,1.000,3755.000,0.000,58.000,137.000,0.000:
1000
0100
0010
0001
1000
0001
0100
0010
,
1000
0001
0100
0001
0010
0100
1000
0001
,
0010
0001
0100
0010
1000
0001
0100
0010
,
0100
0001
1000
0100
0010
0100
1000
0001
,
1000
0010
0100
0001
1000
0010
1000
0001
,
0100
0010
0100
0001
1000
0100
0010
0001
,
1000
0100
1000
0001
0010
0001
0100
0010
,
1000
0001
0100
0001
0010
0100
1000
0010
,
0100
0001
0100
0000
0010
0000
1000
0000
0001
0010
0100
0000
1000
0000
0010
0000
,
1000
0010
0100
0000
0001
0000
1000
0000
0001
0100
0001
0000
1000
0000
0100
0000
,
0010
0001
0010
0000
0100
0000
1000
0000
0001
0100
0010
0000
1000
0000
0010
0000
,
0100
0001
1000
0000
0010
0000
1000
0000
0001
0010
0001
0000
0100
0000
0010
0000
,
1000
0001
1000
0000
0100
0000
0010
0000
0001
1000
0100
0000
0010
0000
0001
0000
,
1000
0010
0100
0000
0001
0000
1000
0000
0010
0100
0010
0000
1000
0000
0001
0000
,
1000
0010
1000
0000
0100
0000
0010
0000
0001
0100
0010
0000
1000
0000
0001
0000
,
0010
0100
1000
0000
0001
0000
1000
0000
0010
0100
0010
0000
1000
0000
1000
0000
,
00M1
0100
0010
1000
0001
0010
0100
1000
0001
0010
0001
0100
0010
1000
0001
1000
,
0010
0100
0001
1000
0100
1000
0010
1000
0001
0100
0010
1000
0001
0100
0001
0010
,
0100
1000
0100
0010
0001
1000
0100
1000
0001
0010
0001
0100
0010
1000
0001
0100
,
0010
0100
0001
1000
0100
1000
0010
0100
0001
1000
0100
0010
0100
1000
0001
0100
,
0001
0010
0100
1000
0010
0100
0001
1000
0001
0100
0010
1000
0001
0100
0001
0010
,
0100
1000
0001
0010
0001
0100
0010
1000
0001
0100
0010
0100
0001
1000
0100
1000
,
0010
0100
0001
1000
0100
1000
0001
0010
0001
0100
0010
1000
0001
0100
0010
1000
,
0100
1000
0001
0100
0010
1000
0001
0100
0001
0010
0100
1000
0100
0010
0001
1000
,
0100
1000
0001
0010
0001
0100
0010
1000
0001
0100
0001
0010
0100
1000
0001
0100
,
0010
1000
0001
0100
0010
0100
0001
1000
0100
1000
0010
0100
0001
1000
0001
0010
,
0100
1000
0001
0010
0001
1000
0100
1000
0001
0100
0010
1000
0001
0100
0010
0100
,
0001
1000
0100
0010
0100
1000
0001
0100
0001
0010
0100
1000
0001
0100
0010
1000
,
0001
0100
0001
1000
0100
1000
0010
0100
0001
1000
0100
1000
0001
0100
0010
0100
,
0001
1000
0100
0010
0100
1000
0001
0010
0001
0100
0010
1000
0001
0100
0001
1000
,
0100
0010
0001
1000
0100
1000
0010
0100
0001
1000
0100
1000
0010
0100
0001
1000
,
0100
0000
0010
0000
0001
0000
0100
0010
1000
0000
0001
0100
0010
0000
1000
0000
,
0001
0010
0100
1000
0001
0100
0010
1000
0001
0100
0001
0010
0100
1000
0001
0010
0001
0100
0010
1000
0001
0100
0001
1000
,
0100
1000
0010
0100
0001
1000
0100
0010
0100
1000
0001
0010
0001
0100
0010
1000
0001
0100
0001
1000
0010
1000
0001
0100
,
0010
1000
0001
0100
0010
0100
0001
1000
0100
0010
0100
1000
0001
0010
0001
0100
0010
1000
0001
0100
0010
1000
0100
1000
,
0001
0010
0001
0100
0010
1000
0001
0100
0001
1000
0100
0010
0100
1000
0001
0100
0001
0010
0100
1000
0001
1000
0010
0100
,
0001
1000
0100
1000
0010
0100
0001
1000
0010
0100
0001
0100
0010
1000
0001
0100
0010
0100
0001
1000
0100
0010
0100
1000
,
0001
0100
0001
1000
0100
0010
0001
1000
0001
0010
0100
1000
0001
0100
0001
1000
0010
0100
0001
1000
0100
0010
0100
1000
,
0001
0010
0001
1000
0100
1000
0001
0100
0010
1000
0001
0100
0001
1000
0010
0100
0001
0100
0010
1000
0001
1000
0100
0010
,
0001
1000
0100
1000
0001
0100
0001
0010
0100
1000
0001
0010
0001
0100
0010
1000
0001
0100
0001
1000
0100
0010
0100
1000
,
0001
0100
0001
1000
0010
0100
0001
1000
0001
0100
0010
1000
0001
0100
0001
0010
0100
1000
0001
0010
0001
0100
0010
1000
,
0001
0100
0010
0100
0001
1000
0100
1000
0010
0100
0001
1000
0100
0010
0001
1000
0100
1000
0010
0100
0001
1000
0100
1000
,
0001
0010
0001
1000
0001
0100
0010
0100
0001
1000
0100
1000
0001
0100
0001
0010
0100
1000
0100
0010
0001
1000
0100
1000
,
0001
1000
0010
0100
0001
1000
0100
1000
0001
0100
0010
0100
0001
1000
0100
0010
0100
1000
0001
0100
0001
1000
0100
0010
,
0001
1000
0100
1000
0001
0010
0001
0100
0010
1000
0001
0100
0001
0100
0010
1000
0001
0100
0001
0010
0100
1000
0001
0100
,
0010
1000
0001
0100
0010
0100
0001
1000
0100
1000
0001
0010
0001
0100
0010
1000
0001
0100
0001
0010
0100
1000
0001
0010
,
0001
1000
0100
0010
0100
1000
0001
1000
0010
0100
0001
1000
0100
1000
0001
0100
0001
1000
0010
0100
0001
1000
0100
0010
,
0001
0100
0010
1000
0001
0010
0001
1000
0100
0010
0100
1000
0001
1000
0010
0100
,
0002
0000
0000
0000
M000
0000
0000
0000
0203
0000
0000
0000
0310
0000
2000
0000
0000
0000
3002
0000
0000
0000
0023
0000
0000
M000
0230
0000
0000
0000
0300
0000
,
2000
0000
0000
0000
0000
0000
0000
0000
3000
0002
0000
0203
0000
0000
0000
0300
0000
0000
0000
0000
0000
0000
0000
0000
0000
0000
0000
0000
00M0
0000
0000
M000
,
0000
000M
0000
0000
0000
0000
0000
0000
0020
0000
0000
0000
1030
0000
0002
0000
0M00
0000
0023
0000
0000
0000
0230
0000
0000
000M
2300
0000
0000
0000
3002
0000
,
0M00
0000
0000
0003
0000
0000
0000
0000
0000
0000
0000
0000
0000
0000
0000
0000
0000
0000
0000
0000
0000
0000
0000
0000
0000
0000
0000
0000
0000
0000
0000
0000
,
00M0
0000
0000
000M
0000
0000
M000
0000
02M0
0000
M000
0000
0310
000M
2000
00M0
0000
0000
3M02
0000
0000
M000
0203
0000
000M
0000
M320
0000
0000
000M
2030
0M00
,
0000
0000
00M0
0000
0000
0M00
0000
0000
30M2
0000
02M3
0000
0000
M000
0300
000M
0000
0000
00M0
0000
0000
0M00
0000
0000
M000
0000
00M0
0000
0000
00M0
0000
0M00
,
0000
0000
M000
0000
0000
000M
0000
0000
0M02
0000
00M0
0000
1003
00M0
0200
M000
0000
0000
M320
0000
0000
0M00
0032
0000
0M00
0000
20M3
0000
0000
00M0
3002
0000
,
0M00
0000
0003
00M0
0000
0000
M000
0000
0000
0M00
0000
00M0
0000
0000
000M
0000
M000
0000
0000
000M
0000
0000
0M00
0000
0000
00M0
0000
M000
0000
0000
000M
0000
,
1000
0100
0010
0001
1000
0100
1000
0001
0100
0010
1000
0001
0100
0001
0010
0100
,
1000
0100
0010
0001
1000
0001
0010
0100
1000
0001
0100
0001
0010
0100
1000
0001
,
0100
0010
1000
0001
0100
0001
0010
0100
1000
0001
0010
0001
0100
0010
1000
0001
,
0100
0010
0100
0001
1000
0100
0010
0100
1000
0001
0010
0001
0100
0010
1000
0001
,
0100
0001
0010
0100
1000
0001
0010
0001
0100
0010
1000
0001
0100
0010
0100
0001
,
1000
0100
0010
0100
1000
0001
0010
0001
0100
0010
1000
0001
0100
0010
0100
0001
,
1000
0100
0010
0001
1000
0100
1000
0001
0010
0001
0100
0010
1000
0001
0100
0001
,
1000
0100
0010
0001
1000
0001
0100
0010
1000
0001
0100
0001
0010
0100
1000
0001
0010
0001
0100
0010
1000
0001
0100
0010
,
100M
0100
1000
0001
0100
0010
1000
0001
0100
0001
0010
0100
1000
0001
0010
0001
0100
0010
1000
0001
0100
0010
0100
0001
,
0100
0010
1000
0001
0100
0001
0010
0100
1000
0001
0010
0001
0100
0010
1000
0001
0100
0010
1000
0100
1000
0001
0100
0001
,
0010
0100
1000
0001
0010
0001
0100
0010
1000
0001
0100
0001
1000
0100
0010
0100
1000
0001
0010
0001
0100
0010
1000
0001
,
0100
0001
1000
0100
0010
0001
1000
0100
1000
0001
0100
0010
1000
0001
0100
0001
0010
0100
1000
0001
0010
0001
0100
0010
,
1000
0001
0100
0010
0100
0001
1000
0100
0010
0001
0100
0010
1000
0001
0100
0001
0010
0100
1000
0001
0010
0001
0100
0010
,
0100
0001
1000
0100
0010
0100
1000
0001
0100
0001
0010
0100
1000
0001
0010
0001
0100
0010
0100
0001
1000
0100
0010
0100
,
1000
0001
0010
0001
0100
0010
1000
0001
0100
0001
0010
0100
1000
0100
0010
0001
1000
0100
1000
0001
0100
0010
0100
0001
,
1000
0010
1000
0001
0100
0001
0010
0100
1000
0001
0010
0001
0100
0010
1000
0001
0100
0001
0010
0100
1000
0001
1000
0010
,
M100
0001
1000
0010
1000
0001
0100
0001
0010
0100
1000
0001
0010
0001
0100
0010
1000
0001
0100
0001
1000
0100
0010
0001
,
1000
0100
1000
0010
0100
0001
1000
0100
1000
0100
0010
0001
1000
0100
1000
0001
0010
0001
0100
0010
1000
0001
0100
0010
,
0100
0001
1000
0100
0010
0100
1000
0001
0010
0001
0100
0010
1000
0001
0100
0001
0010
0100
1000
0100
0010
0001
1000
0100
,
1000
0001
0010
0001
0100
0010
1000
0001
0100
0010
0100
0001
1000
0100
1000
0001
0010
0001
0100
0010
1000
0001
0100
0001
,
0010
0100
1000
0001
0010
0001
0100
0010
1000
0001
0100
0010
0100
0001
1000
0100
0010
0100
1000
0001
0010
0001
0100
0010
,
1000
0001
0010
0001
0100
0010
1000
0001
0100
0001
0010
0100
1000
0001
0010
0001
0100
0010
0100
0001
1000
0100
0010
0100
,
1000
0001
0010
0001
0100
0010
0100
0001
1000
0100
0010
0100
1000
0001
0100
0010
0100
0001
1000
0100
0010
0001
1000
0010
,
0100
0001
1000
0010
1000
0100
0010
0001
1000
0100
1000
0001
0100
0010
1000
0001
,
10M0
0100
0010
0001
1000
0001
0100
0010
1000
0001
0100
0001
0010
0100
1000
0001
0010
0001
0100
0010
1000
0001
0100
0010
,
0100
0001
1000
0010
1000
0001
0100
0010
1000
0001
0100
0001
0010
0100
1000
0001
0010
0001
0100
0010
1000
0001
0100
0010
,
0100
0001
1000
0010
1000
0001
0100
0001
1000
0100
0010
0100
1000
0001
0100
0001
0010
0100
1000
0001
0010
0001
0100
0010
,
1000
0001
0100
0010
0100
0001
1000
0100
1000
0010
0100
0001
0100
0010
1000
0001
0100
0001
0010
0100
1000
0001
0010
0001
,
0100
0010
1000
0001
0100
0010
0100
0001
1000
0100
0010
0001
1000
0100
1000
0001
0100
0010
1000
0001
0100
0001
0010
0100
,
1000
0001
0010
0001
0100
0010
1000
0001
0100
0001
1000
0010
0100
0001
1000
0001
0010
0100
1000
0001
0010
0001
0100
0010
,
1000
0001
0100
0010
0100
0001
0010
0001
1000
0100
0010
0100
1000
0001
0100
0001
0010
0100
1000
0001
0010
0001
0100
0010
,
1000
0001
0100
0010
0100
0001
0100
0010
1000
0001
0100
0001
0010
0100
1000
0100
0010
0001
1000
0100
1000
0001
0100
0010
,
1M00
0001
0100
0010
0100
0001
1000
0100
1000
0001
0100
0001
0010
0100
1000
0100
0010
0001
1000
0100
1000
0001
0010
0001
,
0100
0010
1000
0001
0100
0001
1000
0010
1000
0001
0100
0010
0100
0001
1000
0100
0010
0100
1000
0001
0100
0001
0010
0100
,
1000
0001
0100
0010
0100
0001
0010
0001
1000
0100
1000
0001
0100
0010
1000
0001
0010
0001
0100
0010
1000
0001
0100
0001
,
1000
0100
0010
0001
1000
0100
1000
0001
0100
0010
1000
0001
0100
0001
0010
0100
1000
0001
0010
0001
0100
0010
1000
0001
,
1000
0100
0010
0001
1000
0100
0010
0100
1000
0001
0010
0001
0100
0010
1000
0001
,
0100
0010
1000
0100
1000
0001
0100
0010
1000
0001
0100
0001
0010
0100
1000
0001
,
0010
0001
0100
0010
1000
0001
0100
0010
0100
0001
1000
0100
0010
0001
1000
0010
,
0100
0001
1000
0001
0010
0100
1000
0001
0010
0001
0100
0010
1000
0001
0100
0010
0100
0001
1000
0100
0010
0001
1000
0010
,
M100
0001
1000
0000
0100
0010
0001
1000
0001
0100
0010
0100
0001
1000
0100
0000
,
0010
0001
0000
1000
0100
0010
0100
1000
0001
1000
0010
0100
0001
1000
0010
0000
,
0100
0001
0000
1000
0010
0100
0001
1000
0001
0010
0100
1000
0001
0100
0001
0000
,
1000
0010
0000
0100
0001
1000
0100
1000
0010
0100
0010
1000
0001
0100
0001
0000
,
1000
0010
0000
1000
0100
0010
0001
1000
0010
1000
0001
0100
0010
1000
0010
0000
,
0100
0001
0000
1000
0100
1000
0010
0100
0001
1000
0100
0010
0001
1000
0001
0000
,
0010
0100
0000
1000
0001
0100
0001
1000
0100
1000
0100
0010
0001
1000
0001
0000
,
0100
0010
0000
0100
0001
1000
0100
0010
0001
1000
0001
0100
0010
1000
0001
0000
,
10M0
0000
0100
0000
0010
0000
0001
0100
0010
0000
1000
0000
0001
0100
0001
0000
,
0010
0000
0100
0000
1000
0000
0010
0100
0001
0000
1000
0000
0001
0010
0100
0000
,
1000
0000
0010
0000
0100
0000
0001
0010
0001
0000
1000
0000
0010
0100
0001
0000
,
1000
0000
0001
0000
0010
0000
0100
1000
0001
0000
1000
0000
0010
0100
0010
0000
,
1000
0000
0001
0000
0010
0000
0100
1000
0001
0000
1000
0000
0010
0100
0001
0000
,
1000
0000
0100
0000
0010
0000
0001
1000
0001
0000
0100
0000
0010
1000
0001
0000
,
1000
0000
0100
0000
1000
0000
0010
0100
0001
0000
1000
0000
0001
0010
0100
0000
,
1000
0000
0010
0000
0100
0000
0001
1000
0001
0000
0010
0000
0100
1000
0001
0000
,
10M0
0100
1000
0001
0100
0010
1000
0001
0100
0001
0010
0100
1000
0001
0010
0001
,
0100
0010
1000
0001
0100
0001
1000
0010
0100
0001
0100
0010
1000
0001
0010
0001
,
0100
0010
1000
0001
0100
0010
0100
0001
1000
0100
0010
0001
1000
0100
1000
0010
,
0100
0001
1000
0100
0010
0001
0100
0010
1000
0001
0100
0001
0010
0100
1000
0001
,
0010
0001
0100
0010
1000
0001
0100
0010
0100
0001
1000
0100
0010
0100
1000
0001
,
0100
0001
0010
0100
1000
0001
1000
0010
0100
0001
1000
0010
0100
0001
0100
0010
,
1000
0001
1000
0100
0010
0001
1000
0100
1000
0001
0010
0001
0100
0010
1000
0001
,
0100
0010
0100
0001
1000
0100
0010
0001
1000
0001
0010
0100
1000
0010
0100
0000
,
0001
1000
0010
0100
0001
0100
0010
1000
0001
1000
0100
0010
0100
1000
0001
0010
0001
0100
0010
1000
0001
0100
0010
0100
,
0001
1000
0100
0010
0001
1000
0100
1000
0001
0010
0001
0100
0010
1000
0001
0100
0010
0100
0001
1000
0100
0010
0001
1000
,
0100
1000
0001
0010
0001
0100
0010
1000
0001
0100
0001
1000
0100
0010
0100
1000
0001
0010
0001
0100
0010
1000
0001
0100
,
0001
0010
0100
1000
0100
0010
0001
0100
0001
1000
0100
1000
0010
0100
0001
1000
0001
0010
0100
1000
0001
0010
0001
0100
,
0010
1000
0001
0100
0010
0100
0001
1000
0100
0010
0100
1000
0001
0010
0001
0100
0010
1000
0001
0100
0010
0100
0001
1000
,
0100
0010
0100
1000
0001
1000
0010
0100
0001
1000
0100
1000
0001
0010
0001
0100
0010
1000
0001
0100
0001
1000
0100
0010
,
0100
1000
0001
0010
0001
0100
0010
1000
0001
0100
0010
0100
0001
1000
0100
0010
0100
1000
0001
0010
0001
0100
0010
1000
,
0001
0100
0001
1000
0100
0010
0001
1000
0001
0100
0010
1000
0001
0100
0001
1000
0100
0010
0100
1000
0001
0010
0001
1000
,
0010
1000
0001
0100
0010
1000
0001
0100
0001
0010
0100
1000
0001
0010
0001
1000
0100
0010
0001
1000
0100
1000
0001
0100
,
0010
1000
0001
0100
0001
1000
0100
0010
0001
1000
0100
1000
0001
0010
0001
0100
0010
1000
0001
0100
0001
1000
0010
0100
,
0001
1000
0100
1000
0010
0100
0001
1000
0100
0010
0100
1000
0001
0100
0001
0010
0100
1000
0001
1000
0010
0100
0001
1000
,
0100
0010
0100
1000
0001
1000
0010
0100
0001
1000
0100
1000
0001
0010
0001
0100
0010
1000
0001
0100
0010
0100
0001
1000
,
0100
0010
0001
1000
0100
1000
0001
0010
0001
0100
0010
1000
0001
0100
0010
0100
0001
1000
0100
1000
0010
0100
0001
1000
,
0100
0010
0001
1000
0001
0100
0010
1000
0001
0100
0001
0010
0100
1000
0001
0100
0001
1000
0010
0100
0001
1000
0100
1000
,
0010
0100
0001
1000
0100
1000
0001
0010
0001
0100
0010
1000
0001
0100
0001
1000
,
0100
0010
0001
1000
0100
1000
0010
0100
0001
1000
0010
1000
0001
0100
0001
0000
,
10M0
0000
0000
0000
0M00
0000
0000
000M
0000
0000
0000
00M0
0000
0000
0000
0000
0M00
0000
0000
0000
0000
0000
0000
0000
2000
0000
0000
0000
3010
0000
0200
0000
,
0000
0000
0302
0000
0000
0000
2003
0000
0000
0M00
3020
0000
0000
0000
0030
0000
0200
0000
0000
0000
0000
0000
0000
0000
0300
0020
0000
2030
0000
0000
0000
3000
,
0000
0000
0000
0000
0000
0000
0000
0000
0000
0000
0000
0000
00M0
0000
0000
0M00
0000
000M
0000
0000
0000
0000
0000
0000
2000
0000
0000
0000
3010
0000
0200
0000
,
M000
0000
0302
0000
0000
0000
2003
0000
0000
0M00
3002
0000
0000
0000
0023
0000
0000
0M00
0030
0000
0000
0000
0000
0000
000M
0000
0000
0000
0000
0000
0000
0000
,
000M
0000
0000
0000
0000
0000
0000
0000
0000
0000
0000
0000
0000
0000
0000
0000
M000
0000
0000
0M00
0000
0000
00M0
0000
M002
0000
00M0
0000
1003
0M00
0020
000M
,
0000
0000
M230
0000
0000
00M0
0302
0000
00M0
0000
2M03
0000
0000
00M0
3200
000M
0000
0000
M000
0000
0000
000M
0000
0300
M020
0000
0M32
0000
0000
M000
0003
00M0
,
0000
0000
0M00
0000
0000
000M
0000
0000
M000
0000
0000
0M00
0000
0000
00M0
0000
000M
0000
0000
M000
0000
0000
00M0
0000
0200
00M0
0000
M000
0301
0000
20M0
0000
,
0M00
0000
3020
000M
0000
0000
M230
0000
0000
00M0
0302
M000
0000
0000
2M03
0000
00M0
0000
3000
000M
0000
0000
0M00
0000
0000
00M0
0000
M000
0000
0000
000M
0000
,
0M00
0000
0000
00M0
0000
0000
M000
0000
0000
000M
0000
00M0
0000
0000
0M00
0000
1000
0000
0000
0010
0000
0000
0100
0000
0000
0001
0000
0001
0000
0000
1000
0000
,
1000
0000
0000
0010
0000
0000
0100
0000
0000
0001
0000
0001
0000
0000
1000
0000
0100
0000
0000
0100
0000
0000
0100
0000
0000
0010
0000
0001
0000
0000
1000
0000
,
0010
0000
0000
0100
0000
0000
0001
0000
0000
1000
0000
0100
0000
0000
0010
0000
0001
0000
1000
0000
0010
0000
0100
0000
0001
0000
1000
0000
0100
0000
1000
0000
,
0010
0100
0001
1000
0100
0010
0001
1000
0100
1000
0010
0100
0001
1000
0100
0010
,
0001
1000
0100
1000
0001
0010
0001
0100
0010
1000
0001
0100
0001
1000
0100
0010
,
0100
0000
0000
1000
0000
0000
0001
0000
0000
0100
0000
0000
0010
0000
0000
0100
0000
0000
0001
0000
0000
1000
0000
0000
0100
0000
0010
0000
0001
0000
1000
0000
0001
0000
0100
0000
0010
0000
1000
0000
0001
0000
0100
0000
0001
0000
0010
0000
,
0100
1000
0001
0010
0001
0100
0010
1000
0001
0100
0010
0100
00M1
1000
0001
0100
0010
1000
0001
0100
0001
0010
0100
1000
,
0001
0010
0001
0100
0010
1000
0001
0100
0001
1000
0100
1000
0010
0100
0001
1000
0100
0010
0100
1000
0001
0010
0001
0100
,
0010
1000
0001
0100
0001
1000
0010
1000
0001
0100
0010
1000
0001
0100
0010
0100
0001
1000
0100
0010
0100
1000
0001
0010
,
0001
0100
0010
1000
0001
0100
0010
1000
0100
1000
0001
0010
0001
0100
0010
1000
0001
0100
0001
1000
0100
0010
0100
1000
,
0001
0100
0001
0010
0100
1000
0001
1000
0010
0100
0001
1000
0100
1000
0010
0100
0001
1000
0010
0100
0001
0100
0010
1000
,
0001
0100
0010
0100
0001
1000
0100
0010
0100
1000
0001
0100
0001
1000
0100
0010
0001
1000
0001
0010
0100
1000
0001
0100
,
0001
1000
0010
0100
0001
1000
0100
0010
0100
1000
0001
0010
0001
1000
0100
1000
0001
0100
0010
1000
0001
0100
0001
1000
,
0010
0100
0001
0100
0010
1000
0001
1000
0100
0010
0001
1000
0100
1000
0001
0100
0001
0010
0100
1000
0001
0010
0001
0100
,
0010
1000
0001
0100
0001
1000
0100
0010
0100
1000
0001
0100
0001
1000
0010
0100
0001
1000
0001
0100
0010
1000
0001
0100
,
0001
0010
0100
1000
0001
0010
0001
0100
0010
1000
0001
0100
0010
0100
0001
1000
0100
1000
0010
0100
0001
1000
0100
0010
,
0001
1000
0100
1000
0010
0100
0001
1000
0100
1000
0001
0010
0001
1000
0001
0100
0010
0100
0001
1000
0010
1000
0001
0100
,
0001
0010
0100
1000
0100
0010
0001
1000
0100
1000
0001
1000
0010
0100
0001
1000
0100
1000
0001
0100
0010
0100
0001
1000
,
0100
0010
0100
1000
0001
0100
0001
1000
0100
0010
0001
1000
0100
1000
0001
0010
0001
0100
0010
1000
0001
0100
0001
0100
,
0010
1000
0001
0100
0001
0010
0100
1000
0001
0100
0010
1000
0001
0100
0010
0100
0001
1000
0100
1000
0001
0010
0001
0100
,
0010
1000
0001
0100
0001
0010
0100
1000
0001
0010
0001
1000
0100
0010
0100
1000
0001
1000
0010
0100
0001
1000
0100
1000
,
0001
0000
0100
0000
0001
0000
1000
0000
0010
0000
0100
0000
0001
0000
1000
0000
0100
0000
0010
0000
0001
0000
1000
0000
0010
0000
0000
0100
0000
0000
0001
0000
0000
1000
0000
0000
0100
0000
0000
1000
0000
0000
0001
0000
0000
0010
0000
0000
,
0001
0000
0000
0100
0000
0000
0010
0000
0000
1000
0000
0000
0001
0000
0000
0010
0000
0000
0100
0000
0000
1000
0000
0000
0001
0000
1000
0000
0010
0000
0100
0000
0001
0000
1000
0000
0010
0000
0100
0000
0010
0000
1000
0000
0001
0000
1000
0000
,
0100
0010
0001
0100
0010
1000
0001
0100
0001
1000
0100
1000
0010
0100
0001
1000
0100
0010
0100
1000
0001
0010
0001
0100
,
0010
1000
0001
0100
0001
1000
0010
1000
0001
0100
0010
1000
0001
0100
0010
0100
0001
1000
0100
0010
0100
1000
0001
0010
,
0001
0100
0010
1000
0001
0100
0010
1000
0100
1000
0001
0010
0001
0100
0010
1000
0001
0100
0001
1000
0100
0010
0100
1000
,
0001
0100
0001
0010
0100
1000
0001
1000
0010
0100
0001
1000
0100
1000
0010
0100
0001
1000
0010
0100
0001
0100
0010
1000
,
0001
0100
0010
0100
0001
1000
0100
0010
0100
1000
0001
0100
0001
1000
0100
0010
0001
1000
0001
0010
0100
1000
0001
0100
,
0001
1000
0010
0100
0001
1000
0100
0010
0100
1000
0001
0010
0001
1000
0100
1000
0001
0100
0010
1000
0001
0100
0001
1000
,
0010
0100
0001
0100
0010
1000
0001
1000
0100
0010
0001
1000
0100
1000
0001
0100
0001
0010
0100
1000
0001
0010
0001
0100
,
0010
1000
0001
0100
0001
1000
0100
0010
0100
1000
0001
0100
00M1
1000
0010
0100
0001
1000
0001
0100
0010
1000
0001
0100
,
0001
0010
0100
1000
0001
0010
0001
0100
0010
1000
0001
0100
0010
0100
0001
1000
0100
1000
0010
0100
0001
1000
0100
0010
,
0001
1000
0100
1000
0010
0100
0001
1000
0100
1000
0001
0010
0001
1000
0001
0100
0010
0100
0001
1000
0100
1000
0001
0100
,
0001
0010
0100
1000
0100
0010
0001
1000
0100
1000
0001
1000
0010
0100
0001
1000
0100
1000
0001
0100
0010
0100
0001
1000
,
0100
0010
0100
1000
0001
0100
0001
1000
0100
0010
0001
1000
0100
1000
0001
0010
0001
0100
0010
1000
0001
0100
0001
0100
,
0010
1000
0001
0100
0001
0010
0100
1000
0001
0100
0010
1000
0001
0100
0010
0100
0001
1000
0100
1000
0001
0010
0001
0100
,
0010
1000
0001
0100
0001
0010
0100
1000
0001
0010
0001
1000
0100
0010
0100
1000
0001
1000
0010
0100
0001
1000
0100
1000
,
0001
0000
0100
0000
0001
0000
1000
0000
0010
0000
0100
0000
0001
0000
1000
0000
0100
0000
0010
0000
0001
0000
1000
0000
0010
0000
0000
0100
0000
0000
0001
0000
0000
1000
0000
0000
0100
0000
0000
1000
0000
0000
0010
0000
0000
0100
0000
0000
,
0001
1000
0100
0010
0001
1000
0010
0100
M001
0100
0010
1000
0001
0100
0010
0100
,
0001
1000
0100
0010
0100
1000
0001
0010
0001
0100
0010
1000
0001
0100
0010
0100
,
0001
1000
0100
0010
0001
1000
0100
1000
0010
0100
0001
1000
0100
0010
0100
1000
,
0001
0100
0001
0010
0100
1000
0001
0010
0001
0100
0010
1000
0001
0100
0010
1000
,
0100
1000
0001
0010
0001
0100
0010
1000
0001
0100
0010
0100
0001
1000
0100
0010
,
0100
1000
0001
0010
0001
1000
0100
0010
0001
1000
0100
1000
0001
0100
0010
1000
,
0001
0100
0001
0010
0100
1000
0001
0010
0001
1000
0100
0010
0001
1000
0100
1000
,
0010
0100
0001
1000
0100
1000
0001
0100
0001
0010
0100
1000
0010
0100
0001
1000
,
0100
1000
0001
0010
0001
1000
0100
1000
0001
0100
0001
1000
0010
0100
0001
1000
,
0001
0100
0010
1000
0001
0100
0001
0010
0100
1000
0001
0010
0001
1000
0100
0010
,
0001
1000
0100
1000
0010
0100
0001
1000
0100
1000
0001
0100
0010
1000
0001
0100
,
0010
0100
0001
1000
0100
0010
0100
1000
0001
0100
0001
0010
0100
1000
0010
1000
,
0001
0010
0001
0100
0010
1000
0001
0100
0010
1000
0001
0100
0010
0100
0001
1000
,
0100
0010
0001
1000
0100
1000
0001
0100
0010
1000
0100
1000
0001
0010
0001
0100
,
0010
1000
0001
0100
0001
0010
0100
1000
0001
0010
0001
1000
0100
0010
0001
1000
,
0100
1000
0001
1000
0100
0010
0100
1000
0001
0010
0001
0100
0010
1000
0001
0100
,
0010
0100
0001
1000
0100
0010
0001
1000
001M
0100
0001
1000
0010
1000
0001
0100
,
0001
0010
0100
1000
0001
0010
0001
0100
0010
1000
0001
0100
0001
1000
0100
0010
,
0100
1000
0001
0010
0001
0100
0010
1000
0001
0100
0001
1000
0100
0010
0001
1000
,
0100
1000
0010
0100
0001
1000
0100
1000
0001
0010
0001
0100
0010
1000
0001
0100
,
0010
0100
0001
1000
0100
0010
0100
1000
0001
1000
0010
0100
0001
0100
0010
1000
,
0001
1000
0100
0010
0001
1000
0100
1000
0001
0010
0001
0100
0010
1000
0001
0100
,
0001
0010
0100
1000
0001
0010
0001
1000
0100
0010
0001
1000
0001
0100
0010
1000
,
0001
0100
0001
1000
0100
0010
0001
1000
0100
1000
0010
0100
0001
1000
0100
1000
,
0010
0100
0001
1000
0010
1000
0001
0100
0001
1000
0100
0010
0001
1000
0001
0100
,
0010
1000
0001
0100
0001
1000
0010
0100
0001
0100
0010
1000
0001
1000
0100
0010
,
0100
1000
0001
0010
0001
1000
0001
0100
0010
0100
0001
1000
0100
0010
0001
1000
,
0001
0100
0010
1000
0001
0010
0001
0100
0010
1000
0001
1000
0100
0010
0100
1000
,
0001
0010
0001
1000
0001
0100
0010
0100
0001
0100
0010
1000
0001
0100
0001
1000
,
0100
0010
0001
1000
0010
0100
0001
0100
0010
1000
0001
0010
0001
1000
0001
0100
,
0010
0100
0001
1000
0100
0010
0001
1000
0010
1000
0001
0100
0001
1000
0100
0010
,
0001
1000
0010
0100
0001
0100
0010
1000
0001
1000
0100
0010
0001
1000
0100
1000
,
0010
0100
0001
1000
0100
0010
0001
1000
0MM2
0000
0000
M000
0000
0000
0000
0000
,
0000
0000
0000
0000
0000
0000
0000
0000
0000
0000
0000
0000
0003
0000
0000
0000
0000
0000
0000
MMMM
0000
0000
0000
0000
0000
0000
0000
0000
0000
0000
0000
0000
;

//---------------dance-single - 18 (Owem)----------------
#NOTES:
     dance-single:
     18 (Owem):
     Edit:
     18:
     1.000,1.000,0.000,0.143,1.000,4061.000,0.000,58.000,171.000,0.000:
1000
0100
0010
0001
1000
0001
0100
0010
1000
0001
0100
0010
0100
0001
1000
0010
,
0100
0001
1000
0100
0010
0001
1000
0100
1000
0001
0010
0001
0100
0010
1000
0001
,
0100
0001
1000
0100
0010
0001
1000
0100
1000
0001
0010
0001
0100
0010
1000
0001
,
0100
0010
0100
0001
1000
0100
0010
0001
1000
0100
1000
0001
0010
0001
0100
0010
,
1000
0001
0100
0001
1000
0100
0010
0001
1000
0100
1000
0010
0100
0001
1000
0001
,
0100
0010
0100
0001
1000
0100
0010
0001
1000
0001
0010
0100
1000
0001
0010
0001
,
0100
0010
1000
0001
0100
0001
1000
0100
0010
0001
0100
0001
1000
0100
1000
0001
,
0100
0010
0100
0001
1000
0100
0010
0001
1000
0100
1000
0001
0010
0001
0100
0010
,
1000
0001
0100
0001
0010
0100
1000
0001
0010
0001
0100
0010
1000
0001
0100
0010
,
0100
0001
1000
0100
0010
0001
1000
0100
1000
0001
0010
0001
0100
0010
1000
0001
,
0100
0001
0010
0100
1000
0001
0010
0001
0100
0010
1000
0001
0100
0010
0100
0001
,
1000
0100
0010
0001
1000
0100
1000
0001
0010
0001
0100
0010
1000
0001
0100
0001
,
1000
0100
0010
0001
1000
0100
1000
0010
0100
0001
1000
0100
1000
0001
0010
0001
,
0100
0010
1000
0001
0100
0010
0100
0001
1000
0100
0010
0100
1000
0001
0100
0001
,
1000
0100
1000
0010
0100
0001
1000
0100
1000
0001
0010
0001
0100
0010
1000
0001
,
0100
0001
1000
0100
0010
0001
1000
0100
1000
0010
0100
0001
1000
0010
1000
0010
,
0100
0001
1000
0001
0010
0100
1000
0001
0010
0001
0100
0010
1000
0001
0100
0001
0100
0010
1000
0001
0100
0001
0010
0100
,
1000
0001
0010
0001
0100
0010
1000
0001
0100
0010
0100
0001
1000
0100
1000
0001
0010
0001
0100
0010
1000
0001
0100
0001
,
1000
0100
0010
0001
0100
0001
0010
0100
1000
0001
0010
0001
0100
0010
1000
0001
0100
0010
0100
0001
1000
0010
1000
0100
,
0010
0001
1000
0100
1000
0001
0010
0001
0100
0010
1000
0001
0100
0010
0100
0001
1000
0100
0010
0001
1000
0100
1000
0001
,
0010
0001
0100
0010
1000
0001
0100
0001
0010
0100
1000
0100
0010
0001
1000
0100
1000
0001
0010
0001
0100
0010
1000
0001
,
0100
0010
0100
0001
1000
0100
0010
0001
1000
0100
1000
0001
0010
0001
0100
0010
1000
0001
0100
0001
0010
0100
1000
0001
,
1000
0010
0100
0001
1000
0100
0010
0001
1000
0100
1000
0001
0010
0001
0100
0010
1000
0001
0100
0001
0010
0100
1000
0001
,
0010
0001
0100
0010
1000
0001
0100
0001
1000
0100
1000
0010
0100
0001
1000
0001
0010
0100
1000
0001
0010
0001
0100
0010
,
1000
0001
0100
0010
0100
0001
1000
0100
0010
0100
1000
0001
1000
0010
0100
0001
1000
0001
0100
0010
0100
0001
1000
0100
,
0010
0001
1000
0100
1000
0001
0100
0001
0010
0100
1000
0001
0010
0001
0100
0010
1000
0001
0100
0010
1000
0001
0100
0001
,
0010
0100
1000
0001
0010
0001
0100
0010
1000
0001
1000
0100
0010
0001
1000
0100
1000
0001
0100
0010
1000
0001
0100
0010
,
0100
0001
1000
0100
0010
0001
1000
0001
0010
0100
1000
0001
0010
0001
0100
0010
1000
0001
0100
0001
1000
0100
0010
0001
,
1000
0100
1000
0010
0100
0001
1000
0100
1000
0001
0100
0010
1000
0001
0100
0010
0100
0001
1000
0100
0010
0001
1000
0100
,
1000
0001
0010
0001
0100
0010
0100
0001
1000
0100
0010
0100
1000
0001
0010
0001
0100
0010
1000
0001
0100
0001
0010
0100
,
1000
0001
0010
0001
0100
0010
1000
0001
0100
0010
0100
0001
1000
0100
0010
0001
1000
0100
1000
0001
0100
0010
1000
0010
,
0100
0001
1000
0001
0010
0100
1000
0010
1000
0000
0001
0100
0010
0000
1000
0000
,
0001
0010
0100
1000
0001
0100
0010
1000
0001
0100
0001
0010
0100
1000
0001
0010
0001
0100
0010
1000
0001
0100
0001
1000
,
0100
1000
0010
0100
0001
1000
0100
0010
0100
1000
0001
0010
0001
0100
0010
1000
0001
0100
0001
1000
0010
1000
0001
0100
,
0010
1000
0001
0100
0010
0100
0001
1000
0100
0010
0100
1000
0001
0010
0001
0100
0010
1000
0001
0100
0010
1000
0100
1000
,
0001
0010
0001
0100
0010
1000
0001
0100
0001
1000
0100
0010
0100
1000
0001
0100
0001
0010
0100
1000
0001
1000
0010
0100
,
0001
1000
0100
1000
0010
0100
0001
1000
0010
0100
0001
0100
0010
1000
0001
0100
0010
0100
0001
1000
0100
0010
0100
1000
,
0001
0100
0001
1000
0100
0010
0001
1000
0001
0010
0100
1000
0001
0100
0001
1000
0010
0100
0001
1000
0100
0010
0100
1000
,
0001
0010
0001
1000
0100
1000
0001
0100
0010
1000
0001
0100
0001
1000
0010
0100
0001
0100
0010
1000
0001
1000
0100
0010
,
0001
1000
0100
1000
0001
0100
0001
0010
0100
1000
0001
0010
0001
0100
0010
1000
0001
0100
0001
1000
0100
0010
0100
1000
,
0001
0100
0001
1000
0010
0100
0001
1000
0001
0100
0010
1000
0001
0100
0001
0010
0100
1000
0001
0010
0001
0100
0010
1000
,
0001
0100
0010
0100
0001
1000
0100
1000
0010
0100
0001
1000
0100
0010
0001
1000
0100
1000
0010
0100
0001
1000
0100
1000
,
0001
0010
0001
1000
0001
0100
0010
0100
0001
1000
0100
1000
0001
0100
0001
0010
0100
1000
0100
0010
0001
1000
0100
1000
,
0001
1000
0010
0100
0001
1000
0100
1000
0001
0100
0010
0100
0001
1000
0100
0010
0100
1000
0001
0100
0001
1000
0100
0010
,
0001
1000
0100
1000
0001
0010
0001
0100
0010
1000
0001
0100
0001
0100
0010
1000
0001
0100
0001
0010
0100
1000
0001
0100
,
0010
1000
0001
0100
0010
0100
0001
1000
0100
1000
0001
0010
0001
0100
0010
1000
0001
0100
0001
0010
0100
1000
0001
0010
,
0001
1000
0100
0010
0100
1000
0001
1000
0010
0100
0001
1000
0100
1000
0001
0100
0001
1000
0010
0100
0001
1000
0100
0010
,
0001
0010
0100
1000
0001
1000
0010
0100
0001
1000
0010
1000
0001
0100
0001
1000
0100
0010
0001
1000
0010
0100
0001
1000
,
0002
0000
0000
0000
M000
0000
0000
0000
0203
0000
0000
0000
0310
0000
2000
0000
0000
0000
3002
0000
0000
0000
0023
0000
0000
0M00
0230
0000
0000
0000
0300
0000
,
2000
0000
0000
0000
0000
0000
0000
0000
3000
0002
0000
0203
0000
0000
0000
0300
0000
0000
0000
0000
0000
0000
0000
0000
0000
0000
0000
0000
000M
0000
0000
M000
,
0000
00M0
0000
0000
0000
0000
0000
0000
0020
0000
0000
0000
1030
0000
0002
0000
00M0
0000
0023
0000
0000
0000
0230
0000
0000
M000
2300
0000
0000
0000
3002
0000
,
M000
0000
0000
0003
0000
0000
0000
0000
0000
0000
0000
0000
0000
0000
0000
0000
0000
0000
0000
0000
0000
0000
0000
0000
0000
0000
0000
0000
0000
0000
0000
0000
,
00M0
0000
0000
000M
0000
0000
M000
0000
020M
0000
00M0
0000
0310
M000
2000
000M
0000
0000
3M02
0000
0000
0M00
0203
0000
00M0
0000
032M
0000
0000
M000
2030
00M0
,
0000
0000
000M
0000
0000
0M00
0000
0000
30M2
0000
02M3
0000
0000
000M
0300
0M00
0000
0000
00M0
0000
0000
0M00
0000
0000
M000
0000
00M0
0000
0000
00M0
0000
0M00
,
0000
0000
M000
0000
0000
000M
0000
0000
0M02
0000
00M0
0000
1003
M000
0200
000M
0000
0000
M320
0000
0000
0M00
0032
0000
00M0
0000
2M03
0000
0000
000M
3002
0000
,
0M00
0000
0003
000M
0000
0000
M000
0000
0000
0M00
0000
00M0
0000
0000
000M
0000
M000
0000
0000
000M
0000
0000
0M00
0000
0000
00M0
0000
M000
0000
0000
M000
0000
,
1000
0100
0010
0001
1000
0100
1000
0001
0100
0010
1000
0001
0100
0001
0010
0100
,
1000
0100
0010
0001
1000
0001
0010
0100
1000
0001
0100
0001
0010
0100
1000
0001
,
0100
0010
1000
0001
0100
0001
0010
0100
1000
0001
0010
0001
0100
0010
1000
0001
,
0100
0010
0100
0001
1000
0100
0010
0100
1000
0001
0010
0001
0100
0010
1000
0001
,
0100
0001
0010
0100
1000
0001
0010
0001
0100
0010
1000
0001
0100
0010
0100
0001
,
1000
0100
0010
0100
1000
0001
0010
0001
0100
0010
1000
0001
0100
0010
0100
0001
,
1000
0100
0010
0001
1000
0100
1000
0001
0010
0001
0100
0010
1000
0001
0100
0001
,
1000
0100
0010
0001
1000
0001
0100
0010
1000
0001
0100
0001
0010
0100
1000
0001
0010
0001
0100
0010
1000
0001
0100
0010
,
100M
0100
1000
0001
0100
0010
1000
0001
0100
0001
0010
0100
1000
0001
0010
0001
0100
0010
1000
0001
0100
0010
0100
0001
,
0100
0010
1000
0001
0100
0001
0010
0100
1000
0001
0010
0001
0100
0010
1000
0001
0100
0010
1000
0100
1000
0001
0100
0001
,
0010
0100
1000
0001
0010
0001
0100
0010
1000
0001
0100
0001
1000
0100
0010
0100
1000
0001
0010
0001
0100
0010
1000
0001
,
0100
0001
1000
0100
0010
0001
1000
0100
1000
0001
0100
0010
1000
0001
0100
0001
0010
0100
1000
0001
0010
0001
0100
0010
,
1000
0001
0100
0010
0100
0001
1000
0100
0010
0001
0100
0010
1000
0001
0100
0001
0010
0100
1000
0001
0010
0001
0100
0010
,
0100
0001
1000
0100
0010
0100
1000
0001
0100
0001
0010
0100
1000
0001
0010
0001
0100
0010
0100
0001
1000
0100
0010
0100
,
1000
0001
0010
0001
0100
0010
1000
0001
0100
0001
0010
0100
1000
0100
0010
0001
1000
0100
1000
0001
0100
0010
0100
0001
,
1000
0010
1000
0001
0100
0001
0010
0100
1000
0001
0010
0001
0100
0010
1000
0001
0100
0001
0010
0100
1000
0001
1000
0010
,
M100
0001
1000
0010
1000
0001
0100
0001
0010
0100
1000
0001
0010
0001
0100
0010
1000
0001
0100
0001
1000
0100
0010
0001
,
1000
0100
1000
0010
0100
0001
1000
0100
1000
0100
0010
0001
1000
0100
1000
0001
0010
0001
0100
0010
1000
0001
0100
0010
,
0100
0001
1000
0100
0010
0100
1000
0001
0010
0001
0100
0010
1000
0001
0100
0001
0010
0100
1000
0100
0010
0001
1000
0100
,
1000
0001
0010
0001
0100
0010
1000
0001
0100
0010
0100
0001
1000
0100
1000
0001
0010
0001
0100
0010
1000
0001
0100
0001
,
0010
0100
1000
0001
0010
0001
0100
0010
1000
0001
0100
0010
0100
0001
1000
0100
0010
0100
1000
0001
0010
0001
0100
0010
,
1000
0001
0010
0001
0100
0010
1000
0001
0100
0001
0010
0100
1000
0001
0010
0001
0100
0010
0100
0001
1000
0100
0010
0100
,
1000
0001
0010
0001
0100
0010
0100
0001
1000
0100
0010
0100
1000
0001
0100
0010
0100
0001
1000
0100
0010
0001
1000
0010
,
0100
0001
1000
0010
1000
0100
0010
0001
1000
0100
1000
0001
0010
0001
0100
0010
1000
0001
0100
0001
1000
0010
0100
0001
,
10M0
0100
0010
0001
1000
0001
0100
0010
1000
0001
0100
0001
0010
0100
1000
0001
0010
0001
0100
0010
1000
0001
0100
0010
,
0100
0001
1000
0010
1000
0001
0100
0010
1000
0001
0100
0001
0010
0100
1000
0001
0010
0001
0100
0010
1000
0001
0100
0010
,
0100
0001
1000
0010
1000
0001
0100
0001
1000
0100
0010
0100
1000
0001
0100
0001
0010
0100
1000
0001
0010
0001
0100
0010
,
1000
0001
0100
0010
0100
0001
1000
0100
1000
0010
0100
0001
0100
0010
1000
0001
0100
0001
0010
0100
1000
0001
0010
0001
,
0100
0010
1000
0001
0100
0010
0100
0001
1000
0100
0010
0001
1000
0100
1000
0001
0100
0010
1000
0001
0100
0001
0010
0100
,
1000
0001
0010
0001
0100
0010
1000
0001
0100
0001
1000
0010
0100
0001
1000
0001
0010
0100
1000
0001
0010
0001
0100
0010
,
1000
0001
0100
0010
0100
0001
0010
0001
1000
0100
0010
0100
1000
0001
0100
0001
0010
0100
1000
0001
0010
0001
0100
0010
,
1000
0001
0100
0010
0100
0001
0100
0010
1000
0001
0100
0001
0010
0100
1000
0100
0010
0001
1000
0100
1000
0001
0100
0010
,
1M00
0001
0100
0010
0100
0001
1000
0100
1000
0001
0100
0001
0010
0100
1000
0100
0010
0001
1000
0100
1000
0001
0010
0001
,
0100
0010
1000
0001
0100
0001
1000
0010
1000
0001
0100
0010
0100
0001
1000
0100
0010
0100
1000
0001
0100
0001
0010
0100
,
1000
0001
0100
0010
0100
0001
0010
0001
1000
0100
1000
0001
0100
0010
1000
0001
0010
0001
0100
0010
1000
0001
0100
0001
,
1000
0100
0010
0001
1000
0100
1000
0001
0100
0010
1000
0001
0100
0001
0010
0100
1000
0001
0010
0001
0100
0010
1000
0001
,
1000
0100
0010
0001
1000
0100
1000
0001
0010
0001
0100
0010
1000
0001
0100
0001
0010
0100
1000
0001
0010
0001
0100
0010
,
0100
0001
1000
0010
1000
0001
0100
0010
0100
0001
1000
0100
0010
0001
1000
0100
1000
0001
0010
0001
0100
0010
1000
0001
,
0100
0001
1000
0100
1000
0010
0100
0001
1000
0001
0010
0100
1000
0001
0010
0001
0100
0010
1000
0001
0100
0001
1000
0100
,
0010
0001
1000
0001
0010
0100
1000
0001
0010
0001
0100
0010
1000
0001
0100
0010
0100
0001
1000
0100
0010
0001
1000
0010
,
M100
0001
1000
0000
0100
0010
0001
1000
0001
0100
0010
0100
0001
1000
0100
0000
,
0010
0001
0000
1000
0100
0010
0100
1000
0001
1000
0010
0100
0001
1000
0010
0000
,
0100
0001
0000
1000
0010
0100
0001
1000
0001
0010
0100
1000
0001
0100
0001
0000
,
1000
0010
0000
0100
0001
1000
0100
1000
0010
0100
0010
1000
0001
0100
0001
0000
,
1000
0010
0000
1000
0100
0010
0001
1000
0010
1000
0001
0100
0010
1000
0010
0000
,
0100
0001
0000
1000
0100
1000
0010
0100
0001
1000
0100
0010
0001
1000
0001
0000
,
0010
0100
0000
1000
0001
0100
0001
1000
0100
1000
0100
0010
0001
1000
0001
0000
,
0100
0010
0000
0100
0001
1000
0100
0010
0001
1000
0001
0100
0010
1000
0001
0000
,
10M0
0000
0100
0000
0010
0000
0001
0100
0010
0000
1000
0000
0001
0100
0001
0000
,
0010
0000
0100
0000
1000
0000
0010
0100
0001
0000
1000
0000
0001
0010
0100
0000
,
1000
0000
0010
0000
0100
0000
0001
0010
0001
0000
1000
0000
0010
0100
0001
0000
,
1000
0000
0001
0000
0010
0000
0100
1000
0001
0000
1000
0000
0010
0100
0010
0000
,
1000
0000
0001
0000
0010
0000
0100
1000
0001
0000
1000
0000
0010
0100
0001
0000
,
1000
0000
0100
0000
0010
0000
0001
1000
0001
0000
0100
0000
0010
1000
0001
0000
,
1000
0000
0100
0000
1000
0000
0010
0100
0001
0000
1000
0000
0001
0010
0100
0000
,
1000
0000
0010
0000
0100
0000
0001
1000
0001
0000
0010
0000
0100
1000
0001
0000
,
10M0
0100
1000
0001
0100
0010
1000
0001
0100
0001
0010
0100
1000
0001
0010
0001
,
0100
0010
1000
0001
0100
0001
1000
0010
0100
0001
0100
0010
1000
0001
0010
0001
,
0100
0010
1000
0001
0100
0010
0100
0001
1000
0100
0010
0001
1000
0100
1000
0010
,
0100
0001
1000
0100
0010
0001
0100
0010
1000
0001
0100
0001
0010
0100
1000
0001
,
0010
0001
0100
0010
1000
0001
0100
0010
0100
0001
1000
0100
0010
0100
1000
0001
,
0100
0001
0010
0100
1000
0001
1000
0010
0100
0001
1000
0010
0100
0001
0100
0010
,
1000
0001
1000
0100
0010
0001
1000
0100
1000
0001
0010
0001
0100
0010
1000
0001
,
0100
0010
0100
0001
1000
0100
0010
0001
1000
0001
0010
0100
1000
0010
0100
0000
,
0001
1000
0010
0100
0001
0100
0010
1000
0001
1000
0100
0010
0100
1000
0001
0010
0001
0100
0010
1000
0001
0100
0010
0100
,
0001
1000
0100
0010
0001
1000
0100
1000
0001
0010
0001
0100
0010
1000
0001
0100
0010
0100
0001
1000
0100
0010
0001
1000
,
0100
1000
0001
0010
0001
0100
0010
1000
0001
0100
0001
1000
0100
0010
0100
1000
0001
0010
0001
0100
0010
1000
0001
0100
,
0001
0010
0100
1000
0100
0010
0001
0100
0001
1000
0100
1000
0010
0100
0001
1000
0001
0010
0100
1000
0001
0010
0001
0100
,
0010
1000
0001
0100
0010
0100
0001
1000
0100
0010
0100
1000
0001
0010
0001
0100
0010
1000
0001
0100
0010
0100
0001
1000
,
0100
0010
0100
1000
0001
1000
0010
0100
0001
1000
0100
1000
0001
0010
0001
0100
0010
1000
0001
0100
0001
1000
0100
0010
,
0100
1000
0001
0010
0001
0100
0010
1000
0001
0100
0010
0100
0001
1000
0100
0010
0100
1000
0001
0010
0001
0100
0010
1000
,
0001
0100
0001
1000
0100
0010
0001
1000
0001
0100
0010
1000
0001
0100
0001
1000
0100
0010
0100
1000
0001
0010
0001
1000
,
0010
1000
0001
0100
0010
1000
0001
0100
0001
0010
0100
1000
0001
0010
0001
1000
0100
0010
0001
1000
0100
1000
0001
0100
,
0010
1000
0001
0100
0001
1000
0100
0010
0001
1000
0100
1000
0001
0010
0001
0100
0010
1000
0001
0100
0001
1000
0010
0100
,
0001
1000
0100
1000
0010
0100
0001
1000
0100
0010
0100
1000
0001
0100
0001
0010
0100
1000
0001
1000
0010
0100
0001
1000
,
0100
0010
0100
1000
0001
1000
0010
0100
0001
1000
0100
1000
0001
0010
0001
0100
0010
1000
0001
0100
0010
0100
0001
1000
,
0100
0010
0001
1000
0100
1000
0001
0010
0001
0100
0010
1000
0001
0100
0010
0100
0001
1000
0100
1000
0010
0100
0001
1000
,
0100
0010
0001
1000
0001
0100
0010
1000
0001
0100
0001
0010
0100
1000
0001
0100
0001
1000
0010
0100
0001
1000
0100
1000
,
0010
0100
0001
1000
0010
1000
0001
0100
0001
0010
0100
1000
0100
0010
0001
1000
0100
1000
0001
1000
0010
0100
0001
1000
,
0001
0100
0010
1000
0001
0100
0001
1000
0001
0010
0100
1000
0100
0010
0001
1000
0100
1000
0010
0100
0001
1000
0000
0000
,
00M1
0000
0000
0000
M000
0000
0000
000M
0000
0000
0000
00M0
0000
0000
0000
0000
0M00
0000
0000
0000
0000
0000
0000
0000
2000
0000
0000
0000
3010
0000
0200
0000
,
0000
0000
0302
0000
0000
0000
2003
0000
0000
00M0
3020
0000
0000
0000
0030
0000
0200
0000
0000
0000
0000
0000
0000
0000
0300
0020
0000
2030
0000
0000
0000
3000
,
0000
0000
0000
0000
0000
0000
0000
0000
0000
0000
0000
0000
00M0
0000
0000
0M00
0000
M000
0000
0000
0000
0000
0000
0000
2000
0000
0000
0000
3010
0000
0200
0000
,
000M
0000
0302
0000
0000
0000
2003
0000
0000
000M
3002
0000
0000
0000
0023
0000
0000
000M
0030
0000
0000
0000
0000
0000
00M0
0000
0000
0000
0000
0000
0000
0000
,
0M00
0000
0000
0000
0000
0000
0000
0000
0000
0000
0000
0000
0000
0000
0000
0000
M000
0000
0000
0M00
0000
0000
00M0
0000
0M02
0000
M000
0000
1003
00M0
0020
0M00
,
0000
0000
M230
0000
0000
000M
0302
0000
M000
0000
2M03
0000
0000
0M00
3200
000M
0000
0000
M000
0000
0000
00M0
0000
0300
M020
0000
0M32
0000
0000
M000
0003
000M
,
0000
0000
00M0
0000
0000
000M
0000
0000
M000
0000
0000
0M00
0000
0000
00M0
0000
000M
0000
0000
M000
0000
0000
00M0
0000
0200
M000
0000
000M
0301
0000
2M00
0000
,
00M0
0000
3020
M000
0000
0000
M230
0000
0000
000M
0302
00M0
0000
0000
2M03
0000
000M
0000
3000
00M0
0000
0000
0M00
0000
0000
00M0
0000
M000
0000
0000
000M
0000
,
0M00
0000
0000
00M0
0000
0000
M000
0000
0000
000M
0000
00M0
0000
0000
0M00
0000
1000
00M0
0M00
0010
0000
000M
0100
0000
00M0
0001
M000
0001
00M0
0M00
1000
000M
,
1000
00M0
0M00
0010
0000
00M0
0100
0000
00M0
0001
M000
0001
0000
0M00
1000
00M0
0100
0M00
M000
0100
0000
000M
0100
0M00
M000
0010
0M00
0001
000M
00M0
1000
0M00
,
0010
00M0
000M
0100
0000
00M0
0001
0000
0M00
1000
00M0
0100
0000
M000
0010
0M00
0001
0000
1000
0000
0010
0000
0100
0000
0001
0000
1000
0000
0100
0000
1000
0000
,
0010
0100
0001
1000
0100
0010
0001
1000
0100
1000
0010
0100
0001
1000
0100
0010
,
0001
1000
0100
1000
0001
0010
0001
0100
0010
1000
0001
0100
0001
1000
0100
0010
,
0100
0000
0000
1000
0000
0000
0001
0000
0000
0100
0000
0000
0010
0000
0000
0100
0000
0000
0001
0000
0000
1000
0000
0000
0100
0000
0010
0000
0001
0000
1000
0000
0001
0000
0100
0000
0010
0000
1000
0000
0001
0000
0100
0000
0001
0000
0010
0000
,
0100
1000
0001
0010
0001
0100
0010
1000
0001
0100
0010
0100
00M1
1000
0001
0100
0010
1000
0001
0100
0001
0010
0100
1000
,
0001
0010
0001
0100
0010
1000
0001
0100
0001
1000
0100
1000
0010
0100
0001
1000
0100
0010
0100
1000
0001
0010
0001
0100
,
0010
1000
0001
0100
0001
1000
0010
1000
0001
0100
0010
1000
0001
0100
0010
0100
0001
1000
0100
0010
0100
1000
0001
0010
,
0001
0100
0010
1000
0001
0100
0010
1000
0100
1000
0001
0010
0001
0100
0010
1000
0001
0100
0001
1000
0100
0010
0100
1000
,
0001
0100
0001
0010
0100
1000
0001
1000
0010
0100
0001
1000
0100
1000
0010
0100
0001
1000
0010
0100
0001
0100
0010
1000
,
0001
0100
0010
0100
0001
1000
0100
0010
0100
1000
0001
0100
0001
1000
0100
0010
0001
1000
0001
0010
0100
1000
0001
0100
,
0001
1000
0010
0100
0001
1000
0100
0010
0100
1000
0001
0010
0001
1000
0100
1000
0001
0100
0010
1000
0001
0100
0001
1000
,
0010
0100
0001
0100
0010
1000
0001
1000
0100
0010
0001
1000
0100
1000
0001
0100
0001
0010
0100
1000
0001
0010
0001
0100
,
0010
1000
0001
0100
0001
1000
0100
0010
0100
1000
0001
0100
0001
1000
0010
0100
0001
1000
0001
0100
0010
1000
0001
0100
,
0001
0010
0100
1000
0001
0010
0001
0100
0010
1000
0001
0100
0010
0100
0001
1000
0100
1000
0010
0100
0001
1000
0100
0010
,
0001
1000
0100
1000
0010
0100
0001
1000
0100
1000
0001
0010
0001
1000
0001
0100
0010
0100
0001
1000
0010
1000
0001
0100
,
0001
0010
0100
1000
0100
0010
0001
1000
0100
1000
0001
1000
0010
0100
0001
1000
0100
1000
0001
0100
0010
0100
0001
1000
,
0100
0010
0100
1000
0001
0100
0001
1000
0100
0010
0001
1000
0100
1000
0001
0010
0001
0100
0010
1000
0001
0100
0001
0100
,
0010
1000
0001
0100
0001
0010
0100
1000
0001
0100
0010
1000
0001
0100
0010
0100
0001
1000
0100
1000
0001
0010
0001
0100
,
0010
1000
0001
0100
0001
0010
0100
1000
0001
0010
0001
1000
0100
0010
0100
1000
0001
1000
0010
0100
0001
1000
0100
1000
,
0001
0100
0001
1000
0010
0100
0001
1000
0100
0010
0001
1000
0010
0100
0001
1000
0010
1000
0001
0100
0001
0010
0100
1000
,
0001
0010
0001
0100
0010
1000
0001
0100
0010
0100
0001
1000
0001
0100
0010
0100
0001
1000
0010
0100
0010
1000
0001
1000
,
0100
0010
0001
0100
0010
1000
0001
0100
0001
1000
0100
1000
0010
0100
0001
1000
0100
0010
0100
1000
0001
0010
0001
0100
,
0010
1000
0001
0100
0001
1000
0010
1000
0001
0100
0010
1000
0001
0100
0010
0100
0001
1000
0100
0010
0100
1000
0001
0010
,
0001
0100
0010
1000
0001
0100
0010
1000
0100
1000
0001
0010
0001
0100
0010
1000
0001
0100
0001
1000
0100
0010
0100
1000
,
0001
0100
0001
0010
0100
1000
0001
1000
0010
0100
0001
1000
0100
1000
0010
0100
0001
1000
0010
0100
0001
0100
0010
1000
,
0001
0100
0010
0100
0001
1000
0100
0010
0100
1000
0001
0100
0001
1000
0100
0010
0001
1000
0001
0010
0100
1000
0001
0100
,
0001
1000
0010
0100
0001
1000
0100
0010
0100
1000
0001
0010
0001
1000
0100
1000
0001
0100
0010
1000
0001
0100
0001
1000
,
0010
0100
0001
0100
0010
1000
0001
1000
0100
0010
0001
1000
0100
1000
0001
0100
0001
0010
0100
1000
0001
0010
0001
0100
,
0010
1000
0001
0100
0001
1000
0100
0010
0100
1000
0001
0100
00M1
1000
0010
0100
0001
1000
0001
0100
0010
1000
0001
0100
,
0001
0010
0100
1000
0001
0010
0001
0100
0010
1000
0001
0100
0010
0100
0001
1000
0100
1000
0010
0100
0001
1000
0100
0010
,
0001
1000
0100
1000
0010
0100
0001
1000
0100
1000
0001
0010
0001
1000
0001
0100
0010
0100
0001
1000
0100
1000
0001
0100
,
0001
0010
0100
1000
0100
0010
0001
1000
0100
1000
0001
1000
0010
0100
0001
1000
0100
1000
0001
0100
0010
0100
0001
1000
,
0100
0010
0100
1000
0001
0100
0001
1000
0100
0010
0001
1000
0100
1000
0001
0010
0001
0100
0010
1000
0001
0100
0001
0100
,
0010
1000
0001
0100
0001
0010
0100
1000
0001
0100
0010
1000
0001
0100
0010
0100
0001
1000
0100
1000
0001
0010
0001
0100
,
0010
1000
0001
0100
0001
0010
0100
1000
0001
0010
0001
1000
0100
0010
0100
1000
0001
1000
0010
0100
0001
1000
0100
1000
,
0001
0100
0001
1000
0010
0100
0001
1000
0100
0010
0001
1000
0010
0100
0001
1000
0010
1000
0001
0100
0001
0010
0100
1000
,
0001
0000
0010
0000
0001
0000
0100
0000
0010
0000
1000
0000
0001
0000
0100
0000
0010
0000
0100
0000
0001
0000
1000
0000
00M1
0000
0000
0100
0000
0000
0010
0000
0000
1000
0000
0000
0001
0000
0000
0100
0000
0000
0010
0000
0000
0100
0000
0000
,
0001
1000
0100
0010
0100
1000
0001
0010
0001
0100
0010
1000
0001
0100
0010
0100
,
0001
1000
0100
0010
0001
1000
0100
1000
0010
0100
0001
1000
0100
0010
0100
1000
,
0001
0100
0001
0010
0100
1000
0001
0010
0001
0100
0010
1000
0001
0100
0010
1000
,
0100
1000
0001
0010
0001
0100
0010
1000
0001
0100
0010
0100
0001
1000
0100
0010
,
0100
1000
0001
0010
0001
1000
0100
0010
0001
1000
0100
1000
0001
0100
0010
1000
,
0001
0100
0001
0010
0100
1000
0001
0010
0001
1000
0100
0010
0001
1000
0100
1000
,
0010
0100
0001
1000
0100
1000
0001
0100
0001
0010
0100
1000
0010
0100
0001
1000
,
0100
1000
0001
0010
0001
1000
0100
1000
0001
0100
0001
1000
0010
0100
0001
1000
,
0001
0100
0010
1000
0001
0100
0001
0010
0100
1000
0001
0010
0001
1000
0100
0010
,
0001
1000
0100
1000
0010
0100
0001
1000
0100
1000
0001
0100
0010
1000
0001
0100
,
0010
0100
0001
1000
0100
0010
0100
1000
0001
0100
0001
0010
0100
1000
0010
1000
,
0001
0010
0001
0100
0010
1000
0001
0100
0010
1000
0001
0100
0010
0100
0001
1000
,
0100
0010
0001
1000
0100
1000
0001
0100
0010
1000
0100
1000
0001
0010
0001
0100
,
0010
1000
0001
0100
0001
0010
0100
1000
0001
0010
0001
1000
0100
0010
0001
1000
,
0100
1000
0001
1000
0100
0010
0100
1000
0001
0010
0001
0100
0010
1000
0001
0100
,
0010
0100
0001
1000
0100
0010
0001
1000
0M10
1000
0001
0100
0001
0010
0100
1000
,
0001
0010
0001
1000
0100
0010
0001
1000
0001
0100
0010
1000
0001
0100
0001
0100
,
0010
1000
0001
0100
0010
0100
0001
1000
0010
1000
0001
1000
0100
0010
0001
1000
,
0100
1000
0001
0100
0010
1000
0100
1000
0001
0010
0100
1000
0001
0100
0001
0010
,
0100
1000
0001
1000
0010
0100
0001
1000
0010
1000
0001
0100
0001
1000
0001
0100
,
0010
1000
0001
0100
0001
0010
0100
1000
0001
0010
0001
1000
0100
0010
0001
1000
,
0100
1000
0001
0100
0010
1000
0001
0100
0010
0100
0001
1000
0100
0010
0001
1000
,
0100
1000
0001
0010
0001
0100
0010
1000
0001
0100
0001
1000
0100
0010
0001
1000
,
0100
1000
0001
0100
0001
0010
0100
1000
0001
1000
0010
0100
0001
1000
0010
1000
,
0001
0100
0001
1000
0100
0010
0100
1000
0001
0010
0001
0100
0010
1000
0001
0100
,
0001
1000
0100
0010
0001
1000
0100
1000
0001
0010
0001
0100
0010
1000
0001
0100
,
0010
0100
0001
1000
0100
1000
0001
1000
0100
0010
0100
1000
0001
0010
0001
1000
,
0100
1000
0001
0100
0010
1000
0100
1000
0001
1000
0010
0100
0001
0100
0001
0010
,
0100
1000
0001
0010
0001
0100
0010
1000
0001
0100
0010
1000
0100
1000
0001
0100
,
0001
0010
0100
1000
0001
1000
0100
0010
0100
1000
0001
1000
0100
1000
0010
0100
,
0001
1000
0001
0100
0010
1000
0001
0100
M001
0010
0100
1000
00M1
0100
0010
1000
,
00M1
0100
0001
1000
010M
0010
0001
1000
0MM2
0000
0000
M000
0000
0000
0000
0000
,
0000
0000
0000
0000
0000
0000
0000
0000
0000
0000
0000
0000
0003
0000
0000
0000
0000
0000
0000
MMMM
0000
0000
0000
0000
0000
0000
0000
0000
0000
0000
0000
0000
;
