#TITLE:Rurouni Kenshin;
#SUBTITLE:- Freckles (KCP Re-Edit);
#ARTIST:Tiggy;
#TITLETRANSLIT:;
#SUBTITLETRANSLIT:;
#ARTISTTRANSLIT:;
#CREDIT:;
#BANNER:rk-logo.png;
#BACKGROUND:rk-bg.png;
#LYRICSPATH:;
#CDTITLE:;
#MUSIC:freckles.mp3;
#OFFSET:1.600;
#SAMPLESTART:38.314;
#SAMPLELENGTH:12.000;
#SELECTABLE:YES;
#BPMS:0.000=150.000;
#STOPS:;
#BGCHANGES:16.000=Sobakasu.avi=1.000=0=0=1,
228.000=rk-bg.png=1.000=0=0=1,
99999=-nosongbg-=1.000=0=0=0 // don't automatically add -songbackground-
;
// cache tags:
#FIRSTBEAT:16.000;
#LASTBEAT:231.000;
#SONGFILENAME:Songs/Anime Songs/Rurouni Kenshin/freckles.sm;
#HASMUSIC:1;
#HASBANNER:1;
#MUSICLENGTH:92.977;
// end cache tags

//---------------dance-single - BASIC----------------
#NOTES:
     dance-single:
     BASIC:
     Easy:
     3:
     0.244,0.307,0.054,0.075,0.000,147.000,5.000,7.000,0.000,0.000:

0000
0000
0000
0000
,
0000
0000
0000
0000
,
0000
0000
0000
0000
,
0000
0000
0000
0000
,
0100
0000
0100
0000
,
0100
0100
0100
1001
,
0000
0000
0100
0000
,
0001
0000
0100
0000
,
1000
0000
0100
0000
,
0001
0000
0010
0000
,
1000
0000
0010
0000
,
0001
0000
0010
0000
,
1000
0000
0001
0000
,
0001
0000
1000
1001
,
1000
0100
1000
0100
,
0001
0100
0001
0100
,
1000
0100
1000
0100
,
0001
0100
0001
0100
,
1000
0000
1000
0000
,
1000
0000
0001
0000
,
0001
0000
1000
0000
,
1000
0000
0001
0000
,
0001
0000
1000
0000
,
1000
0000
1000
0000
,
1001
0001
0100
0001
,
0100
0001
0100
0001
,
0200
0000
0300
0000
,
0000
1000
0001
1000
,
0001
1000
0100
1000
,
0100
1000
0100
1000
,
0200
0000
0300
0000
,
0010
0010
0100
0100
,
0000
1000
1000
1000
,
2000
0000
3001
0000
,
0000
0001
0001
0001
,
0002
0000
0000
0000
,
1003
0000
0000
0000
,
1000
0100
0001
0010
,
1000
0100
0001
0010
,
1000
0100
0001
0010
,
0200
0000
0000
0300
,
0000
1000
0010
0001
,
0100
1000
0010
0001
,
0100
1000
0010
0001
,
1001
0000
0000
0000
,
1000
0100
0001
0010
,
1000
0100
0001
0010
,
1000
0100
0001
0010
,
0200
0000
0300
0000
,
0000
1000
1000
0001
,
0001
1000
1000
0100
,
0000
0001
0001
0001
,
1000
1000
0001
0001
,
0001
0001
1000
1000
,
0001
1000
0001
1000
,
0200
0000
0000
0300
,
0000
0000
0000
0000
,
1001
0000
0000
0000;

//---------------dance-single - ANOTHER----------------
#NOTES:
     dance-single:
     ANOTHER:
     Medium:
     5:
     0.353,0.398,0.204,0.118,0.000,200.000,19.000,11.000,0.000,0.000:

0000
0000
0000
0000
,
0000
0000
0000
0000
,
0000
0000
0000
0000
,
0000
0000
0000
0000
,
0000
0100
0100
0000
0000
0010
0010
0000
,
0000
0100
0000
0100
0000
0100
1001
0000
,
0000
0001
0001
0000
1000
0100
1000
0000
,
0001
0000
0001
0000
0100
1000
0100
0000
,
0001
0010
0100
0000
1000
0010
0100
0000
,
0001
0001
1000
1000
,
0100
0000
0010
0010
,
0100
0100
0010
0101
,
0000
0100
0100
0001
,
0101
1100
1000
1001
,
0010
0100
0010
0000
1000
0000
1100
0000
,
0001
0010
0001
0000
0010
0000
1100
0000
,
0001
0000
0100
0000
1000
0100
0001
0000
,
1000
0000
0010
0000
0100
0001
0010
0000
,
1100
0000
0001
0001
,
0001
0000
0010
0100
0010
0000
0101
0000
,
0000
0010
0010
1000
,
0001
0100
1000
0000
0100
0000
0001
0000
,
0002
0000
1003
0000
,
1000
0100
1000
0000
0001
0100
0001
0000
,
2002
3003
0100
0010
,
1000
0100
1000
0000
0001
0100
0001
0000
,
0200
0000
0300
0000
,
0000
1000
0100
0010
,
0001
0000
0100
0000
0010
0000
1000
0100
,
0001
1000
0010
0100
,
0002
0000
0003
0000
,
0000
1000
0000
0100
0000
0000
0000
0000
,
0000
0000
0010
0000
0001
0100
0010
0000
,
2000
0000
0000
3001
0000
0000
0000
0000
,
0000
0000
0010
0000
0100
1000
0010
0000
,
0200
0000
0000
0000
,
0301
0000
0010
0100
,
1000
0010
0001
0000
0001
0000
0001
0000
,
0001
0010
1000
0000
1000
0000
1000
0000
,
1000
0100
1000
0000
0001
0010
0001
0000
,
0200
0000
0000
0300
,
0000
0000
0010
1000
0001
0000
0010
0000
,
0100
0000
1000
0001
0100
0000
0010
0000
,
1000
0000
0100
0000
0001
0100
1000
0000
,
1001
0000
0100
0100
,
1000
0100
0001
0000
0001
0000
0001
0000
,
0001
0100
1000
0000
1000
0000
1000
0000
,
1000
0100
0001
0000
0001
0000
0001
0000
,
0200
0000
0300
0000
,
0000
0010
1000
0100
,
0011
0000
0000
0101
0000
0000
1010
0000
,
0000
0100
0001
0010
,
1100
0000
0000
1001
0000
0000
0101
0000
,
0010
1000
0010
0000
0100
0000
0001
0000
,
0010
0100
0010
0000
0001
1000
0001
0000
,
0220
0000
0000
0330
,
0000
0000
0000
0000
,
1001
0000
0000
0000;

//---------------dance-single - MANIAC----------------
#NOTES:
     dance-single:
     MANIAC:
     Hard:
     7:
     0.519,0.528,0.129,0.129,0.000,314.000,12.000,12.000,0.000,0.000:

0000
0000
0000
0000
,
0000
0000
0000
0000
,
0000
0000
0000
0000
,
0000
0000
0000
0000
,
0010
0100
0010
0000
0000
1000
0001
1000
,
0000
0110
0000
1001
0000
0101
1100
0000
,
0000
0010
0001
0100
0010
1000
0100
0000
,
0100
0001
0100
0010
1000
0100
1000
0000
,
0001
0100
0001
1000
0100
0010
0001
0000
,
1000
0100
0010
0001
1000
0010
0000
0101
,
0000
0000
0000
0000
1000
0100
1000
0000
,
0010
0100
0001
0010
0100
1000
0101
0000
,
0010
1000
0100
0010
0001
0100
0010
1000
,
0001
0010
0100
1000
0100
0000
0000
0000
,
0000
0010
0001
0100
0010
1000
0010
0000
,
0100
0001
0100
0010
1000
0100
1000
0000
,
0001
0100
0001
1000
0100
0010
0001
0100
,
0010
1000
0001
0010
0100
1000
0000
0101
,
0000
0000
0000
0010
1000
0100
1000
0000
,
0001
0100
0010
1000
0001
0010
1100
0000
,
0000
0000
0001
0100
0001
1000
0100
0010
,
0001
1000
0001
0100
0010
1000
0100
0010
,
0001
0100
0001
0100
0001
0100
0001
0010
,
0100
1000
0100
1000
0100
1000
0100
1000
,
0002
0100
1000
0100
,
1000
0100
1000
0103
,
0020
1000
0100
1000
,
0100
0000
1000
0000
0130
0000
1000
0100
,
0020
0001
0100
0001
,
0100
0001
0100
0031
,
0200
0010
0001
0010
,
0001
0000
0010
0000
0301
0000
0010
1000
,
1100
0000
0010
0001
0100
0010
1000
0000
,
0101
0000
0010
1000
0100
0010
0001
0000
,
1100
0000
0010
0001
1000
0010
0100
0000
,
0001
0010
0001
0010
0001
0100
0010
1000
,
0100
0000
0000
0000
0010
0001
0100
0000
,
0010
1000
0100
1000
0100
0001
0100
1000
,
0001
0100
1000
0100
0001
1000
0100
0010
,
0001
1000
0010
0100
0001
0010
0100
1000
,
0001
0100
0001
0100
0010
1000
0100
0010
,
0002
1000
0100
0003
,
0020
1000
0001
0030
,
1000
0100
0010
0000
0001
0100
0010
0000
,
1000
0001
0010
0100
1000
0010
0100
0000
,
0001
0010
1000
0010
0001
1000
0010
0100
,
0001
0010
0100
1000
0010
0100
0001
1000
,
0100
0001
0100
1000
0010
0100
0001
1000
,
0100
0010
0100
0010
0001
0100
0010
1000
,
0200
0001
1000
0300
,
0002
0100
0010
1003
,
0020
0001
1000
0030
,
0200
0010
1000
0300
,
0001
0100
0010
0000
1000
0100
0010
0000
,
0001
1000
0010
0100
0001
0010
0100
1000
,
0010
0000
0010
0000
0100
0001
0010
0000
,
0100
0000
0100
0000
1000
0010
0100
0000
,
2002
0000
0000
3003;
