#TITLE:Scitationial;
#SUBTITLE:;
#ARTIST:owenviau1;
#TITLETRANSLIT:;
#SUBTITLETRANSLIT:;
#ARTISTTRANSLIT:;
#CREDIT:owenviau1;
#BANNER:../owenviau1 Simfiles 6 (Science X Owen).png;
#BACKGROUND:;
#LYRICSPATH:;
#CDTITLE:;
#MUSIC:Scitationial.mp3;
#OFFSET:-0.119;
#SAMPLESTART:112.119;
#SAMPLELENGTH:29.999;
#SELECTABLE:YES;
#BPMS:0.000=210.000;
#STOPS:;
#BGCHANGES:;
// cache tags:
#FIRSTBEAT:0.000;
#LASTBEAT:712.000;
#SONGFILENAME:Songs/owenviau1 Simfiles 6/Scitationial - [owenviau1] v1.0.0/Scitationial.sm;
#HASMUSIC:1;
#HASBANNER:1;
#MUSICLENGTH:203.523;
// end cache tags

//---------------dance-single - 18+ (owenviau1)----------------
#NOTES:
     dance-single:
     18+ (owenviau1):
     Challenge:
     18:
     1.000,1.000,0.000,0.000,1.000,2458.000,0.000,0.000,4.000,0.000:

1000
0100
0010
0010
0001
1000
0010
0010
,
0100
0001
1000
1000
0010
0100
0001
0001
,
1000
0100
0010
0010
0001
0100
0010
0010
,
1000
0100
1000
1000
0001
0100
0010
0010
,
1000
0001
0100
0100
0010
1000
0100
0100
,
0010
0001
0100
0100
0001
1000
0010
0010
,
0100
0001
1000
1000
0100
0010
0001
0001
,
0100
0010
1000
1000
0100
0010
0001
0001
,
1000
0100
0010
0010
0001
1000
0010
0010
,
0100
0001
1000
1000
0010
0100
0001
0001
,
1000
0100
0010
0010
0001
0100
0010
0010
,
1000
0100
1000
1000
0001
0100
0010
0010
,
1000
0001
0100
0100
0010
1000
0100
0100
,
0010
0001
0100
0100
0001
1000
0010
0010
,
0100
0001
1000
1000
0100
0010
0001
0001
,
0100
0010
1000
1000
0100
0010
0001
0001
,
1000
0010
0100
0001
1000
0100
0010
0001
0100
0001
1000
0010
0100
0010
1000
0001
,
0010
0001
0100
0010
1000
0100
0010
0001
1000
0001
0100
0010
1000
0100
1000
0001
,
0100
0010
1000
0001
0010
0001
0100
0010
1000
0100
0010
0001
1000
0001
0100
0010
,
1000
0100
1000
0001
0100
0010
1000
0001
0010
0001
1000
0010
0100
0001
1000
0100
,
0010
0001
1000
0001
0010
0100
1000
0010
0100
0001
1000
0010
1000
0001
0100
0010
,
1000
0100
1000
0001
0100
0001
1000
0010
0100
0001
1000
0100
0010
0001
1000
0100
,
1000
0010
0100
0001
0010
0001
1000
0010
1000
0100
0010
0001
0100
0001
1000
0010
,
0100
0010
1000
0001
0100
0001
1000
0100
0010
0001
0100
0010
0100
0001
1000
0001
,
0100
0010
1000
0100
0010
0001
0100
0010
1000
0010
0100
0001
1000
0100
0010
0001
,
0100
0001
1000
0010
0100
0010
1000
0001
0010
0001
0100
0010
1000
0100
0010
0001
,
1000
0001
0100
0010
1000
0100
1000
0001
0100
0010
1000
0001
0010
0001
0100
0010
,
1000
0100
0010
0001
1000
0001
0100
0010
1000
0100
1000
0001
0100
0010
1000
0001
,
0010
0001
1000
0010
0100
0001
1000
0100
0010
0001
1000
0001
0010
0100
1000
0010
,
0100
0001
1000
0010
1000
0001
0100
0010
1000
0100
1000
0001
0100
0001
1000
0010
,
0100
0001
1000
0100
0010
0001
1000
0100
1000
0010
0100
0001
0010
0001
1000
0010
,
1000
0100
0010
0001
0100
0001
1000
0010
0100
0010
1000
0001
0100
0001
1000
0100
,
0010
0001
0100
0010
0100
0001
1000
0001
0100
0010
1000
0100
0010
0001
0100
0010
,
1000
0010
0100
0001
1000
0100
0010
0001
0100
0001
1000
0010
0100
0010
1000
0001
,
0010
0001
0100
0010
1000
0100
0010
0001
1000
0001
0100
0010
1000
0100
1000
0001
,
0100
0010
1000
0001
0010
0001
0100
0010
1000
0100
0010
0001
1000
0001
0100
0010
,
1000
0100
1000
0001
0100
0010
1000
0001
0010
0001
1000
0010
0100
0001
1000
0100
,
0010
0001
1000
0001
0010
0100
1000
0010
0100
0001
1000
0010
1000
0001
0100
0010
,
1000
0100
1000
0001
0100
0001
1000
0010
0100
0001
1000
0100
0010
0001
1000
0100
,
1000
0010
0100
0001
0010
0001
1000
0010
1000
0100
0010
0001
0100
0001
1000
0010
,
0100
0010
1000
0001
0100
0001
1000
0100
0010
0001
0100
0010
0100
0001
1000
0001
,
0100
0010
1000
0100
0010
0001
0100
0010
1000
0010
0100
0001
1000
0100
0010
0001
,
0100
0001
1000
0010
0100
0010
1000
0001
0010
0001
0100
0010
1000
0100
0010
0001
,
1000
0001
0100
0010
1000
0100
1000
0001
0100
0010
1000
0001
0010
0001
0100
0010
,
1000
0100
0010
0001
1000
0001
0100
0010
1000
0100
1000
0001
0100
0010
1000
0001
,
0010
0001
1000
0010
0100
0001
1000
0100
0010
0001
1000
0001
0010
0100
1000
0010
,
0100
0001
1000
0010
1000
0001
0100
0010
1000
0100
1000
0001
0100
0001
1000
0010
,
0100
0001
1000
0100
0010
0001
1000
0100
1000
0010
0100
0001
0010
0001
1000
0010
,
1000
0001
0100
0000
0010
1000
0100
0010
0001
0000
1000
0000
0010
0100
0010
1000
,
0001
0100
0001
0000
1000
0100
0010
0001
1000
0000
0010
0000
0100
0001
1000
0100
,
1000
0001
0100
0000
0010
1000
0100
0010
0001
0000
1000
0000
0010
0100
0010
1000
,
0001
0100
0001
0000
1000
0100
0010
0001
1000
0000
0010
0000
0100
0001
1000
0100
,
1000
0001
0100
0000
0010
1000
0001
0100
0010
0000
1000
0000
0001
0010
0100
1000
,
0001
0100
0010
0000
1000
0100
0010
0001
1000
0000
0010
0000
0100
0001
1000
0100
,
1000
0010
0100
0000
0001
1000
0010
0100
0001
0000
1000
0000
0010
0100
0001
1000
,
0100
0010
0001
0100
0010
1000
0100
0010
,
0001
0100
0010
0000
1000
0001
0100
0000
0010
1000
0000
0100
0010
0000
0001
1000
,
0000
0010
0000
0000
0100
0000
0000
0001
0000
1000
0000
0000
0001
0000
0100
0000
,
0010
1000
0001
0000
1000
0100
0010
0001
0000
0100
0010
0000
1000
0001
0100
0001
,
0000
1000
0010
0000
0100
0001
1000
0100
0000
0010
0001
0000
0100
0001
1000
0010
,
0000
0100
0001
0000
1000
0100
0010
0001
0000
0100
0010
0000
1000
0001
0100
0001
,
0000
1000
0100
0000
0010
0001
0100
0010
0000
1000
0001
0000
0100
0001
1000
0100
,
0000
0010
0001
0000
1000
0100
0010
0001
0000
0100
0010
0000
1000
0001
0100
0001
,
0000
1000
0010
0000
0100
0001
1000
0100
0000
0010
0001
0000
0100
0001
1000
0010
,
0000
0100
0001
0000
1000
0100
0010
0001
0000
0100
0010
0000
1000
0001
0100
0001
,
0000
1000
0100
0000
0010
0001
0100
0010
0000
1000
0001
0000
0100
0001
1000
0100
,
0000
0010
0001
0000
1000
0100
0010
0001
0000
0100
0010
0000
1000
0001
0100
0001
,
0000
1000
0010
0000
0100
0001
1000
0100
0000
0010
0001
0000
0100
0001
1000
0010
,
0000
0100
0001
0000
1000
0100
0010
0001
0000
0100
0010
0000
1000
0001
0100
0001
,
0000
1000
0100
0000
0010
0001
0100
0010
0000
1000
0001
0000
0100
0001
1000
0100
,
0000
0010
0001
0000
1000
0100
0010
0001
0000
0100
0010
0000
1000
0001
0100
0001
,
0000
1000
0010
0000
0100
0001
1000
0100
0000
0010
0001
0000
0100
0001
1000
0010
,
0000
0100
0001
0000
1000
0100
0010
0001
0000
0100
0010
0000
1000
0001
0100
0001
,
0000
1000
0100
0000
0010
0001
0100
0010
0000
1000
0001
0000
0100
0001
1000
0010
,
0100
0001
1000
0100
1000
0010
0100
0001
,
1000
0100
0010
0001
1000
0001
0100
0010
,
1000
0001
0010
0001
0100
0010
1000
0100
,
1000
0001
0100
0010
1000
0001
0010
0001
,
0100
0010
1000
0100
1000
0001
0100
0001
1000
0010
0100
0001
1000
0100
0010
0001
,
1000
0010
0100
0010
1000
0001
0100
0001
1000
0100
0010
0001
0100
0010
0100
0001
,
1000
0100
1000
0010
0100
0001
1000
0100
0010
0001
1000
0001
0100
0010
1000
0100
,
0010
0000
0000
0000
0000
0000
0000
0000
0000
0001
0000
0000
0000
0000
0000
0000
0000
0000
0000
1000
0000
0000
0000
0000
0000
0000
0000
0000
0000
0010
0000
0000
0000
0000
0000
0000
0000
0000
0100
0000
0000
0000
0000
0000
0000
0000
0000
0000
0001
0000
0000
0000
0000
0000
0000
0000
0000
1000
0000
0000
0000
0000
0000
0000
0000
0000
0000
0001
0000
0000
0000
0000
0000
0000
0000
0000
0000
0010
0000
0000
0000
0000
0000
0000
0000
0000
0100
0000
0000
0000
0000
0000
0000
0000
0000
0000
1000
0000
0000
0000
0000
0000
0000
0000
0000
0010
0000
0000
0000
0000
0000
0000
0000
0000
0000
1000
0000
0000
0000
0000
0000
0000
0000
0000
0000
0100
0000
0000
0000
0000
0000
0000
0000
0000
0010
0000
0000
0000
0000
0000
0000
0000
0000
0000
0001
0000
0000
0000
0000
0000
0000
0000
0000
0100
0000
0000
0000
0000
0000
0000
0000
0000
0000
0010
0000
0000
0000
0000
0000
0000
0000
0000
0000
1000
0000
0000
0000
0000
0000
0000
0000
0000
0001
0000
0000
0000
0000
0000
0000
0000
0000
0000
,
1000
0010
0100
0001
1000
0100
0010
0001
0100
0001
1000
0010
0100
0010
1000
0001
,
0010
0001
0100
0010
1000
0100
0010
0001
1000
0001
0100
0010
1000
0100
1000
0001
,
0100
0010
1000
0001
0010
0001
0100
0010
1000
0100
0010
0001
1000
0001
0100
0010
,
1000
0100
1000
0001
0100
0010
0100
0001
1000
0001
0100
0010
0100
0001
1000
0100
,
0010
0001
1000
0001
0010
0100
1000
0010
0100
0001
1000
0010
1000
0001
0100
0010
,
1000
0100
1000
0001
0100
0001
1000
0010
0100
0001
1000
0100
0010
0001
1000
0100
,
1000
0010
0100
0001
0010
0001
1000
0010
1000
0100
0010
0001
0100
0001
1000
0010
,
0100
0010
1000
0001
0100
0001
1000
0100
0010
0001
0100
0010
0100
0001
1000
0001
,
0100
0010
1000
0100
0010
0001
0100
0010
1000
0010
0100
0001
1000
0100
0010
0001
,
0100
0001
1000
0010
0100
0010
1000
0001
0010
0001
0100
0010
1000
0100
0010
0001
,
1000
0001
0100
0010
1000
0100
1000
0001
0100
0010
1000
0001
0010
0001
0100
0010
,
1000
0100
0010
0001
1000
0001
0100
0010
1000
0100
1000
0001
0100
0010
1000
0001
,
0010
0001
1000
0010
0100
0001
1000
0100
0010
0001
1000
0001
0010
0100
1000
0010
,
0100
0001
1000
0010
1000
0001
0100
0010
1000
0100
1000
0001
0100
0001
1000
0010
,
0100
0001
1000
0100
0010
0001
1000
0100
1000
0010
0100
0001
0010
0001
1000
0010
,
1000
0100
0010
0001
0100
0001
1000
0010
0100
0010
1000
0001
0100
0001
1000
0100
,
0010
0001
0100
0010
0100
0001
1000
0001
0100
0010
1000
0100
0010
0001
0100
0010
,
1000
0010
0100
0001
1000
0100
0010
0001
0100
0001
1000
0010
0100
0010
1000
0001
,
0010
0001
0100
0010
1000
0100
0010
0001
1000
0001
0100
0010
1000
0100
1000
0001
,
0100
0010
1000
0001
0010
0001
0100
0010
1000
0100
0010
0001
1000
0001
0100
0010
,
1000
0100
1000
0001
0100
0010
1000
0001
0010
0001
1000
0010
0100
0001
1000
0100
,
0010
0001
1000
0001
0010
0100
1000
0010
0100
0001
1000
0010
1000
0001
0100
0010
,
1000
0100
1000
0001
0100
0001
1000
0010
0100
0001
1000
0100
0010
0001
1000
0100
,
1000
0010
0100
0001
0010
0001
1000
0010
1000
0100
0010
0001
0100
0001
1000
0010
,
0100
0010
1000
0001
0100
0001
1000
0100
0010
0001
0100
0010
0100
0001
1000
0001
,
0100
0010
1000
0100
0010
0001
0100
0010
1000
0010
0100
0001
1000
0100
0010
0001
,
0100
0001
1000
0010
0100
0010
1000
0001
0010
0001
0100
0010
1000
0100
0010
0001
,
1000
0001
0100
0010
1000
0100
1000
0001
0100
0010
1000
0001
0010
0001
0100
0010
,
1000
0100
0010
0001
1000
0001
0100
0010
1000
0100
1000
0001
0100
0010
1000
0001
,
0010
0001
1000
0010
0100
0001
1000
0100
0010
0001
1000
0001
0010
0100
1000
0010
,
0100
0001
1000
0010
1000
0001
0100
0010
1000
0100
1000
0001
0100
0001
1000
0010
,
0100
0001
1000
0100
0010
0001
1000
0100
1000
0010
0100
0001
0010
0001
1000
0010
,
0100
0010
1000
0001
1000
0100
0010
0001
0100
0001
1000
0010
0100
0010
1000
0001
,
0010
0001
0100
0010
1000
0100
0010
0001
1000
0001
0100
0010
1000
0100
1000
0001
,
0100
0010
1000
0001
0010
0001
0100
0010
1000
0100
0010
0001
1000
0001
0100
0010
,
1000
0100
1000
0001
0100
0010
1000
0001
0010
0001
1000
0010
0100
0001
1000
0100
,
0010
0001
1000
0001
0010
0100
1000
0010
0100
0001
1000
0010
1000
0001
0100
0010
,
1000
0100
1000
0001
0100
0001
1000
0010
0100
0001
1000
0100
0010
0001
1000
0100
,
1000
0010
0100
0001
0010
0001
1000
0010
1000
0100
0010
0001
0100
0001
1000
0010
,
0100
0010
1000
0001
0100
0001
1000
0100
0010
0001
0100
0010
0100
0001
1000
0001
,
0100
0010
1000
0100
0010
0001
0100
0010
1000
0010
0100
0001
1000
0100
0010
0001
,
0100
0001
1000
0010
0100
0010
1000
0001
0010
0001
0100
0010
1000
0100
0010
0001
,
1000
0001
0100
0010
1000
0100
1000
0001
0100
0010
1000
0001
0010
0001
0100
0010
,
1000
0100
0010
0001
1000
0001
0100
0010
1000
0100
1000
0001
0100
0010
1000
0001
,
0010
0001
1000
0010
0100
0001
1000
0100
0010
0001
1000
0001
0010
0100
1000
0010
,
0100
0001
1000
0010
1000
0001
0100
0010
1000
0100
1000
0001
0100
0001
1000
0010
,
0100
0001
1000
0100
0010
0001
1000
0100
1000
0010
0100
0001
0010
0001
1000
0010
,
1000
0100
0010
0001
0100
0001
1000
0010
0100
0010
1000
0001
0100
0001
1000
0100
,
0010
0001
0100
0010
0100
0001
1000
0001
0100
0010
1000
0100
0010
0001
0100
0010
,
1000
0010
0100
0001
1000
0100
0010
0001
0100
0001
1000
0010
0100
0010
1000
0001
,
0010
0001
0100
0010
1000
0100
0010
0001
1000
0001
0100
0010
1000
0100
1000
0001
,
0100
0010
1000
0001
0010
0001
0100
0010
1000
0100
0010
0001
1000
0001
0100
0010
,
1000
0100
1000
0001
0100
0010
1000
0001
0010
0001
1000
0010
0100
0001
1000
0100
,
0010
0001
1000
0001
0010
0100
1000
0010
0100
0001
1000
0010
1000
0001
0100
0010
,
1000
0100
1000
0001
0100
0001
1000
0010
0100
0001
1000
0100
0010
0001
1000
0100
,
1000
0010
0100
0001
0010
0001
1000
0010
1000
0100
0010
0001
0100
0001
1000
0010
,
0100
0010
1000
0001
0100
0001
1000
0100
0010
0001
0100
0010
0100
0001
1000
0001
,
0100
0010
1000
0100
0010
0001
0100
0010
1000
0010
0100
0001
1000
0100
0010
0001
,
0100
0001
1000
0010
0100
0010
1000
0001
0010
0001
0100
0010
1000
0100
0010
0001
,
1000
0001
0100
0010
1000
0100
1000
0001
0100
0010
1000
0001
0010
0001
0100
0010
,
1000
0100
0010
0001
1000
0001
0100
0010
1000
0100
1000
0001
0100
0010
1000
0001
,
0010
0001
1000
0010
0100
0001
1000
0100
0010
0001
1000
0001
0010
0100
1000
0010
,
0100
0001
1000
0010
1000
0001
0100
0010
1000
0100
1000
0001
0100
0001
1000
0010
,
0100
0001
1000
0100
0010
0001
1000
0100
1000
0010
0100
0001
0010
0100
1000
0001
,
0100
0010
0100
0001
1000
0100
0010
0001
0100
0001
1000
0010
0100
0010
1000
0001
,
0010
0001
0100
0010
1000
0100
0010
0001
1000
0001
0100
0010
1000
0100
1000
0001
,
0100
0010
1000
0001
0010
0001
0100
0010
1000
0100
0010
0001
1000
0001
0100
0010
,
1000
0100
1000
0001
0100
0010
1000
0001
0010
0001
1000
0010
0100
0001
1000
0100
,
0010
0001
1000
0001
0010
0100
1000
0010
0100
0001
1000
0010
1000
0001
0100
0010
,
1000
0100
1000
0001
0100
0001
1000
0010
0100
0001
1000
0100
0010
0001
1000
0100
,
1000
0010
0100
0001
0010
0001
1000
0010
1000
0100
0010
0001
0100
0001
1000
0010
,
0100
0010
1000
0001
0100
0001
1000
0100
0010
0001
0100
0010
0100
0001
1000
0001
,
0100
0010
1000
0100
0010
0001
0100
0010
1000
0010
0100
0001
1000
0100
0010
0001
,
0100
0001
1000
0010
0100
0010
1000
0001
0010
0001
0100
0010
1000
0100
0010
0001
,
1000
0001
0100
0010
1000
0100
1000
0001
0100
0010
1000
0001
0010
0001
0100
0010
,
1000
0100
0010
0001
1000
0001
0100
0010
1000
0100
1000
0001
0100
0010
1000
0001
,
0010
0001
1000
0010
0100
0001
1000
0100
0010
0001
1000
0001
0010
0100
1000
0010
,
0100
0001
1000
0010
1000
0001
0100
0010
1000
0100
1000
0001
0100
0001
1000
0010
,
0100
0001
1000
0100
0010
0001
1000
0100
1000
0010
0100
0001
0010
0001
1000
0010
,
1000
0100
0010
0001
0100
0001
1000
0010
0100
0010
1000
0001
0100
0001
1000
0100
,
0010
0001
1000
0001
0100
0010
1000
0100
,
1000
0001
0100
0010
1000
0100
0010
0001
,
0100
0001
1000
0010
0100
0010
1000
0001
,
0100
0001
1000
0100
0010
0001
0100
0010
,
1000
0001
0010
0001
0100
0010
1000
0001
,
0010
0001
0100
0010
1000
0100
0010
0001
,
1000
0001
0010
0100
1000
0010
0100
0001
,
0100
0010
1000
0100
1000
0001
0100
0010
,
0100
0001
1000
0100
1000
0010
0100
0001
,
1000
0001
0100
0010
1000
0100
1000
0001
,
0010
0001
0100
0010
1000
0100
0010
0001
,
0100
0001
1000
0010
0100
0010
1000
0001
,
1000
0100
0010
0001
0100
0010
1000
0001
,
0010
0001
0100
0010
1000
0100
0010
0001
,
0100
0010
1000
0010
0100
0001
1000
0100
,
1000
0001
0100
0010
1000
0100
0010
0001
,
MMMM
0000
0000
0000
;
