#TITLE:Ride on Goat;
#SUBTITLE:40oz. To Life Remix;
#ARTIST:m1dy;
#TITLETRANSLIT:;
#SUBTITLETRANSLIT:;
#ARTISTTRANSLIT:;
#CREDIT:The Cosmic Pope;
#BANNER:Bn-Goat.png;
#BACKGROUND:Bg-Goat.png;
#LYRICSPATH:;
#CDTITLE:;
#MUSIC:Ride On Goat.ogg;
#OFFSET:0.002;
#SAMPLESTART:37.688;
#SAMPLELENGTH:9.420;
#SELECTABLE:YES;
#DISPLAYBPM:204.000;
#BPMS:0.000=204.000,28.000=102.000,30.000=204.000,282.000=102.000,284.000=204.000;
#STOPS:;
#BGCHANGES:;
// cache tags:
#FIRSTBEAT:28.000;
#LASTBEAT:419.000;
#SONGFILENAME:Songs/SPEEEDCOOOORE 2/RIDE ON GOAT - [CosmicPope]/Ride On Goat.sm;
#HASMUSIC:1;
#HASBANNER:1;
#MUSICLENGTH:126.463;
// end cache tags

//---------------dance-single - B. Abear----------------
#NOTES:
     dance-single:
     B. Abear:
     Challenge:
     14:
     1.000,1.000,0.593,0.150,1.000,905.000,75.000,19.000,8.000,0.000:

0000
0000
0000
0000
,
0000
0000
0000
0000
,
0000
0000
0000
0000
,
0000
0000
0000
0000
,
0000
0000
0000
0000
,
0000
0000
0000
0000
,
0000
0000
0000
0000
,
0MM0
0000
0000
0000
0MM1
1000
0100
0010
,
0001
1000
0010
0100
0001
1000
0010
0100
,
0001
0000
1000
0000
0100
0000
0010
0100
1000
0000
0001
0000
0100
0000
0010
0000
,
0100
0001
1000
0100
1000
0001
0010
0100
,
0010
0000
0001
0000
1000
0010
0100
0001
1000
0000
0100
0000
1000
0000
0001
0000
,
0100
0010
0100
0001
1000
0010
1000
0001
,
0010
0000
0100
0000
0010
0000
0001
0100
0010
0000
1000
0000
0001
0000
1000
0000
,
0100
0000
0010
0000
0001
0000
1000
0000
0001
0100
0040
0000
1030
0100
0040
0000
,
0031
1000
0010
0100
0004
0000
0000
0003
2001
0000
3000
0000
1100
0000
0000
0000
,
0110
0011
1001
1010
,
0110
0000
0101
0001
2001
3000
1100
0000
,
0120
0030
0011
0000
1001
0000
0101
0000
,
0110
0000
0100
0000
0101
0000
0001
1000
0200
0000
0300
0000
0110
0000
0000
0000
,
0011
1001
1010
0110
,
0101
0000
1001
1000
1200
0300
0110
0000
,
0011
0000
1001
1000
0010
0000
0000
0000
,
0000
0000
0000
0000
0000
0000
0000
0000
0100
0001
0100
0000
0001
1000
0100
0000
,
0010
0001
1000
0001
0100
0010
1000
0000
0001
0010
0001
0000
1000
0001
0010
0000
,
0100
1000
0001
1000
0010
0100
0001
1000
0001
0010
0001
0000
1000
0001
0010
0000
,
0100
1000
0001
0100
0010
1000
0001
0000
0100
0010
0100
0000
0010
1000
0001
0000
,
1000
0100
0010
0001
1000
0010
0100
0001
1000
0010
1000
0000
0001
1000
0100
0000
,
0010
0001
1000
0001
0100
0010
1000
0000
0001
1000
0001
0000
1000
0001
0010
0000
,
0001
0100
0010
1000
0010
0100
0001
0100
0001
1000
0001
0000
1000
0001
0010
0000
,
0100
1000
0001
1000
0010
0100
0001
0000
1000
0100
1000
0000
0001
0100
0001
0000
,
1000
0100
0010
0001
1000
0000
0001
0000
0010
0100
0010
0000
0100
1000
0001
0000
,
1000
0010
0100
0010
1000
0001
1000
0000
0001
0010
0001
0000
1000
0001
0100
0000
,
0001
0100
0010
1000
0001
1000
0100
1000
0001
0100
0001
0000
1000
0001
0010
0000
,
0100
1000
0001
0010
0001
1000
0100
0000
1000
0001
1000
0000
0001
0100
0010
0000
,
1000
0010
0100
0001
1000
0001
0010
0100
1000
0001
1000
0000
0010
0100
0001
0000
,
1000
0001
0010
0100
1000
0001
1000
0000
0001
0100
0001
0000
1000
0010
0100
0000
,
0001
0010
0100
1000
0001
1000
0100
1000
0001
0100
0001
0000
1000
0010
0100
0000
,
0001
1000
0100
1000
0001
0010
0100
0000
1000
0010
0400
0000
0301
0010
0400
0000
,
1300
0010
0100
0001
4000
0000
0000
3000
0001
0100
0010
0000
0100
0000
0001
1000
,
0001
0100
0040
0000
1030
0000
0001
1000
0100
1000
0001
0000
1000
0001
0100
0000
,
0001
0010
0100
1000
0001
1000
0001
0000
1000
0001
0010
0100
4000
0000
3000
0004
,
0000
0003
0100
0000
0010
0000
1000
0001
0010
0100
4000
0000
3010
0100
0004
0000
,
1003
0100
1000
0100
1000
0100
1000
0000
0001
0000
0400
0000
0301
0000
0400
0000
,
0310
1000
0001
0000
1000
0100
0010
0001
1000
0100
1000
0001
0400
0000
0310
1000
,
0001
1000
0400
0000
0340
0000
0034
0000
4003
0000
3040
0000
0430
0000
0304
0000
,
4003
0000
3000
0004
0000
0003
0040
0000
0130
1000
0001
0000
0100
0000
0010
1000
,
0001
0000
1000
0000
0001
0000
0040
0000
0130
1000
0001
1000
0040
0000
0430
0000
,
0302
0000
0000
0000
1003
0100
0010
0001
4000
0000
0000
0000
3001
0000
0001
0000
,
0400
0000
0310
0010
4000
0000
3001
0040
,
0000
0000
0130
0000
4000
0000
3001
0000
0100
0010
1000
0000
0001
0000
0100
0010
,
1000
0001
1000
0000
0001
0000
0001
0000
0010
0100
1000
0001
0100
0010
1000
0001
,
1000
0000
0001
0000
1000
0100
0010
0000
0004
0000
0003
0400
0000
0300
0040
0000
,
4030
0000
3000
0400
0000
0300
0040
0000
0031
1000
0010
0100
0004
0000
1003
0000
,
0100
0010
0001
1000
0040
0000
0130
0000
0004
0000
0000
0000
1003
0000
0400
0000
,
0000
0310
0004
0000
2003
3100
0010
0001
,
1000
0010
0100
0001
1000
0100
0100
0010
,
0001
2000
3010
0100
0002
1003
0100
1000
,
0010
0100
0001
1000
0200
0310
0010
0001
,
1000
0001
1000
0001
0020
0130
1000
0001
,
0100
0010
1000
0001
0100
0001
0001
0010
,
0100
2000
3100
0010
0002
1003
0010
0100
,
0010
0000
1000
0000
0001
0000
0001
0000
1000
0001
1000
0001
1000
0001
1000
0001
,
1000
0001
1000
0001
1000
0001
1000
0001
2000
0000
0000
0000
0000
0000
0000
0000
,
3000
0000
0000
1001
0000
0000
0011
0000
,
0000
0000
0210
0000
,
0300
0000
0000
1100
0000
1001
0101
0000
,
0110
1010
2001
0000
,
3000
0000
0000
0101
0000
0000
0110
0000
,
0000
0000
1020
0000
,
0030
0000
0MM0
0000
,
0MM1
1000
0100
0010
0001
1000
0010
0100
,
0001
0000
1000
0000
0010
0000
0100
0000
0001
0000
1000
0000
0100
0000
0010
0100
,
1000
0001
0100
0010
0100
0001
1000
0100
,
1000
0000
0001
0000
0010
0000
0100
0000
0010
0000
0001
0000
1000
0010
0100
0001
,
1000
0100
1000
0001
0100
0010
0100
0001
,
1000
0000
0010
0000
1000
0000
0001
0000
0010
0000
0100
0000
0010
0000
0001
0100
,
0010
1000
0001
1000
0100
0010
0001
1000
,
0001
0100
0040
0000
1030
0100
0040
0000
0031
1000
0010
0100
0004
0000
0000
0003
,
1001
1000
0100
0010
0001
1000
0010
0100
,
0001
0000
0100
0000
0010
0000
0100
0000
0010
0000
1000
0000
0100
0000
1000
0001
,
0010
0001
0100
0010
0100
0001
1000
0100
,
1000
0000
0001
0000
0010
0000
0100
0000
0010
0000
0001
0000
1000
0010
0100
0001
,
1000
0100
1000
0001
0100
0010
0100
0001
,
1000
0000
0010
0000
1000
0000
0001
0000
0010
0000
0100
0000
0010
0000
0001
0100
,
0010
1000
0001
1000
0100
0010
0001
1000
,
0001
0100
0040
0000
1030
0001
0040
0000
0130
1000
0001
0100
0040
0000
0000
0000
,
1030
0001
0010
0100
1000
0001
0100
0001
1000
0100
0010
0001
1000
0010
1000
0001
,
0100
0010
1000
0010
0100
0001
1000
0010
1000
0010
0100
0001
1000
0100
1000
0001
,
0010
0100
1000
0100
0010
0001
1000
0010
1000
0001
0010
0001
1000
0100
0010
0001
,
1000
0010
0100
0010
1000
0001
0010
0001
1000
0010
0100
0001
1000
0001
0010
0100
,
1000
0100
0010
0001
1000
0010
1000
0010
0100
0001
0100
0010
1000
0001
1000
0100
,
0010
0001
1000
0100
1000
0001
0100
0001
0100
0010
1000
0001
0010
0001
1000
0010
,
0100
0001
0100
0010
1000
0001
1000
0100
0010
0001
1000
0001
0100
0010
1000
0001
,
1000
0100
0040
0000
0031
0100
0040
0000
1030
0010
0100
0001
0040
0000
0000
0000
,
0031
1000
0001
0100
0010
1000
0001
0010
0001
1000
0100
0010
0001
1000
0010
1000
,
0001
0010
0100
1000
0001
0100
0001
1000
0010
0100
0010
1000
0100
0010
0001
1000
,
0010
1000
0001
0010
0001
1000
0100
0010
0001
0100
0010
0100
0001
1000
0100
0010
,
0001
1000
0010
1000
0001
0010
0100
1000
0010
0100
0001
1000
0010
1000
0001
0010
,
0001
1000
0100
0010
0001
1000
0010
1000
0001
0010
0001
1000
0100
0010
0001
1000
,
0010
1000
0001
0010
0100
1000
0010
0100
0001
1000
0010
1000
0001
0010
0001
1000
,
0100
0010
0001
1000
0100
1000
0001
0100
0001
0100
0010
1000
0010
0100
0001
1000
,
0001
0010
0400
0000
1300
0010
0400
0000
0301
1000
0010
1000
0400
0000
0300
0000
,
0010
0001
1000
0000
0010
0000
1000
0001
0010
0001
0000
1000
0000
0010
0100
0000
,
2002
0000
0000
3003
;
