#TITLE:Clear Blue Water;
#SUBTITLE:;
#ARTIST:OceanLab;
#TITLETRANSLIT:;
#SUBTITLETRANSLIT:;
#ARTISTTRANSLIT:;
#CREDIT:;
#BANNER:Clear Blue Water-banner.PNG;
#BACKGROUND:Clear Blue Water-bg.PNG;
#LYRICSPATH:;
#CDTITLE:banzaigtv-cdtitle.PNG;
#MUSIC:Clear Blue Water.mp3;
#OFFSET:-0.027;
#SAMPLESTART:54.850;
#SAMPLELENGTH:15.000;
#SELECTABLE:YES;
#BPMS:0.000=140.000;
#STOPS:;
#BGCHANGES:;
// cache tags:
#FIRSTBEAT:16.000;
#LASTBEAT:292.000;
#SONGFILENAME:Songs/other/Clear Blue Water/Clear Blue Water.sm;
#HASMUSIC:1;
#HASBANNER:1;
#MUSICLENGTH:129.105;
// end cache tags

//---------------dance-single - J. DeGarmo----------------
#NOTES:
     dance-single:
     J. DeGarmo:
     Challenge:
     12:
     0.977,0.961,0.163,1.000,0.724,599.000,21.000,255.000,74.000,55.000:
0000
0000
0000
0000
,
0000
0000
0000
0000
,
0000
0000
0000
0000
,
0000
0000
0000
0000
,
2000
0000
0020
3000
0200
0030
0302
2000
0000
0003
0200
3000
0020
0300
0031
0200
,
0002
0300
2000
0003
0200
3000
0320
0200
0000
0030
2000
0300
0020
3000
0130
0002
,
0200
0003
0020
0300
2000
0030
3002
0020
0000
0003
0200
0030
2000
0300
3010
0200
,
0002
0300
2000
0003
0020
3000
2030
0200
0000
3000
0002
0300
0020
0003
2000
0030
,
0200
3000
0002
0300
0200
0003
2300
0200
0000
3000
0002
0300
2000
0003
3010
0200
,
2000
0300
0200
3000
0020
0300
0230
2000
0000
0300
0020
3000
0200
0030
1300
0200
,
0002
0300
0200
0003
0020
0300
2030
0002
0000
3000
0020
0003
0200
0030
0301
0200
,
2000
0300
0020
3000
0200
0030
2300
0002
0000
3000
0200
0003
2000
0300
0020
3000
,
0002
0030
2000
0003
0002
3000
0023
0002
0000
0030
0020
0003
0200
0030
0301
0200
,
2000
0300
0002
3000
0020
0003
0230
0002
0000
0300
0200
0003
0020
0300
0031
0020
,
2000
0030
0200
3000
0020
0300
2030
0002
0000
3000
0200
0003
0020
0300
1030
0020
,
0200
0030
0002
0300
0200
0003
2300
0002
0000
3000
0200
0003
2000
0300
0020
3000
,
0002
0030
0200
0003
200M
0300
0M20
3000
,
M002
0030
02M0
0003
200M
0300
0M20
3000
,
2000
0030
02M0
3000
M002
0300
0M20
0003
,
200M
0030
02M0
3000
M002
0300
0M20
0003
,
200M
0000
0000
0100
0001
0000
0000
0001
0100
0000
0000
0100
0001
0000
0000
0001
,
0100
0000
0000
0100
0001
0000
0000
0001
0100
0000
0000
0100
3031
0000
0000
0000
,
2002
0000
0000
0100
0010
0000
0000
0010
0100
0000
0000
0100
3013
0000
0000
0000
,
0100
0001
0010
0100
1000
0010
0100
1000
0100
0001
0100
0010
1000
0100
0001
0100
,
2000
0000
0001
3000
0100
0000
0010
1000
0020
0000
0100
0030
0001
0000
0010
0100
,
0020
0000
0001
0030
1000
0000
0010
1000
0200
0000
0010
0300
0001
0000
0100
0010
,
2000
0000
0001
3000
0010
0000
0001
0100
0020
0000
1000
0030
0100
0000
1000
0010
,
0200
0000
0001
0300
1000
0000
0100
0010
0002
0000
0100
0003
0010
0000
1000
0001
,
0200
0000
0001
0300
0010
0000
0001
1000
0002
0000
0100
0003
0001
0000
0010
0100
,
0020
0000
0001
0030
1000
0000
0010
1000
0200
0000
0010
0300
0001
0000
0100
0010
,
2000
0000
0001
3000
0010
0000
0001
0100
0020
0000
1000
0030
0001
0000
1000
0010
,
0100
0001
0010
1000
0010
0001
0100
1000
0100
0010
1000
0001
0010
0100
0010
0002
,
0020
0000
0000
0000
2200
0000
0000
3000
,
2000
0000
0300
0200
0000
3333
0000
0000
,
22M2
3303
0000
0000
2M22
3033
0000
0000
,
MM22
0000
2M00
0000
0200
3000
2000
0033
,
0022
0000
0000
3300
2200
0000
0000
3000
,
2000
0000
0300
0200
0000
3333
0000
0000
,
22M2
3303
0000
0000
2M22
3033
0000
0000
,
MM22
0000
2M00
0000
0200
3000
2000
0300
,
0200
0000
0000
0033
0022
0000
0000
0003
,
0002
0000
0030
0020
0000
3333
0000
0000
,
2M22
3033
0000
0000
22M2
3303
0000
0000
,
22MM
0000
00M2
0000
0020
0003
0002
3300
,
2200
0000
0000
0033
0022
0000
0000
0003
,
0002
0000
0030
0020
0000
3333
0000
0000
,
2M22
3033
0000
0000
22M2
3303
0000
0000
,
22MM
00M2
3313
MMMM
,
2000
0000
3010
0100
0020
0000
1030
0100
2000
0000
3001
0010
0002
0000
1003
0001
,
0200
0000
0310
1000
0100
1000
0010
0000
0100
0001
0010
0001
0200
0000
0310
1000
,
0001
0100
0010
0000
1000
0001
0100
0010
2000
0000
3001
0010
0100
0001
1000
0010
,
0002
0000
0103
0010
2000
0000
3001
0010
0200
0000
1300
0001
0020
0000
0130
1000
,
0002
0000
0103
0010
0200
0000
0301
0010
0002
0000
1003
0100
2000
0000
3001
1000
,
0010
0100
1000
0100
0002
0000
0103
0010
1000
0100
1000
0010
2000
0000
3001
1000
,
0001
0100
0010
1000
0001
0100
1000
0100
0002
0000
1003
0100
0010
1000
0010
0001
,
2000
0000
3010
0100
0002
0000
1003
0100
0020
0000
0031
1000
0200
0000
0310
0001
,
2000
0000
3010
0100
M020
0000
1030
0100
200M
0000
3001
0010
0002
0000
1003
0001
,
M200
0000
0310
1000
0100
1000
0010
0000
M100
0001
0010
0001
M200
0000
0310
1000
,
0100
M001
0100
0000
1M00
0001
0100
0010
200M
0000
3001
0010
0100
0001
1000
M010
,
0002
0000
0103
0010
200M
0000
3001
0010
M200
0000
1300
0M01
0020
0000
0130
10M0
,
0002
0000
0103
0010
M200
0000
0301
0010
M002
0000
1003
0100
2000
0M00
3001
1000
,
0010
0001
0010
0100
0M02
0000
0103
0010
1000
0100
1000
0010
2M00
0000
3001
1000
,
0001
0100
100M
0100
0001
0100
0010
1000
0002
M000
1003
0100
0010
1000
0010
010M
,
1000
0010
M100
0001
0100
1000
01M0
0001
1000
0100
M010
0001
0100
1000
0100
0001
,
2000
0000
301M
0100
0002
0000
1003
0100
0020
0000
0M31
1000
0200
0000
0310
0001
,
0200
0000
0310
1000
020M
0000
0310
0001
0100
0010
1000
0001
2000
0000
301M
0100
,
0001
0100
0010
1000
0020
0000
1030
0100
0010
0001
0020
000M
0130
1000
0010
0100
,
0002
0000
0013
0100
0010
0001
0020
0000
013M
1000
0100
0010
0200
0000
1300
0010
,
0100
0001
0100
0010
2000
0M00
3001
0010
0100
1000
0100
0010
0002
0000
1003
0100
,
2000
0000
3001
0010
0001
0100
0002
0000
1003
0010
1000
010M
2000
0000
3001
0010
,
0001
0000
1000
0100
0001
0000
0100
0010
0001
0000
1000
0001
0100
0000
0001
0010
,
1000
0000
0001
0100
0010
0000
0001
0100
1000
0000
0100
0001
0010
0000
0022
0000
,
2200
0000
0000
3333
,
MMMM
0000
0000
0000
;

//---------------dance-single - J. DeGarmo----------------
#NOTES:
     dance-single:
     J. DeGarmo:
     Hard:
     9:
     0.508,0.820,0.163,0.891,0.120,319.000,21.000,115.000,0.000,48.000:
0000
0000
0000
0000
,
0000
0000
0000
0000
,
0000
0000
0000
0000
,
0000
0000
0000
0000
,
1000
0000
0000
0000
1000
0000
0000
1000
0000
0000
1000
0000
2000
0000
0000
0000
,
0001
0000
0000
0000
0001
0000
0000
0001
0000
0000
0001
0000
0002
0000
0000
0000
,
0010
0000
0000
0000
0010
0000
0000
0010
0000
0000
0010
0000
0010
0000
0000
0000
,
3003
0000
0000
0000
,
0010
0000
0000
0000
0010
0000
0000
0010
0000
0000
0010
0000
0020
0000
0000
0000
,
0100
0000
0000
0000
0100
0000
0000
0100
0000
0000
0100
0000
0200
0000
0000
0000
,
1000
0000
0000
0000
1000
0000
0000
1000
0000
0000
1000
0000
1000
0000
0000
0000
,
0330
0000
0000
0000
,
0100
0000
0000
0000
0100
0000
0000
0100
0000
0000
0100
0000
0200
0000
0000
0000
,
0010
0000
0000
0000
0010
0000
0000
0010
0000
0000
0010
0000
0020
0000
0000
0000
,
0001
0000
0000
0000
0001
0000
0000
0001
0000
0000
0001
0000
0001
0000
0000
0000
,
0330
0000
0000
0000
,
1101
0000
1011
0000
,
2200
0000
0000
0011
0000
0000
3300
0000
,
0002
0000
0000
0000
0000
0000
0000
0000
0200
0000
0000
0000
0000
0000
0000
0003
,
2000
0000
0000
0300
0020
0000
0000
3000
0002
0000
0000
0000
0033
0000
0000
0000
,
0111
0000
1110
0000
,
0202
0000
0000
1010
0000
0000
0303
0000
,
2000
0000
0000
0000
0000
0000
0000
0000
0020
0000
0000
0000
0000
0000
0000
3000
,
0002
0000
0000
0030
2000
0000
0000
0000
0110
0000
0000
0000
3003
0000
0000
0000
,
0100
0010
2000
0000
3020
0000
0230
0000
,
0301
1000
0200
0000
2300
0000
3002
0000
,
1003
0010
2000
0000
3001
1000
0002
0000
,
2003
0000
0200
3000
0002
0300
0020
0003
,
1030
0100
2000
0000
3010
0100
0002
0000
,
1003
0010
0200
0000
0310
1000
0002
0000
,
1003
0010
0100
0001
0100
1000
0100
0010
,
1000
0001
0100
1000
0100
0001
1000
0100
,
1000
0000
0000
1000
0010
0000
0000
0010
0100
0000
0000
0100
0001
0000
0000
0001
,
0200
0000
0000
1001
0000
0300
0000
0000
,
1000
0100
1000
0000
0001
0010
0001
0000
,
2000
0000
0200
3000
0002
0300
0020
0003
,
1030
0000
0000
1000
0100
0000
0000
0100
0010
0000
0000
0010
0001
0000
0000
0001
,
0200
0000
0000
1001
0000
0300
0000
0000
,
1000
0100
1000
0000
1000
0001
0100
0000
,
0010
1000
0100
0001
0100
0010
0001
1000
,
0010
0000
0000
0010
0100
0000
0000
0100
0001
0000
0000
0001
1000
0000
0000
1000
,
0020
0000
0000
1001
0000
0030
0000
0000
,
0002
0000
0000
0000
0200
0000
0000
0003
2000
0300
0020
3000
0002
0000
0000
0030
,
0200
0000
0000
0003
2000
0000
0000
0300
0020
3000
0002
0030
0103
0000
0000
0000
,
1000
0000
0000
1000
0100
0000
0000
0100
0001
0000
0000
0001
0100
0000
0000
0100
,
0020
0000
0000
1001
0000
0030
0000
0000
,
0002
0000
0000
0000
0020
0000
0000
0003
2000
0030
0200
3000
0002
0000
0000
0300
,
0020
0000
0000
0003
2000
0000
0000
0030
0200
3000
0002
0300
0013
0000
0000
0000
,
2020
0000
0001
0100
,
0001
0100
3031
0000
,
0202
0000
0010
1000
,
0010
1000
0313
0000
,
1000
0000
0010
0000
0100
0000
0001
0010
0001
0000
0100
0000
0010
0000
1000
0100
,
1000
0000
0010
0000
0100
0000
0001
1000
0001
0000
0010
0000
0001
0000
0000
0000
,
2000
0000
0020
3000
0002
0000
0000
0030
0200
0003
2000
0300
0020
0000
0000
3000
,
0002
0030
0020
0003
2000
0030
0020
3000
0002
0030
0200
0003
1300
0000
0000
0000
,
2020
0000
0001
0100
,
0001
0100
3031
0000
,
0202
0000
0010
1000
,
0010
1000
0313
0000
,
1000
0000
0010
0000
0100
0000
0001
0010
0001
0000
0100
0000
0010
0000
1000
0100
,
1000
0000
0010
0000
0100
0000
0001
1000
0001
0000
0010
0000
0001
0000
0000
0000
,
2000
0000
0020
3000
0002
0000
0000
0030
0200
0003
2000
0300
0020
0000
0000
3000
,
0002
0030
0020
0003
2000
0030
0020
3000
0002
0030
0200
0003
2000
0300
0200
3000
,
0301
0000
1001
0000
1000
0010
0200
0000
,
0310
0000
1001
0000
0001
1000
0200
0000
,
0310
0000
1001
0000
0100
0010
2000
0000
,
3001
0000
1001
0000
0001
1000
0010
0000
,
2000
0000
0000
0000
0002
0000
0000
0003
0200
0000
0000
0300
0020
0000
0000
0030
,
3002
0000
0000
0000
0200
0000
0000
0300
2000
0000
0000
3000
0020
0000
0000
0030
,
2003
0000
0200
3000
0002
0300
0020
0003
,
2000
0030
0002
3000
0020
0000
0200
0000
,
2000
0000
0000
0000
,
3333
0000
0000
0000
;

//---------------dance-single - J. DeGarmo----------------
#NOTES:
     dance-single:
     J. DeGarmo:
     Medium:
     7:
     0.332,0.502,0.039,0.596,0.000,217.000,5.000,77.000,0.000,33.000:
0000
0000
0000
0000
,
0000
0000
0000
0000
,
0000
0000
0000
0000
,
0000
0000
0000
0000
,
0002
0000
0000
0000
,
2000
0000
0000
0000
,
0200
0000
0000
0000
,
3303
0000
0000
0000
,
2000
0000
0000
0000
,
0020
0000
0000
0000
,
0200
0000
0000
0000
,
3330
0000
0000
0000
,
0002
0000
0000
0000
,
0200
0000
0000
0000
,
0020
0000
0000
0000
,
0333
0000
0000
0000
,
2000
0000
0002
0000
,
0010
0000
0000
0010
0000
0000
3003
0000
,
0000
1000
0000
0111
,
0000
1000
0000
1000
,
0002
0000
2000
0000
,
0100
0000
0000
0100
0000
0000
3003
0000
,
0000
0001
0000
0001
,
2002
0100
0100
3003
,
0001
0000
0100
0000
0010
0000
1000
0100
,
0010
0000
0001
0000
1000
0000
0010
0100
,
0001
0000
1000
0000
0001
0000
0100
0010
,
1000
0000
0010
0000
0100
0001
1000
0000
,
2200
0000
0001
3300
,
0022
0000
1000
0033
,
0001
0100
0010
1000
0001
0010
0100
1000
,
0010
0100
0001
0100
0010
1000
0001
0000
,
0002
0000
0020
0000
,
0200
0000
0000
2000
0000
0000
3333
0000
,
0001
0100
1000
0100
,
0001
0100
1000
0100
,
2000
0000
0200
0000
,
0020
0000
0000
0002
0000
0000
3333
0000
,
1000
0001
0100
0010
,
1000
0001
1000
1000
,
0002
0000
2000
0000
,
0100
0000
0000
0100
0000
0000
3003
0000
,
0001
0010
1000
0100
,
0001
1000
0010
1000
,
2000
0000
0002
0000
,
0010
0000
0000
0010
0000
0000
3003
0000
,
0001
1000
0100
0001
,
0100
0010
0001
1000
,
0002
0000
0100
0000
,
0200
0000
0010
0000
,
1000
0010
1000
0010
,
1303
0000
0000
0000
,
0002
0000
2000
0003
3001
0100
0002
0000
,
0020
0003
0002
0030
1003
0010
2000
0000
,
0002
3000
0200
0003
0310
1000
0020
0000
,
0200
0030
0020
0300
1030
0100
1000
0100
,
2000
0000
0010
0000
,
0020
0000
0100
0000
,
0001
0100
0001
0100
,
3031
0000
0000
0000
,
2000
0000
0020
3000
1030
0001
0200
0000
,
0020
0300
2000
0030
3001
0010
0200
0000
,
2000
0300
0020
3000
0130
0010
2000
0000
,
3001
0100
0010
1000
0100
0010
0001
1000
,
0002
0000
0103
0000
0001
0100
0020
0000
,
1030
0100
0010
0001
0010
0100
2000
0000
,
3001
0100
0002
0000
0013
0100
2000
0000
,
3001
0100
0020
0000
1030
0010
0100
0001
,
0200
0000
0020
0300
2000
0030
0020
3000
,
0002
0030
0020
0003
2000
0030
0200
3000
,
0002
0300
2000
0003
0020
3000
0200
0030
,
0002
0300
2000
0003
0020
3000
0200
0030
,
0311
0000
0000
0000
;

//---------------dance-double - J. DeGarmo----------------
#NOTES:
     dance-double:
     J. DeGarmo:
     Challenge:
     11:
     0.695,0.820,0.155,1.000,0.337,410.000,20.000,188.000,0.000,80.000:
00000000
00000000
00000000
00000000
,
00000000
00000000
00000000
00000000
,
00000000
00000000
00000000
00000000
,
00000000
00000000
00000000
00000000
,
00002000
00000000
00000000
00000000
00000020
00000000
00003000
00000002
00000030
00000000
00000203
00000000
00020000
00000000
00000300
00000000
,
00200000
00000000
00030000
00000000
20000000
00000000
00300000
02000000
30000000
00000000
03002000
00000000
00020000
00000000
00003000
00000000
,
00002000
00000000
00030000
00000000
00000020
00000000
00003000
00000002
00000030
00000000
00000203
00000000
00020000
00000000
00000300
00000000
,
00200000
00000000
00030000
00000000
20000000
00000000
00300000
02000000
30000000
00000000
03001000
00000000
00010000
00000000
00001000
00000000
,
00020000
00000000
00000000
00000000
02000000
00000000
00030000
20000000
03000000
00000000
30200000
00000000
00002000
00000000
00300000
00000000
,
00000200
00000000
00003000
00000000
00000002
00000000
00000300
00000020
00000003
00000000
00020030
00000000
00002000
00000000
00030000
00000000
,
00020000
00000000
00003000
00000000
02000000
00000000
00030000
20000000
03000000
00000000
30200000
00000000
00002000
00000000
00300000
00000000
,
00000200
00000000
00003000
00000000
00000002
00000000
00000300
00000020
00000003
00000000
00010030
00000000
00001000
00000000
00010000
00000000
,
00002000
00000000
00000000
00000000
00000020
00000000
00003000
00000002
00000030
00000000
00000203
00000000
00020000
00000000
00000300
00000000
,
00200000
00000000
00030000
00000000
20000000
00000000
00300000
02000000
30000000
00000000
03002000
00000000
00020000
00000000
00003000
00000000
,
00002000
00000000
00030000
00000000
00000020
00000000
00003000
00000002
00000030
00000000
00000203
00000000
00020000
00000000
00000300
00000000
,
00200000
00000000
00030000
00000000
20000000
00000000
00300000
02000000
30000000
00000000
03001000
00000000
00010000
00000000
00001000
00000000
,
00020000
00000000
11100000
00030000
,
20220000
00000000
00000000
01000000
00000000
30330000
00000000
00000000
,
01101000
00000000
00011100
00000000
,
00001101
00000000
00000111
00000000
,
00002000
00000000
00000111
00003000
,
00002202
00000000
00000000
00000010
00000000
00003303
00000000
00000000
,
00010110
00000000
00111000
00000000
,
20200000
02000000
00020000
33330000
,
00100000
00000000
00001000
00000000
00010000
00000000
00000100
00000020
00000000
00000000
00000031
00000000
00000100
00000000
00001000
00200000
,
00000000
00000000
01300000
00000000
10000000
00000000
00010000
00200000
00000000
00000000
01300000
00000000
10000000
00000000
00100000
01000000
,
00010000
00000000
00100000
00000000
00001000
00000000
00000010
00000002
00000000
00000000
00000103
00000000
00001000
00000000
00000100
00000020
,
00000000
00000000
00010030
00000000
00001000
00000000
01000000
20000000
00000000
00000000
32000000
00000000
00002000
03000000
00020000
00003000
,
00000100
00030000
00010000
00000000
00001000
00000000
00100000
02000000
00000000
00000000
13000000
00000000
00100000
00000000
00010000
00000200
,
00000000
00000000
00000310
00000000
00000001
00000000
00001000
00000200
00000000
00000000
00000310
00000000
00000001
00000000
00000100
00000010
,
00001000
00000000
00000100
00000000
00010000
00000000
01000000
20000000
00000000
00000000
30100000
00000000
00010000
00000000
00100000
02000000
,
00000000
00000000
03001000
00000000
00010000
00000000
00000010
00000002
00000000
00000000
00000023
00000000
00020000
00000030
00002000
00030000
,
02003000
00000000
00200000
00000000
,
20000000
00000000
00000000
00020000
33330000
00000000
00000000
00000000
,
00220000
00000000
00000000
01000000
10000000
00000000
00000000
10000000
01000000
00000000
00000000
10000000
01000000
00000000
00000000
01000000
,
10000000
00000000
00000000
10000000
01000000
00000000
00000000
10000000
01330000
00000000
00000000
00000000
00000000
00000000
00000000
00000000
,
00000020
00000000
00000200
00000000
,
00000002
00000000
00000000
00002000
00003333
00000000
00000000
00000000
,
00002200
00000000
00000000
00000010
00000001
00000000
00000000
00000001
00000010
00000000
00000000
00000001
00000010
00000000
00000000
00000010
,
00000001
00000000
00000000
00000001
00000010
00000000
00000000
00000001
00003310
00000000
00000000
00000000
00000000
00000000
00000000
00000000
,
00002000
00000000
00200000
00000000
,
02000000
00000000
00000000
20000000
33303000
00000000
00000000
00000000
,
02000000
00000000
20000000
00000000
00100000
00010000
33100000
00000000
,
02000000
00000000
00020000
00000000
00100000
10000000
03130000
00000000
,
00020000
00000000
00000200
00000000
,
00000020
00000000
00000000
00000002
00030333
00000000
00000000
00000000
,
00000020
00000000
00000002
00000000
00000100
00001000
00000133
00000000
,
00000020
00000000
00002000
00000000
00000100
00000001
00003130
00000000
,
00100000
00000000
00001000
00000000
00010000
00000000
00000100
00000020
00000000
00000000
00000031
00000000
00000100
00000000
00001000
00200000
,
00000000
00000000
01300000
00000000
10000000
00000000
00010000
00200000
00000000
00000000
01300000
00000000
10000000
00000000
00100000
01000000
,
00010000
00000000
00100000
00000000
00001000
00000000
00000010
00000002
00000000
00000000
00000103
00000000
00001000
00000000
00000100
00000020
,
00000000
00000000
00010030
00000000
00001000
00000000
01000000
20000000
00000000
00000000
32000000
00000000
00002000
03000000
00020000
00003000
,
00000100
00030000
00010000
00000000
00001000
00000000
00100000
02000000
00000000
00000000
13000000
00000000
00100000
00000000
00010000
00000200
,
00000000
00000000
00000310
00000000
00000001
00000000
00001000
00000200
00000000
00000000
00000310
00000000
00000001
00000000
00000100
00000010
,
00001000
00000000
00000100
00000000
00010000
00000000
01000000
20000000
00000000
00000000
30100000
00000000
00010000
00000000
00100000
02000000
,
00000000
00000000
03001000
00000000
00010000
00000000
00000010
00000002
00000000
00000000
00000023
00000000
00020000
00000030
00002000
00030000
,
00200000
00003000
00310000
00000000
00000020
00000000
00000031
00000100
00002000
00000000
00003100
00000000
00000020
00000000
00010030
00001000
,
02000000
00000000
03100000
00000000
20000000
00000000
31000000
00010000
00000020
00000000
00000130
00000000
00000002
00000000
00000013
00000100
,
00002000
00000000
00003010
00000000
00020000
00000000
00031000
00100000
20000000
00000000
30010000
00000000
02000000
00000000
13000000
00100000
,
02000000
00000000
03010000
00000000
00200000
00000000
00301000
00000010
00000002
00000000
00000200
00000003
00002000
00000300
00000020
00003000
,
00000002
00000030
00000103
00000000
00000020
00000000
00010030
00001000
02000000
00000000
03100000
00000000
20000000
00000000
31000000
00010000
,
20000000
00000000
30100000
00000000
02000000
00000000
13000000
00010000
00200000
00000000
00301000
00000000
00020000
00000000
00030100
00000010
,
00000002
00000000
00000103
00000000
00000020
00000000
00001030
00000100
00000002
00000000
00000103
00000000
00000020
00000000
00000031
00000100
,
00002000
00000000
01003000
00000000
00200000
00000000
10300000
00010000
02000000
00000000
20000000
03000000
00200000
30000000
00020000
00300000
,
01000000
00030000
00200000
00000000
00000000
10000000
00300000
00010000
01000000
00000000
00002000
00000000
00000000
00010000
00003000
00000100
,
00000010
00000000
00000002
00000000
00000000
00000100
00000003
00000010
00001000
00000000
00000200
00000000
00000000
00010000
00000300
00001000
,
01000000
00000000
20000000
00000000
00000000
01000000
30000000
00100000
10000000
00000000
02000000
00000000
00000000
00010000
03000000
00000100
,
00000010
00000000
00000002
00000000
00000000
00000100
00000003
00000010
00001000
00000000
00000200
00000000
00000000
00010000
00000300
00000000
,
00202000
00000000
00000000
00010000
00000100
00000000
00000000
00000100
00010000
00000000
00010000
00000000
00303100
00000000
00000000
00000000
,
00020020
00000000
00000000
00001000
00000100
00000000
00000000
00000100
00001000
00000000
00001000
00000000
00030130
00000000
00000000
00000000
,
00022000
00000000
00000000
01000000
00000100
00000000
00000000
00000100
01000000
00000000
01000000
00000000
00033100
00000000
00000000
00000000
,
20020000
00100000
30130000
00000000
22000000
00000000
00220000
00000000
,
00002020
00000000
00000000
00000000
,
33333030
00000000
00000000
00000000
;

//---------------dance-double - J. DeGarmo----------------
#NOTES:
     dance-double:
     J. DeGarmo:
     Hard:
     8:
     0.407,0.474,0.124,0.844,0.000,236.000,16.000,109.000,0.000,32.000:
00000000
00000000
00000000
00000000
,
00000000
00000000
00000000
00000000
,
00000000
00000000
00000000
00000000
,
00000000
00000000
00000000
00000000
,
00000200
00000000
00000000
00000000
,
00020000
00000000
00000000
00000000
,
00002000
00000000
00000000
00000000
,
00033300
00000000
00000000
00000000
,
02000000
00000000
00000000
00000000
,
00020000
00000000
00000000
00000000
,
20000000
00000000
00000000
00000000
,
33030000
00000000
00000000
00000000
,
00000200
00000000
00000000
00000000
,
00000002
00000000
00000000
00000000
,
00002000
00000000
00000000
00000000
,
00003303
00000000
00000000
00000000
,
00000001
00000000
00000111
00000000
,
00002200
00000000
00000000
00000010
00000000
00000000
00003300
00000000
,
00000000
00010000
00000000
00011100
,
00000000
01000000
00000000
00100000
,
10000000
00000000
11100000
00000000
,
00220000
00000000
00000000
01000000
00000000
00000000
00330000
00000000
,
00000000
00020000
00000000
00002000
,
00100000
00000100
00133000
00000000
,
00020000
00000000
00030200
00000000
00000320
00000000
00000031
00000100
,
00000002
00000000
00002003
00000000
00003020
00000000
00000130
00000001
,
00000020
00000000
00000230
00000000
00020300
00000000
00031000
00100000
,
00002000
00000000
02003000
00000000
03200000
00000000
10000000
10000000
,
20300000
00000000
30200000
00000000
02300000
00000000
03010000
00100000
,
00020000
00000000
00230000
00000000
00302000
00000000
00003010
00000001
,
00000200
00000000
00000320
00000000
00002030
00000000
00003100
00010000
,
00002000
00000000
00203000
00000000
00320000
00000000
01000000
01000000
,
02030000
00000000
10100000
03000000
,
00020000
00000000
00000000
01100000
00000000
00000000
00030000
00000000
,
20000000
00000000
02000000
30000000
00020000
03000000
00200000
00030000
,
20000000
00300000
02000000
30000000
00020000
03000000
00000200
00030000
,
00000320
00000000
00000101
00000030
,
00002000
00000000
00000000
00000110
00000000
00000000
00003000
00000000
,
00000002
00000000
00000020
00000003
00002000
00000030
00000200
00003000
,
00000002
00000300
00000020
00000003
00002000
00000030
00200000
00003000
,
00310000
00000000
11010000
00000000
,
22000000
00000000
00000000
00100000
00000000
00000000
33000000
00000000
,
00020000
00000000
02000000
00030000
20000000
03000000
00200000
30000000
,
00020000
00300000
00000020
00030000
00000200
00000030
00000002
00000300
,
00001003
00000000
00001011
00000000
,
00000022
00000000
00000000
00000100
00000000
00000000
00000033
00000000
,
00002000
00000000
00000020
00003000
00000002
00000030
00000200
00000003
,
00002000
00000300
02000000
00003000
00200000
03000000
02000000
00300000
,
03002000
00000000
00203000
00000000
02300000
00000000
13000000
00100000
,
20000000
00000000
30020000
00000000
02030000
00000000
03100000
10000000
,
02000000
00000000
03200000
00000000
00302000
00000000
00013000
00000100
,
00020000
00000000
00030020
00000000
00000230
00000000
00000001
00000001
,
00000302
00000000
00000203
00000000
00000320
00000000
00001030
00000100
,
00002000
00000000
00003200
00000000
00020300
00000000
01030000
10000000
,
00200000
00000000
02300000
00000000
03020000
00000000
00130000
00001000
,
00020000
00030200
00002300
00003010
,
00020200
00001000
00000010
00001000
,
00000010
00001000
00030310
00000000
,
00202000
01000000
00010000
01000000
,
00010000
01000000
00313000
00000000
,
00010000
00001000
01000000
10000000
01000000
00100000
10000000
01000000
,
00010000
00000010
00000100
00000001
00000010
00000100
00001000
00000010
,
00010000
00001000
01000000
00100000
10000000
00010000
00100000
00002000
,
00020000
00000000
00000000
00033000
,
01000000
00100000
10000000
00000000
00010000
00100000
00010000
00000000
,
00100000
00001000
00010000
00000000
00000100
00000010
00000100
00000000
,
00000010
00000001
00000010
00000000
00000100
00001000
00000100
00000000
,
00010000
00001000
00010000
00000000
00001000
00100000
00001000
00000000
,
00100000
00001000
00010000
00000000
00000010
00000100
00000001
00000000
,
00000100
00000010
00001000
00000000
00000010
00001000
00000100
00000000
,
00010000
00000100
00001000
00000000
01000000
10000000
00100000
00000000
,
10000000
00000000
00000000
00000000
,
00111100
00000000
00000000
00000000
;

//---------------dance-double - J. DeGarmo----------------
#NOTES:
     dance-double:
     J. DeGarmo:
     Medium:
     7:
     0.332,0.446,0.062,0.635,0.000,205.000,8.000,82.000,0.000,23.000:
00000000
00000000
00000000
00000000
,
00000000
00000000
00000000
00000000
,
00000000
00000000
00000000
00000000
,
00000000
00000000
00000000
00000000
,
20000000
00000000
00000000
00000000
,
02000000
00000000
00000000
30000000
,
00020000
00000000
00000000
00000000
,
00000000
00000000
00000000
03030000
,
00002000
00000000
00000000
00000000
,
00000020
00000000
00000000
00003000
,
00000002
00000000
00000000
00000000
,
00000000
00000000
00000000
00000033
,
00000200
00000000
00000000
00000000
,
00020000
00000000
00000000
00000300
,
20000000
00000000
00000000
00000000
,
00000000
00000000
00000000
30030000
,
00020000
00000000
02000000
00000000
,
00200000
00000000
00000000
13330000
00000000
00000000
00000000
00000000
,
01000000
00000000
00000000
00000000
,
11010000
00000000
00000000
00000000
,
00002000
00000000
00000200
00000000
,
00000020
00000000
00000000
00003331
00000000
00000000
00000000
00000000
,
00002000
00000000
00000002
00000000
,
00000100
00000100
00003103
00000000
,
00002000
00000000
00003100
00000000
00010000
00001000
00010000
00000000
,
00000200
00000000
00001300
00000000
00000010
00000100
00000010
00000000
,
00002000
00000000
00003010
00000000
00010000
00000010
00010000
00000000
,
00002000
02003000
03200000
20300000
,
30020000
00000000
01030000
00000000
00100000
10000000
00100000
00000000
,
02000000
00000000
03010000
00000000
00100000
00001000
00100000
00000000
,
00002000
00000000
00013000
00000000
00000100
00000010
00000100
00000000
,
00000020
00000032
00002003
00003001
,
00000220
00000000
00000001
00000000
,
00000001
00000000
00000000
00000001
00000330
00000000
00000000
00000000
,
00001000
00000000
01110000
00000000
,
10000000
00010000
01000000
00010000
,
02200000
00000000
10000000
00000000
,
10000000
00000000
00000000
10000000
03300000
00000000
00000000
00000000
,
00010000
00000000
00001110
00000000
,
00000001
00001000
00000100
00010000
,
00200000
00000000
00020000
00000000
,
01000000
00000000
00000000
01000000
00330000
00000000
00000000
00000000
,
00000100
00000000
00000111
00000000
,
00000001
00001000
00000010
00001000
,
00000200
00000000
00002000
00000000
,
00000010
00000000
00000000
00000010
00003300
00000000
00000000
00000000
,
00100000
00000000
11100000
00000000
,
00010000
01000000
00100000
00100000
,
10000000
00000000
00100000
00000000
01000000
00010000
01000000
00000000
,
00100000
00000000
10000000
00000000
01000000
10000000
01000000
00000000
,
00100000
00000000
00001000
00000000
00010000
00000100
00010000
00000000
,
00002000
02003000
03200000
20300000
,
31000000
00000000
00100000
00000000
01000000
10000000
01000000
00000000
,
00100000
00000000
00001000
00000000
00010000
00000100
00010000
00000000
,
00000100
00000000
00000010
00000000
00000001
00000010
00000001
00000000
,
00000200
00000320
00002030
00003200
,
00020300
00001000
01000000
00031000
,
02000000
00100000
10000000
03100000
,
20000000
00010000
01000000
30100000
,
02000000
00001000
00100000
03010000
,
00200000
00001000
00010000
00301000
,
00002000
00010000
00000010
00013000
,
00000020
00000001
00000100
00001030
,
00000001
00000010
00000001
00000100
00000010
00001000
00000010
00000000
,
00002000
00000000
00000200
00003000
00000020
00000300
00000002
00000030
,
00000200
00000003
00002000
00000300
00200000
00003000
00020000
00300000
,
02000000
00030000
00200000
03000000
20000000
00300000
00200000
30000000
,
02000000
00300000
00020000
03000000
00000020
00030000
00000002
00000030
,
00000200
00000003
00000020
00000300
00020000
00000030
00002000
00030000
,
02000000
00003000
00002000
03000000
00020000
00003000
00000020
00030000
,
00002000
00000030
00000200
00003000
00000002
00000300
00000200
00000003
,
00002000
00000000
00000000
00000000
,
11003300
00000000
00000000
00000000
;

//---------------dance-single - J. DeGarmo----------------
#NOTES:
     dance-single:
     J. DeGarmo:
     Beginner:
     1:
     0.044,0.084,0.000,0.000,0.000,40.000,0.000,0.000,0.000,0.000:
0000
0000
0000
0000
,
0000
0000
0000
0000
,
0000
0000
0000
0000
,
0000
0000
0000
0000
,
1000
0000
0000
0000
,
0000
0000
0000
0000
,
0000
0000
0000
0000
,
0000
0000
0000
0000
,
0001
0000
0000
0000
,
0000
0000
0000
0000
,
0000
0000
0000
0000
,
0000
0000
0000
0000
,
0100
0000
0000
0000
,
0000
0000
0000
0000
,
0000
0000
0000
0000
,
0000
0000
0000
0000
,
0010
0000
0000
0000
,
0000
0000
0000
0000
,
0010
0000
0000
0000
,
0000
0000
0000
0000
,
0100
0000
0000
0000
,
0000
0000
0000
0000
,
0100
0000
0000
0000
,
0000
0000
0000
0000
,
0001
0000
0000
0000
,
0000
0000
0000
0000
,
1000
0000
0000
0000
,
0000
0000
0000
0000
,
0001
0000
0000
0000
,
0000
0000
0000
0000
,
1000
0000
0000
0000
,
0000
0000
0000
0000
,
0010
0000
0000
0000
,
0000
0000
0000
0000
,
0010
0000
0000
0000
,
0000
0000
0000
0000
,
0100
0000
0000
0000
,
0000
0000
0000
0000
,
0100
0000
0000
0000
,
0000
0000
0000
0000
,
0001
0000
0000
0000
,
0000
0000
0000
0000
,
1000
0000
0000
0000
,
0000
0000
0000
0000
,
0001
0000
0000
0000
,
0000
0000
0000
0000
,
1000
0000
0000
0000
,
0000
0000
0000
0000
,
0001
0000
0000
0000
,
0001
0000
0000
0000
,
0001
0000
0000
0000
,
0001
0000
0000
0000
,
1000
0000
0000
0000
,
1000
0000
0000
0000
,
1000
0000
0000
0000
,
1000
0000
0000
0000
,
0010
0000
0000
0000
,
0010
0000
0000
0000
,
0010
0000
0000
0000
,
0010
0000
0000
0000
,
0100
0000
0000
0000
,
0100
0000
0000
0000
,
0100
0000
0000
0000
,
0100
0000
0000
0000
,
0001
0000
0000
0000
,
0000
0000
0000
0000
,
0010
0000
0000
0000
,
0000
0000
0000
0000
,
0100
0000
0000
0000
,
0000
0000
0000
0000
,
1000
0000
0000
0000
,
0000
0000
0000
0000
,
0001
0000
0000
0000
;

//---------------dance-single - J. DeGarmo----------------
#NOTES:
     dance-single:
     J. DeGarmo:
     Easy:
     6:
     0.173,0.251,0.046,0.302,0.000,104.000,6.000,39.000,0.000,24.000:
0000
0000
0000
0000
,
0000
0000
0000
0000
,
0000
0000
0000
0000
,
0000
0000
0000
0000
,
2000
0000
0000
0000
,
0002
0000
0000
3000
,
0200
0000
0000
0000
,
0000
0000
0000
0003
,
0020
0000
0000
0300
,
2000
0000
0000
0030
,
0200
0000
0000
0000
,
0000
0000
0000
3000
,
0020
0000
0000
0300
,
0002
0000
0000
0030
,
2000
0000
0000
0000
,
0000
0000
0000
0000
,
0010
0000
0010
0000
,
3013
0000
0000
0000
,
1000
0000
0000
0000
,
1110
0000
0000
0000
,
0100
0000
0100
0000
,
0100
0000
0000
0000
,
0002
0000
2000
0000
,
0100
0100
3103
0000
,
1000
0000
0010
0000
,
1000
0000
0001
0000
,
0100
0000
0010
0000
,
1000
0000
0010
0000
,
1000
0000
0100
0000
,
0010
0000
0001
0000
,
0100
0000
0010
0000
,
1000
0000
0001
0000
,
2000
0000
0200
0000
,
0010
0000
3300
0000
,
0001
0000
0000
0000
,
0111
0000
0000
0000
,
0002
0000
0020
0000
,
0100
0000
0033
0000
,
1000
0000
0000
0000
,
1110
0000
0000
0000
,
0020
0000
0200
0000
,
0001
0000
0330
0000
,
0100
0000
0000
0000
,
1101
0000
0000
0000
,
0200
0000
0020
0000
,
1000
0000
0330
0000
,
0010
0000
0000
0000
,
1011
0000
0000
0000
,
1000
0000
0020
0000
,
0200
0000
0001
0000
,
1000
0000
0001
0000
,
1330
0000
0000
0000
,
1000
0000
0020
0000
,
0200
0000
0001
0000
,
1000
0000
0001
0000
,
1330
0000
0000
0000
,
2000
0000
0200
3000
,
0020
0300
0200
0030
,
0002
0300
0200
0003
,
0002
0300
2000
0003
,
0020
3000
2000
0030
,
0002
3000
0200
0003
,
0020
0300
0200
0030
,
2000
0300
0200
3000
,
1300
0000
0100
0000
,
1000
0000
0010
0000
,
0100
0000
0001
0000
,
0010
0000
0100
0000
,
1000
0000
0010
0000
,
1000
0000
0001
0000
,
0100
0000
0010
0000
,
1000
0000
0000
0000
,
1111
0000
0000
0000
;

//---------------dance-double - J. DeGarmo----------------
#NOTES:
     dance-double:
     J. DeGarmo:
     Easy:
     5:
     0.170,0.311,0.046,0.263,0.000,111.000,6.000,34.000,0.000,10.000:
00000000
00000000
00000000
00000000
,
00000000
00000000
00000000
00000000
,
00000000
00000000
00000000
00000000
,
00000000
00000000
00000000
00000000
,
20000000
00000000
00000000
00000000
,
00020000
00000000
00000000
00000000
,
01000000
00000000
00000000
00000000
,
30030000
00000000
00000000
00000000
,
00020000
00000000
00000000
00000000
,
00000200
00000000
00000000
00000000
,
00001000
00000000
00000000
00000000
,
00030300
00000000
00000000
00000000
,
00000002
00000000
00000000
00000000
,
00002000
00000000
00000000
00000000
,
00000010
00000000
00000000
00000000
,
00003003
00000000
00000000
00000000
,
10000000
00000000
00100000
00000000
,
01000000
00000000
00000000
00000000
,
00001000
00000000
00000000
00000000
,
00000111
00000000
00000000
00000000
,
00000010
00000000
00001000
00000000
,
00000100
00000000
00000000
00000000
,
01000000
00000000
00100000
00000000
,
10010000
01100000
20020000
30030000
,
00010000
00000000
01000000
00000000
,
00001000
00000000
00010000
00000000
,
00000100
00000000
00000010
00000000
,
00000001
00000000
00000100
00000000
,
00000010
00000000
00001000
00000000
,
00000100
00000000
00010000
00000000
,
00001000
00000000
01000000
00000000
,
00100000
00000000
10000000
00000000
,
00020000
00000000
20000000
00000000
,
01000000
00000000
30030000
00000000
,
01000000
00000000
00000000
00000000
,
11010000
00000000
00000000
00000000
,
00002000
00000000
00000002
00000000
,
00000010
00000000
00003003
00000000
,
00000100
00000000
00000000
00000000
,
00001101
00000000
00000000
00000000
,
00000002
00000000
00000020
00000000
,
00000100
00000000
00000033
00000000
,
00001000
00000000
00000100
00000000
,
00010000
00000000
00001000
00000000
,
00200000
00000000
00020000
00000000
,
01000000
00000000
00330000
00000000
,
10000000
00000000
00100000
00000000
,
01000000
00000000
00010000
00000000
,
10000000
00000000
00100000
00000000
,
10000000
00000000
01000000
00000000
,
00100000
00000000
00010000
00000000
,
01000000
00000000
00001000
00000000
,
00010000
00000000
00000100
00000000
,
00000010
00000000
00000001
00000000
,
00000100
00000000
00000010
00000000
,
00001000
00000000
00000100
00000000
,
00020000
00000000
00200000
00030000
,
20000000
00300000
02000000
30000000
,
00020000
03000000
00200000
00030000
,
20000000
00300000
02000000
30000000
,
00002000
03000000
00000020
00003000
,
00000002
00000030
00000200
00000003
,
00002000
00000300
00000020
00003000
,
00000002
00000030
00000200
00000003
,
00001300
00000000
00000010
00000000
,
00010000
00000000
00001000
00000000
,
01000000
00000000
00100000
00000000
,
10000000
00000000
01000000
00000000
,
10000000
00000000
00100000
00000000
,
01000000
00000000
00001000
00000000
,
00010000
00000000
00000100
00000000
,
00010000
00000000
00000200
00000000
,
00002000
00000000
00000000
00000000
,
00003300
00000000
00000000
00000000
;
