#TITLE:Kicker Instinct;
#SUBTITLE:;
#ARTIST:Pattern J;
#TITLETRANSLIT:;
#SUBTITLETRANSLIT:;
#ARTISTTRANSLIT:;
#CREDIT:;
#BANNER:../ban - Jawn2.png;
#BACKGROUND:../Jawn2 - bg.png;
#LYRICSPATH:;
#CDTITLE:../CDa.png;
#MUSIC:Kicker Instinct.ogg;
#OFFSET:0.009;
#SAMPLESTART:120.040;
#SAMPLELENGTH:12.000;
#SELECTABLE:YES;
#BPMS:0.000=220.000;
#STOPS:;
#BGCHANGES:;
// cache tags:
#FIRSTBEAT:32.000;
#LASTBEAT:835.000;
#SONGFILENAME:Songs/Jimmy Jawns 2/Kicker Instinct - [Aoreo]/Kicker Instinct.sm;
#HASMUSIC:1;
#HASBANNER:1;
#MUSICLENGTH:230.569;
// end cache tags

//---------------dance-single - J. Nero----------------
#NOTES:
     dance-single:
     J. Nero:
     Hard:
     17:
     1.000,1.000,0.069,0.178,1.000,2001.000,16.000,41.000,6.000,0.000:
0000
0000
0000
0000
,
0000
0000
0000
0000
,
0000
0000
0000
0000
,
0000
0000
0000
0000
,
0000
0000
0000
0000
,
0000
0000
0000
0000
,
0000
0000
0000
0000
,
0000
0000
0000
0000
,
1001
0001
1000
0000
,
0001
0010
0100
0000
,
1000
0010
0100
0000
,
0001
0000
0010
0000
0100
1000
0002
0000
,
1003
0000
0010
0000
0100
0000
0001
0001
,
1000
0000
0100
0000
0010
0001
2000
0000
,
3010
0100
0001
0010
0100
0000
1000
1000
,
0010
0000
0100
0000
0001
1000
0200
0000
,
0310
0001
1000
0001
0100
0000
0010
0010
,
1000
0000
0001
0000
0100
0001
0020
0000
,
0130
1000
0001
1000
0010
0000
0100
0100
,
0001
0000
1000
0000
0100
0000
0000
0000
0010
0000
0001
0000
1000
0001
1000
0001
,
0100
0010
1000
0100
0010
0000
0001
0001
,
1000
0000
0010
0000
0100
0001
0020
0000
,
0130
1000
0001
0100
0010
0000
1000
1000
,
0001
0000
0010
0000
0100
1000
0002
0000
,
1003
0010
0100
0000
0101
0000
0001
0010
,
0000
0000
0100
0000
1000
0001
0100
0100
,
1000
0000
0010
0000
0100
0002
0000
0003
,
1000
0100
1000
0000
0010
0200
0000
0300
,
0101
0000
0001
0000
0010
0000
0100
0100
,
1000
0000
0001
0000
0100
0010
1000
0001
,
0000
0000
0000
0000
,
0000
0000
0000
0000
,
1000
0001
0100
0001
0010
0100
0010
0100
,
1000
0000
0001
0000
0100
0000
0001
0000
1000
0000
0010
0100
0010
0000
1000
0000
,
0001
0000
0010
0000
0100
0000
1000
0000
0001
0100
0001
0000
2000
0000
0000
0000
,
3001
0001
1000
0000
0001
0100
0001
1000
,
0010
0010
1000
0100
0010
0100
0010
0001
,
0100
0000
0010
0000
1000
0000
0100
0000
0010
0000
0001
1000
0000
0001
0100
0000
,
0010
1000
0100
0020
0230
1300
0020
0230
,
0301
0000
0020
0000
0230
0000
1300
0000
0001
0100
0001
0000
1000
0000
0100
0000
,
0010
0000
0001
0000
1000
0000
0000
0000
0001
1000
0001
0010
0100
0000
1000
0000
,
0001
0000
0001
0000
0100
0000
0000
0000
0010
0000
1000
0000
0010
0100
0001
1000
,
0001
0010
0100
1000
0002
0000
0103
0000
0002
0000
0023
0000
0130
0000
0000
0000
,
1000
1000
0020
0030
0100
0001
0020
0130
,
2000
3001
0100
0001
1000
0010
0100
0001
,
1000
0000
0010
0000
0100
0001
1000
0001
0010
0100
1000
0001
1000
0010
0100
0001
,
0010
0100
0000
1000
0100
1000
0000
0010
,
0100
0000
0000
0000
0001
1000
0001
0010
0100
1000
0001
1000
0010
0100
0001
1000
,
0010
0100
0001
1000
0100
0010
0100
1000
,
0010
0000
0100
0000
0001
0000
1000
0000
1000
0000
0001
0010
0100
0000
1000
0000
,
0010
0000
0100
0000
0001
0000
1000
0000
0001
0100
0001
0000
1000
0000
0100
0000
,
0010
0010
0001
0000
1000
0010
1000
0010
,
0100
0100
0001
0010
0100
1000
0010
0100
,
0001
0000
1000
0000
0010
0000
0100
0000
0010
0000
1000
0001
0000
1000
0010
0000
,
0100
0001
0010
0200
0320
0031
0200
0320
,
1030
0000
0200
0000
0320
0000
0031
0000
1000
0100
1000
0000
0001
0000
0010
0000
,
0100
0000
1000
0000
0001
0000
0000
0000
1000
0001
1000
0100
0010
0000
0001
0000
,
1000
0000
1000
0000
0010
0000
0000
0000
0100
0000
0001
0000
0100
0010
1000
0001
,
1000
0100
0010
0001
2000
0000
3010
0000
2000
0000
3200
0000
0310
0000
0000
0000
,
0001
0001
0200
0300
0010
1000
0200
0310
,
0002
1003
0010
1000
0001
0100
0010
1000
,
0001
0000
0100
0000
0001
1000
0001
0100
0010
1000
0001
0100
0001
0010
0100
1000
,
0010
1000
0000
0100
0010
0001
0000
1000
,
0001
0000
0000
0000
1000
0001
1000
0100
0010
0001
1000
0001
0100
0010
1000
0010
,
0100
0001
1000
0100
1000
0010
1000
0100
,
1000
0001
1000
0010
1000
0100
1000
0010
,
0100
0001
0010
0100
0010
0001
0100
0010
,
0100
0001
0010
0100
0010
0001
0100
0010
,
0100
0001
1000
0001
0100
0001
0010
0001
,
0100
0001
1000
0001
0100
0001
0010
0001
,
0100
0010
1000
0100
0010
0001
0100
0010
,
1000
0100
0010
0001
0100
0010
1000
0100
,
0010
0001
1000
0010
1000
0100
1000
0010
,
1000
0001
1000
0100
1000
0010
1000
0100
,
0010
0001
0100
0010
0100
0001
0010
0100
,
0010
0001
0100
0010
0100
0001
0010
0100
,
0010
0001
1000
0001
0010
0001
0100
0001
,
0010
0001
1000
0001
0010
0001
0100
0001
,
0010
0100
1000
0010
0100
0001
0010
0100
,
1000
0010
0100
0001
0010
0100
1000
0010
,
0100
0001
1000
0100
1000
0010
1000
0100
,
1000
0001
1000
0010
1000
0100
1000
0010
,
0100
0001
0010
0100
0010
0001
0100
0010
,
0100
0001
0010
0100
0010
0001
0100
0010
,
0100
0001
1000
0001
0100
0001
0010
0001
,
0100
0001
1000
0001
0100
0001
0010
0001
,
0100
0010
1000
0100
0010
0001
0100
0010
,
1000
0100
0010
0001
0100
0010
1000
0100
,
0010
0001
1000
0010
1000
0100
1000
0010
,
1000
0001
1000
0100
1000
0010
1000
0100
,
0010
0001
0100
0010
0100
0001
0010
0100
,
0010
0001
0100
0010
0100
0001
0010
0100
,
0010
0001
1000
0001
0010
0001
0100
0001
,
0010
0001
1000
0001
0010
0001
0100
0001
,
0010
0100
1000
0010
0100
0001
0010
0100
,
1000
0010
0100
0001
0010
0100
1000
0010
,
0100
0000
0000
0000
,
0101
0000
0000
0000
0000
0000
0001
1000
,
0100
0000
0000
0000
,
1100
0000
0000
0000
,
1001
0000
0000
0000
,
0101
0000
0000
0000
0000
0000
0100
0010
,
1000
0000
0000
0000
,
1100
0000
0000
0000
,
0110
0000
0000
0000
,
0011
0000
0000
0000
0000
0000
0001
0100
,
0010
0000
0000
0000
,
0110
0000
0000
0000
,
0100
0001
0010
0100
0010
0001
0100
0010
,
0100
0001
0010
0100
0010
0001
0100
0020
,
0000
0000
0000
0000
,
0000
0000
0000
0000
0000
0000
0000
0000
0000
0000
0000
0000
0000
0000
0000
0030
,
1000
0001
1000
0100
0010
0001
1000
0001
0100
0010
1000
0010
0100
0001
1000
0100
,
0010
0100
1000
0001
1000
0010
0100
0010
1000
0001
1000
0100
0010
0001
1000
0001
,
0100
0010
1000
0010
0100
0001
1000
0100
0010
0100
1000
0001
1000
0010
0100
0001
,
1000
0001
0010
0100
1000
0001
1000
0010
0100
0010
1000
0001
1000
0100
0010
0001
,
1000
0001
0100
0010
1000
0010
0100
0001
1000
0001
0010
0100
0010
0001
1000
0001
,
0010
0100
1000
0001
1000
0010
0100
0001
1000
0010
0100
0010
1000
0001
1000
0100
,
0010
0100
1000
0001
1000
0010
0100
0010
1000
0001
1000
0100
0010
0100
1000
0001
,
1000
0001
0100
0010
1000
0001
1000
0100
0010
0001
1000
0001
0100
0010
1000
0010
,
0100
0001
1000
0100
0010
0100
1000
0001
1000
0100
0010
0001
1000
0001
0100
0010
,
1000
0010
0100
0001
1000
0001
0010
0100
0010
0001
1000
0001
0100
0010
1000
0010
,
0100
0001
1000
0001
0010
0100
0010
0001
1000
0001
0100
0010
1000
0010
0100
0001
,
1000
0100
0010
0100
1000
0001
1000
0010
0100
0010
1000
0001
1000
0100
0010
0001
,
1000
0001
0100
0010
0100
0001
1000
0001
0010
0100
1000
0001
1000
0010
0100
0001
,
1000
0100
0010
0100
1000
0001
1000
0010
0100
0001
0100
0010
1000
0001
1000
0100
,
0010
0001
1000
0001
0010
0001
1000
0010
,
1000
0000
0100
0000
0010
0000
0001
0000
1000
0001
1000
0100
0010
0001
0100
0010
,
1000
0010
0100
0001
1000
0100
0010
0100
1000
0001
0100
0010
0100
0001
1000
0001
,
0010
0100
1000
0001
1000
0010
0100
0001
1000
0001
0010
0100
1000
0001
0100
0001
,
0100
0010
1000
0001
1000
0100
0010
0100
1000
0001
1000
0100
0010
0001
1000
0001
,
0100
0010
1000
0010
0100
0001
1000
0100
0010
0100
1000
0001
1000
0010
0100
0010
,
1000
0001
1000
0100
0010
0001
1000
0001
0100
0010
0100
0001
1000
0100
0010
0100
,
1000
0001
0100
0010
0100
0001
1000
0001
0010
0100
1000
0001
1000
0010
0100
0001
,
1000
0100
0010
0100
1000
0001
0100
0010
1000
0010
0100
0001
1000
0001
0010
0100
,
0010
0001
1000
0010
0100
0001
0100
0010
1000
0001
1000
0100
0010
0100
1000
0001
,
1000
0010
0100
0010
1000
0001
1000
0100
0010
0100
1000
0001
1000
0010
0100
0010
,
1000
0001
1000
0100
0010
0001
1000
0001
0100
0010
0100
0001
1000
0100
0010
0100
,
1000
0010
0100
0001
0100
0010
1000
0001
1000
0100
0010
0001
1000
0010
0100
0001
,
0100
0001
1000
0100
0010
0100
1000
0001
1000
0100
0010
0001
1000
0001
0100
0010
,
1000
0010
0100
0001
1000
0001
0010
0100
0010
0001
1000
0001
0010
0100
1000
0001
,
1000
0010
0100
0010
1000
0001
1000
0100
0010
0100
1000
0001
1000
0100
0010
0001
,
1000
0001
0100
0001
0020
0230
2300
3020
,
0130
0000
0001
0000
0100
0000
0001
0010
0100
0000
1000
0000
0010
0000
0100
0000
,
0010
1000
0001
0010
0100
1000
0001
1000
0010
0100
0010
1000
0001
1000
0100
0010
,
0001
0100
0001
1000
0010
1000
0001
0100
0010
0100
0001
1000
0100
0010
0100
1000
,
0010
0100
0001
1000
0001
0010
0100
0010
0001
0100
0010
1000
0010
0100
0001
1000
,
0100
0010
0001
1000
0001
0100
0010
0100
0001
0010
0100
1000
0001
1000
0010
0100
,
0001
1000
0100
0010
0100
1000
0010
0100
0001
0100
0010
1000
0001
1000
0100
0010
,
0001
0100
0001
1000
0010
0100
0010
1000
0001
1000
0100
0010
0100
1000
0001
0100
,
0001
0010
0100
1000
0001
1000
0010
0100
0010
1000
0001
1000
0100
0010
0001
1000
,
0001
0100
0010
1000
0100
0010
0100
1000
0001
1000
0010
0100
0001
0010
0001
1000
,
0010
0100
0001
0100
0010
1000
0001
0010
0100
0010
0001
0100
0010
1000
0010
0100
,
0001
1000
0100
0010
0001
0100
0001
1000
0010
0100
0010
1000
0001
0010
0100
0010
,
0001
0100
0010
1000
0010
0100
0001
1000
0100
0010
0100
1000
0001
1000
0100
0010
,
0001
0100
0001
1000
0010
0100
0010
1000
0001
0010
0100
0010
0001
1000
0001
0100
,
0010
1000
1001
0001
,
0101
0100
0110
0010
,
1000
0001
1000
0100
0010
0000
0000
0000
0001
1000
0001
0100
0010
0000
0000
0000
,
1000
0001
1000
0000
0010
0000
0100
0001
0100
0000
0000
0000
0000
0000
0000
0000
,
0001
0100
0001
0010
0100
1000
0001
0100
0010
0100
0001
1000
0100
0010
0100
1000
,
0010
0100
0001
1000
0100
0010
0001
0100
0001
1000
0010
0100
0010
1000
0100
0010
,
0001
0100
0001
1000
0100
0010
0100
1000
0010
0100
0001
0010
0100
1000
0001
0100
,
0010
0100
0001
1000
0100
1000
0010
0100
0010
1000
0001
0010
0100
0010
0001
0100
,
0010
1000
0010
0100
0001
1000
0100
0010
0001
0100
0001
1000
0100
0010
0100
1000
,
0010
0100
0001
1000
0100
0010
0001
0100
0010
0100
0001
1000
0001
0010
0100
0010
,
0001
1000
0010
1000
0100
0010
0001
1000
0010
0100
0010
1000
0001
0100
0010
0100
,
0001
1000
0100
0010
0100
1000
0001
1000
0010
0100
0001
0010
0001
1000
0100
0010
,
0001
0100
0001
1000
0100
0010
0100
1000
0010
0100
0001
0010
0100
1000
0010
1000
,
0001
0100
0010
1000
0001
0100
0001
0010
0100
1000
0010
0100
0010
1000
0001
1000
,
0100
0010
0100
1000
0010
0100
0001
1000
0100
0010
0001
0100
0001
1000
0010
0100
,
0010
1000
0001
0010
0100
0010
0001
0100
0001
1000
0010
0100
0001
1000
0100
0010
,
0100
1000
0001
1000
0010
0100
0001
0100
0010
1000
0001
1000
0100
0010
0100
1000
,
0010
0100
0010
1000
0001
1000
0100
0010
0001
0100
0001
1000
0010
0100
0010
1000
,
0100
0010
0100
1000
0010
0100
0010
1000
0001
1000
0100
0010
0001
0100
0001
1000
,
0010
0100
0001
0010
0100
0010
0001
1000
0100
1000
0010
0100
0010
1000
0100
0010
,
0001
0100
0001
0010
0100
1000
0010
1000
0100
0010
0001
0100
0001
0010
0100
1000
,
0010
0100
0010
1000
0100
1000
0010
0100
0001
0010
0100
0010
0001
0100
0010
1000
,
0100
0010
0100
1000
0010
0100
0001
0010
0100
1000
0010
1000
0100
0010
0001
0100
,
0001
0010
0100
1000
0010
1000
0100
0010
0001
0100
0001
0010
0100
1000
0010
1000
,
0001
0010
0001
0100
0010
0100
0001
0010
0100
1000
0010
0100
0010
1000
0100
1000
,
0010
0100
0001
0010
0100
1000
0010
1000
0100
0010
0001
0100
0001
0010
0100
1000
,
0010
0100
0001
1000
0100
1000
0010
0100
0001
0010
0001
0100
0010
1000
0100
1000
,
0010
0100
0001
0010
0001
0100
0010
1000
0100
0010
0001
0100
0001
0010
0100
1000
,
0010
0100
0001
1000
0100
0010
0100
1000
0010
0100
0001
0010
0001
1000
0100
0010
,
0001
0100
0001
0010
0100
1000
0010
0100
0010
1000
0100
0010
0100
1000
0001
0100
,
0010
0100
0001
0010
0100
1000
0010
1000
0001
0100
0001
0010
0100
1000
0010
0100
,
0001
0010
0001
1000
0010
1000
0100
0010
0001
0100
0010
0100
0001
1000
0100
0010
,
0100
1000
0010
0100
0001
1000
0100
0010
0001
0100
0001
1000
0010
0100
0010
1000
,
0001
0010
0100
1000
0010
0100
0001
1000
0010
1000
0100
0010
0001
0100
0001
1000
,
0000
0000
0000
0000
0000
0000
0000
0000
0000
0000
0000
0000
0000
0000
00M0
00M0
,
00M0
0000
00M0
0000
0000
0000
0000
00M0
0000
0000
00M0
0000
0000
0000
0000
0000
,
0001
0100
0001
1000
0100
0010
0100
1000
,
0010
0100
0001
1000
0001
0001
0010
0100
,
1000
0010
0100
0010
1000
0100
0010
0001
,
0100
0001
1000
0010
1000
1000
0002
0003
,
1000
1000
0100
0010
0100
1000
0010
0100
,
0001
0000
0100
0000
0010
0000
1000
0000
0001
0000
0100
0001
0000
0100
0010
0000
,
1000
0100
0010
0100
1000
0010
0100
0001
,
0100
0010
1000
0100
1000
1000
0001
0000
,
1000
0010
1000
0100
0010
0001
0100
0001
,
0010
0100
1000
0010
0100
0001
0010
0001
,
0001
1000
0010
1000
0100
0010
0001
0100
,
0001
0000
0010
0000
0100
1000
0001
0100
0001
0000
1000
0000
0010
0000
0000
0000
,
1000
1000
0100
0010
0001
1000
0001
0001
,
0100
0000
0010
0000
1000
0000
0010
0000
0100
0000
0001
1000
0000
0001
0010
0000
,
0100
0000
1000
0000
1001
0000
0001
0100
,
0010
0000
1000
0000
0100
0000
1000
0001
1000
0000
0010
0000
0100
0000
0000
0000
,
0202
0000
0000
0303
;

//---------------dance-single - J. Nero----------------
#NOTES:
     dance-single:
     J. Nero:
     Challenge:
     18:
     1.000,1.000,0.069,0.065,1.000,2317.000,16.000,15.000,6.000,0.000:
0000
0000
0000
0000
,
0000
0000
0000
0000
,
0000
0000
0000
0000
,
0000
0000
0000
0000
,
0000
0000
0000
0000
,
0000
0000
0000
0000
,
0000
0000
0000
0000
,
0000
0000
0000
0000
,
1001
0001
1000
0000
,
0001
0010
0100
0000
,
1000
0010
0100
0000
,
0001
0000
0010
0000
0100
1000
0002
0000
,
1003
0000
0010
0000
0100
0000
0001
0001
,
1000
0000
0100
0000
0010
0001
2000
0000
,
3010
0100
0001
0010
0100
0000
1000
1000
,
0010
0000
0100
0000
0001
1000
0200
0000
,
0310
0001
1000
0001
0100
0000
0010
0010
,
1000
0000
0001
0000
0100
0001
0020
0000
,
0130
1000
0001
1000
0010
0000
0100
0100
,
0001
0000
1000
0000
0100
0000
0000
0000
0010
0000
0001
0000
1000
0001
1000
0001
,
0100
0010
1000
0100
0010
0000
0001
0001
,
1000
0000
0010
0000
0100
0001
0020
0000
,
0130
1000
0001
0100
0010
0000
1000
1000
,
0001
0000
0010
0000
0100
1000
0002
0000
,
1003
0010
0100
0000
0101
0000
0001
0010
,
0000
0000
0100
0000
1000
0001
0100
0100
,
1000
0000
0010
0000
0100
0002
0000
0003
,
1000
0100
1000
0000
0010
0200
0000
0300
,
0101
0000
0001
0000
0010
0000
0100
0100
,
1000
0000
0001
0000
0100
0010
1000
0001
,
0000
0000
0000
0000
,
0000
0000
0000
0000
,
1000
0001
1000
0100
0010
0001
1000
0001
0100
0010
1000
0010
0100
0001
1000
0001
,
0010
0100
1000
0001
1000
0100
0010
0100
1000
0001
1000
0010
0100
0010
1000
0001
,
1000
0100
0010
0001
1000
0001
0100
0010
1000
0010
0100
0001
0100
0010
1000
0001
,
1000
0100
0010
0100
1000
0001
1000
0100
0010
0001
1000
0001
0100
0010
1000
0010
,
0100
0001
1000
0100
0010
0100
1000
0001
1000
0100
0010
0001
1000
0001
0100
0010
,
1000
0010
0100
0001
1000
0001
0010
0100
0010
0001
1000
0001
0100
0010
1000
0010
,
0100
0001
1000
0100
0010
0100
1000
0001
1000
0100
0010
0001
1000
0001
0100
0010
,
1000
0010
0100
0001
0100
0001
1000
0010
0100
0010
1000
0001
1000
0100
0010
0100
,
1000
0001
1000
0100
0010
0001
1000
0001
0100
0010
0100
0001
1000
0001
0010
0100
,
1000
0001
1000
0010
0100
0001
0100
0001
1000
0010
0100
0010
1000
0001
1000
0100
,
0010
0001
1000
0001
0100
0010
0100
0001
1000
0100
0010
0100
1000
0001
1000
0010
,
0100
0010
1000
0001
1000
0100
0010
0001
1000
0001
0100
0010
0100
0001
1000
0100
,
0010
0100
1000
0001
1000
0010
0100
0010
1000
0001
1000
0100
0010
0001
0100
0001
,
1000
0010
0100
0010
1000
0001
0100
0001
0010
0100
1000
0001
1000
0010
0100
0001
,
0010
0100
0000
1000
0100
1000
0000
0010
,
0100
0000
0000
0000
0001
1000
0001
0010
0100
1000
0001
1000
0010
0100
0001
1000
,
0010
1000
0001
0010
0100
1000
0001
1000
0010
0100
0001
0100
0010
1000
0001
1000
,
0100
0010
0001
1000
0001
0010
0100
0010
0001
1000
0001
0100
0010
0100
0001
1000
,
0001
0010
0100
1000
0001
1000
0010
0100
0001
0100
0010
1000
0010
0100
0001
1000
,
0001
0010
0100
0010
0001
1000
0001
0010
0100
1000
0001
1000
0010
0100
0001
0100
,
0010
1000
0001
0010
0100
0010
0001
1000
0001
0010
0100
1000
0001
1000
0010
0100
,
0001
0100
0010
1000
0001
1000
0100
0010
0100
1000
0001
1000
0010
0100
0001
0100
,
0010
1000
0001
0010
0100
0010
0001
1000
0001
0010
0100
1000
0001
1000
0010
0100
,
0001
0100
0010
1000
0010
1000
0001
0100
0010
0100
0001
1000
0001
0010
0100
0010
,
0001
1000
0001
0010
0100
1000
0001
1000
0010
0100
0010
1000
0001
1000
0100
0010
,
0001
1000
0001
0100
0010
1000
0010
1000
0001
0100
0010
0100
0001
1000
0001
0010
,
0100
1000
0001
1000
0010
0100
0010
1000
0001
0010
0100
0010
0001
1000
0001
0100
,
0010
0100
0001
1000
0001
0010
0100
1000
0001
1000
0010
0100
0010
1000
0001
0010
,
0100
0010
0001
1000
0001
0100
0010
0100
0001
1000
0001
0010
0100
1000
0001
1000
,
0010
0100
0010
1000
0001
0100
0001
1000
0100
0010
0001
1000
0001
0010
0100
1000
,
0010
1000
0000
0100
0010
0001
0000
1000
,
0001
0000
0000
0000
1000
0001
1000
0100
0010
0001
1000
0001
0100
0010
1000
0010
,
0100
0001
1000
0100
1000
0010
1000
0100
,
1000
0001
1000
0010
1000
0100
1000
0010
,
0100
0001
0010
0100
0010
0001
0100
0010
,
0100
0001
0010
0100
0010
0001
0100
0010
,
0100
0001
1000
0001
0100
0001
0010
0001
,
0100
0001
1000
0001
0100
0001
0010
0001
,
0100
0010
1000
0100
0010
0001
0100
0010
,
1000
0100
0010
0001
0100
0010
1000
0100
,
0010
0001
1000
0010
1000
0100
1000
0010
,
1000
0001
1000
0100
1000
0010
1000
0100
,
0010
0001
0100
0010
0100
0001
0010
0100
,
0010
0001
0100
0010
0100
0001
0010
0100
,
0010
0001
1000
0001
0010
0001
0100
0001
,
0010
0001
1000
0001
0010
0001
0100
0001
,
0010
0100
1000
0010
0100
0001
0010
0100
,
1000
0010
0100
0001
0010
0100
1000
0010
,
0100
0001
1000
0100
1000
0010
1000
0100
,
1000
0001
1000
0010
1000
0100
1000
0010
,
0100
0001
0010
0100
0010
0001
0100
0010
,
0100
0001
0010
0100
0010
0001
0100
0010
,
0100
0001
1000
0001
0100
0001
0010
0001
,
0100
0001
1000
0001
0100
0001
0010
0001
,
0100
0010
1000
0100
0010
0001
0100
0010
,
1000
0100
0010
0001
0100
0010
1000
0100
,
0010
0001
1000
0010
1000
0100
1000
0010
,
1000
0001
1000
0100
1000
0010
1000
0100
,
0010
0001
0100
0010
0100
0001
0010
0100
,
0010
0001
0100
0010
0100
0001
0010
0100
,
0010
0001
1000
0001
0010
0001
0100
0001
,
0010
0001
1000
0001
0010
0001
0100
0001
,
0010
0100
1000
0010
0100
0001
0010
0100
,
1000
0010
0100
0001
0010
0100
1000
0010
,
0100
0000
0000
0000
,
0101
0000
0000
0000
0000
0000
0001
1000
,
0100
0000
0000
0000
,
1100
0000
0000
0000
,
1001
0000
0000
0000
,
0101
0000
0000
0000
0000
0000
0100
0010
,
1000
0000
0000
0000
,
1100
0000
0000
0000
,
0110
0000
0000
0000
,
0011
0000
0000
0000
0000
0000
0001
0100
,
0010
0000
0000
0000
,
0110
0000
0000
0000
,
0100
0001
0010
0100
0010
0001
0100
0010
,
0100
0001
0010
0100
0010
0001
0100
0020
,
0000
0000
0000
0000
,
0000
0000
0000
0000
0000
0000
0000
0000
0000
0000
0000
0000
0000
0000
0000
0030
,
1000
0001
1000
0100
0010
0001
1000
0001
0100
0010
1000
0010
0100
0001
1000
0100
,
0010
0100
1000
0001
1000
0010
0100
0010
1000
0001
1000
0100
0010
0001
1000
0001
,
0100
0010
1000
0010
0100
0001
1000
0100
0010
0100
1000
0001
1000
0010
0100
0001
,
1000
0001
0010
0100
1000
0001
1000
0010
0100
0010
1000
0001
1000
0100
0010
0001
,
1000
0001
0100
0010
1000
0010
0100
0001
1000
0001
0010
0100
0010
0001
1000
0001
,
0010
0100
1000
0001
1000
0010
0100
0001
1000
0010
0100
0010
1000
0001
1000
0100
,
0010
0100
1000
0001
1000
0010
0100
0010
1000
0001
1000
0100
0010
0100
1000
0001
,
1000
0001
0100
0010
1000
0001
1000
0100
0010
0001
1000
0001
0100
0010
1000
0010
,
0100
0001
1000
0100
0010
0100
1000
0001
1000
0100
0010
0001
1000
0001
0100
0010
,
1000
0010
0100
0001
1000
0001
0010
0100
0010
0001
1000
0001
0100
0010
1000
0010
,
0100
0001
1000
0001
0010
0100
0010
0001
1000
0001
0100
0010
1000
0010
0100
0001
,
1000
0100
0010
0100
1000
0001
1000
0010
0100
0010
1000
0001
1000
0100
0010
0001
,
1000
0001
0100
0010
0100
0001
1000
0001
0010
0100
1000
0001
1000
0010
0100
0001
,
1000
0100
0010
0100
1000
0001
1000
0010
0100
0001
0100
0010
1000
0001
1000
0100
,
0010
0001
1000
0001
0010
0001
1000
0010
,
1000
0000
0100
0000
0010
0000
0001
0000
1000
0001
1000
0100
0010
0001
0100
0010
,
1000
0010
0100
0001
1000
0100
0010
0100
1000
0001
0100
0010
0100
0001
1000
0001
,
0010
0100
1000
0001
1000
0010
0100
0001
1000
0001
0010
0100
1000
0001
0100
0001
,
0100
0010
1000
0001
1000
0100
0010
0100
1000
0001
1000
0100
0010
0001
1000
0001
,
0100
0010
1000
0010
0100
0001
1000
0100
0010
0100
1000
0001
1000
0010
0100
0010
,
1000
0001
1000
0100
0010
0001
1000
0001
0100
0010
0100
0001
1000
0100
0010
0100
,
1000
0001
0100
0010
0100
0001
1000
0001
0010
0100
1000
0001
1000
0010
0100
0001
,
1000
0100
0010
0100
1000
0001
0100
0010
1000
0010
0100
0001
1000
0001
0010
0100
,
0010
0001
1000
0010
0100
0001
0100
0010
1000
0001
1000
0100
0010
0100
1000
0001
,
1000
0010
0100
0010
1000
0001
1000
0100
0010
0100
1000
0001
1000
0010
0100
0010
,
1000
0001
1000
0100
0010
0001
1000
0001
0100
0010
0100
0001
1000
0100
0010
0100
,
1000
0010
0100
0001
0100
0010
1000
0001
1000
0100
0010
0001
1000
0010
0100
0001
,
0100
0001
1000
0100
0010
0100
1000
0001
1000
0100
0010
0001
1000
0001
0100
0010
,
1000
0010
0100
0001
1000
0001
0010
0100
0010
0001
1000
0001
0010
0100
1000
0001
,
1000
0010
0100
0010
1000
0001
1000
0100
0010
0100
1000
0001
1000
0100
0010
0001
,
1000
0001
0100
0001
0020
0230
2300
3020
,
0130
0000
0001
0000
0100
0000
0001
0010
0100
0000
1000
0000
0010
0000
0100
0000
,
0010
1000
0001
0010
0100
1000
0001
1000
0010
0100
0010
1000
0001
1000
0100
0010
,
0001
0100
0001
1000
0010
1000
0001
0100
0010
0100
0001
1000
0100
0010
0100
1000
,
0010
0100
0001
1000
0001
0010
0100
0010
0001
0100
0010
1000
0010
0100
0001
1000
,
0100
0010
0001
1000
0001
0100
0010
0100
0001
0010
0100
1000
0001
1000
0010
0100
,
0001
1000
0100
0010
0100
1000
0010
0100
0001
0100
0010
1000
0001
1000
0100
0010
,
0001
0100
0001
1000
0010
0100
0010
1000
0001
1000
0100
0010
0100
1000
0001
0100
,
0001
0010
0100
1000
0001
1000
0010
0100
0010
1000
0001
1000
0100
0010
0001
1000
,
0001
0100
0010
1000
0100
0010
0100
1000
0001
1000
0010
0100
0001
0010
0001
1000
,
0010
0100
0001
0100
0010
1000
0001
0010
0100
0010
0001
0100
0010
1000
0010
0100
,
0001
1000
0100
0010
0001
0100
0001
1000
0010
0100
0010
1000
0001
0010
0100
0010
,
0001
0100
0010
1000
0010
0100
0001
1000
0100
0010
0100
1000
0001
1000
0100
0010
,
0001
0100
0001
1000
0010
0100
0010
1000
0001
0010
0100
0010
0001
1000
0001
0100
,
0010
1000
1001
0001
,
0101
0100
0110
0010
,
1000
0001
1000
0100
0010
0000
0000
0000
0001
1000
0001
0100
0010
0000
0000
0000
,
1000
0001
1000
0000
0010
0000
0100
0001
0100
0000
0000
0000
0000
0000
0000
0000
,
0001
0100
0001
0010
0100
1000
0001
0100
0010
0100
0001
1000
0100
0010
0100
1000
,
0010
0100
0001
1000
0100
0010
0001
0100
0001
1000
0010
0100
0010
1000
0100
0010
,
0001
0100
0001
1000
0100
0010
0100
1000
0010
0100
0001
0010
0100
1000
0001
0100
,
0010
0100
0001
1000
0100
1000
0010
0100
0010
1000
0001
0010
0100
0010
0001
0100
,
0010
1000
0010
0100
0001
1000
0100
0010
0001
0100
0001
1000
0100
0010
0100
1000
,
0010
0100
0001
1000
0100
0010
0001
0100
0010
0100
0001
1000
0001
0010
0100
0010
,
0001
1000
0010
1000
0100
0010
0001
1000
0010
0100
0010
1000
0001
0100
0010
0100
,
0001
1000
0100
0010
0100
1000
0001
1000
0010
0100
0001
0010
0001
1000
0100
0010
,
0001
0100
0001
1000
0100
0010
0100
1000
0010
0100
0001
0010
0100
1000
0010
1000
,
0001
0100
0010
1000
0001
0100
0001
0010
0100
1000
0010
0100
0010
1000
0001
1000
,
0100
0010
0100
1000
0010
0100
0001
1000
0100
0010
0001
0100
0001
1000
0010
0100
,
0010
1000
0001
0010
0100
0010
0001
0100
0001
1000
0010
0100
0001
1000
0100
0010
,
0100
1000
0001
1000
0010
0100
0001
0100
0010
1000
0001
1000
0100
0010
0100
1000
,
0010
0100
0010
1000
0001
1000
0100
0010
0001
0100
0001
1000
0010
0100
0010
1000
,
0100
0010
0100
1000
0010
0100
0010
1000
0001
1000
0100
0010
0001
0100
0001
1000
,
0010
0100
0001
0010
0100
0010
0001
1000
0100
1000
0010
0100
0010
1000
0100
0010
,
0001
0100
0001
0010
0100
1000
0010
1000
0100
0010
0001
0100
0001
0010
0100
1000
,
0010
0100
0010
1000
0100
1000
0010
0100
0001
0010
0100
0010
0001
0100
0010
1000
,
0100
0010
0100
1000
0010
0100
0001
0010
0100
1000
0010
1000
0100
0010
0001
0100
,
0001
0010
0100
1000
0010
1000
0100
0010
0001
0100
0001
0010
0100
1000
0010
1000
,
0001
0010
0001
0100
0010
0100
0001
0010
0100
1000
0010
0100
0010
1000
0100
1000
,
0010
0100
0001
0010
0100
1000
0010
1000
0100
0010
0001
0100
0001
0010
0100
1000
,
0010
0100
0001
1000
0100
1000
0010
0100
0001
0010
0001
0100
0010
1000
0100
1000
,
0010
0100
0001
0010
0001
0100
0010
1000
0100
0010
0001
0100
0001
0010
0100
1000
,
0010
0100
0001
1000
0100
0010
0100
1000
0010
0100
0001
0010
0001
1000
0100
0010
,
0001
0100
0001
0010
0100
1000
0010
0100
0010
1000
0100
0010
0100
1000
0001
0100
,
0010
0100
0001
0010
0100
1000
0010
1000
0001
0100
0001
0010
0100
1000
0010
0100
,
0001
0010
0001
1000
0010
1000
0100
0010
0001
0100
0010
0100
0001
1000
0100
0010
,
0100
1000
0010
0100
0001
1000
0100
0010
0001
0100
0001
1000
0010
0100
0010
1000
,
0001
0010
0100
1000
0010
0100
0001
1000
0010
1000
0100
0010
0001
0100
0001
1000
,
0000
0000
0000
0000
0000
0000
0000
0000
0000
0000
0000
0000
0000
0000
00M0
00M0
,
00M0
0000
00M0
0000
0000
0000
0000
00M0
0000
0000
00M0
0000
0000
0000
0000
0000
,
0001
1000
0001
0010
0100
1000
0001
1000
0010
0100
0001
1000
0010
1000
0001
0010
,
0100
1000
0001
1000
0010
0100
0001
0100
0010
1000
0001
1000
0100
0010
0001
1000
,
0001
0010
0100
0010
0001
1000
0001
0100
0010
0100
0001
1000
0001
0010
0100
1000
,
0001
1000
0010
0100
0001
0100
0010
1000
0010
0100
0001
1000
0100
0010
0001
0100
,
0001
1000
0010
0100
0010
1000
0100
1000
0001
0100
0001
1000
0100
1000
0010
0100
,
0010
1000
0001
1000
0100
0010
0001
0100
0001
1000
0010
0100
0001
1000
0100
0010
,
0001
1000
0001
0100
0010
1000
0001
0010
0001
0100
0010
0100
0001
1000
0100
0010
,
0100
1000
0001
0100
0001
0010
0100
1000
0001
1000
0010
0100
0001
0100
0010
1000
,
0010
1000
0001
0100
0010
0100
0001
1000
0001
0010
0100
0010
0001
1000
0001
0010
,
0100
1000
0001
1000
0010
0100
0010
1000
0001
1000
0100
0010
0001
1000
0001
0100
,
0010
1000
0010
1000
0001
0100
0010
0100
0001
1000
0001
0010
0100
1000
0001
1000
,
0010
0100
0010
1000
0001
0010
0100
0010
0001
1000
0001
0100
0010
0100
0001
1000
,
0001
0010
0100
1000
0001
1000
0010
0100
0010
1000
0001
0010
0100
0010
0001
1000
,
0001
0100
0010
0100
0001
1000
0001
0010
0100
1000
0001
1000
0010
0100
0010
1000
,
0001
0000
0101
0000
0100
0001
0010
0001
,
1000
0000
0100
0000
0010
0000
0001
1000
0001
0000
0010
0000
0100
0000
1000
0000
,
2002
0000
0000
3003
;
