#TITLE:QQQuasar;
#SUBTITLE:;
#ARTIST:OutPhase VS TaQ feat. Loki;
#TITLETRANSLIT:;
#SUBTITLETRANSLIT:;
#ARTISTTRANSLIT:;
#CREDIT:;
#BANNER:(cerdo_claro)qqquasar-bn.JPG;
#BACKGROUND:(cerdo_claro)qqquasar-bg.jpg;
#LYRICSPATH:;
#CDTITLE:cdtitle.png;
#MUSIC:(cerdo_claro)qqquasar.mp3;
#OFFSET:-0.060;
#SAMPLESTART:49.610;
#SAMPLELENGTH:12.000;
#SELECTABLE:YES;
#BPMS:0.000=155.000,64.000=77.500,80.000=155.000,176.000=155.000;
#STOPS:;
#BGCHANGES:;
// cache tags:
#FIRSTBEAT:0.000;
#LASTBEAT:240.250;
#SONGFILENAME:Songs/toune 3/(cerdo_claro)QQQuasar/(cerdo_claro)qqquasar.sm;
#HASMUSIC:1;
#HASBANNER:1;
#MUSICLENGTH:99.506;
// end cache tags

//---------------dance-single - ----------------
#NOTES:
     dance-single:
     :
     Hard:
     11:
     1.000,1.000,1.000,0.653,1.000,785.000,161.000,65.000,0.000,32.000:
1000
0010
1100
0000
0011
0000
0101
0000
0001
0100
0011
0000
2100
3000
0000
0000
,
1000
0001
1100
0000
0011
0000
0101
0000
1000
0010
1100
0000
0012
0003
0000
0000
,
1000
0010
1100
0000
0110
0000
0101
0000
0010
0001
2100
0000
3110
0000
0000
0000
,
0002
1003
0010
0000
2100
0000
3100
0000
0001
0100
0011
0000
0110
0000
0000
0000
,
1000
0001
1010
0000
1100
0000
0101
0000
1000
0010
0100
0000
0210
0300
0000
0000
,
1000
0100
0011
0000
0110
0000
0101
0000
0001
0010
1100
0000
0210
0300
0000
0000
,
1000
0001
1100
0000
0101
0000
1001
0000
0001
1000
0011
0000
0210
0300
0000
0000
,
1000
0010
1100
0000
0110
0000
0110
0000
1000
0001
0110
0000
0201
0300
0000
0000
,
0010
0100
0011
0000
0101
0000
1001
0000
1000
0001
1100
0000
2010
3000
0000
0000
,
0001
0100
1010
0000
0101
0000
1010
0000
1000
0010
0101
0000
1020
0030
0000
0000
,
0001
1000
0110
0000
1100
0000
1100
0000
1000
0010
1100
0000
0012
0003
0000
0000
,
1000
0010
1100
0000
0011
0000
0101
0000
1000
0001
1010
0000
0210
0300
0000
0000
,
1100
0001
1000
0001
1000
0010
1000
0010
1001
0010
0100
0001
0010
0100
1000
0001
,
1100
0001
0010
0100
1000
0001
1000
0001
1100
0001
0100
0010
0001
0010
0100
1000
,
0011
0100
0010
1000
0001
1000
0001
0010
0101
0010
1000
0001
1000
0010
0100
0001
,
1000
0100
0010
0001
0010
0100
1000
0001
0100
0010
1000
0100
0010
0100
1000
0001
0010
0100
0010
0001
0100
0010
1000
0001
,
0210
0302
2003
0010
3100
0000
0000
0012
0003
2000
3020
0001
0130
0000
0000
2100
,
3000
0002
2003
0010
3100
0000
0000
2100
3000
0020
0230
0010
0301
0000
0000
0021
,
0030
2000
3002
1000
0013
0000
0000
0210
0300
2000
3020
0001
0130
0000
0000
2100
,
3000
0020
2030
0001
3010
0000
0000
0012
0003
0200
0320
1000
0130
0000
0000
0000
,
2010
0000
0010
0000
0010
0000
0010
0100
3012
0000
0010
0000
0010
0000
0010
1000
,
0213
0000
0010
0000
0010
0000
0010
0001
2310
0000
0010
0000
0010
0000
0010
0001
,
3210
0000
0010
0000
0010
0000
0010
1000
0312
0000
0010
0000
0010
0000
0010
0100
,
2013
0000
0010
0000
0010
0000
0010
0001
3210
0000
0010
0000
0010
0000
0310
0000
,
1000
0001
0100
0010
1000
0001
1000
0010
1000
0001
1000
0010
0100
0001
1000
0001
,
1000
0010
1000
0010
0100
0001
0100
0010
1000
0001
1000
0001
0100
0010
1000
0001
,
0010
0001
1000
0010
1000
0001
0100
0010
1000
0100
0010
0001
1000
0010
0100
0001
,
1000
0001
1000
0001
0100
0010
1000
0100
0010
0001
0010
0100
1000
0001
0100
0010
1000
0100
0010
0100
1000
0001
0010
0100
,
1000
0010
0101
1000
0010
0100
0001
1000
0110
0001
1000
0010
0100
0001
1100
0010
,
0100
0001
1000
0010
0100
0001
1000
0001
2100
0001
0010
0001
0100
0010
0100
0001
,
3010
0100
1000
0010
0101
0010
1000
0010
0100
0001
1100
0001
1000
0010
0100
0001
,
0110
1000
0001
0100
0010
1000
0001
1000
0012
1000
0100
1000
0010
0100
0010
1000
,
0103
0010
0101
0010
1000
0001
1000
0010
1100
0001
0100
0010
1000
0001
1000
0010
,
1100
0010
1000
0010
0100
0001
0010
0001
0210
0001
1000
0010
0001
1000
0010
0001
,
1300
0010
0100
0001
0010
0100
1000
0100
1000
0010
0100
0010
1000
0100
1000
0100
,
1000
0010
0100
0001
1000
0010
0100
0001
0010
0100
1000
0001
0100
0010
1000
0001
0010
0100
1000
0001
1000
0010
1000
0001
,
1000
0010
0101
1000
0010
0100
0001
1000
0110
0001
1000
0010
0100
0001
1100
0010
,
0100
0001
1000
0010
0100
0001
1000
0001
2100
0001
0010
0001
0100
0010
0100
0001
,
3010
0100
1000
0010
0101
0010
1000
0010
0100
0001
1100
0001
1000
0010
0100
0001
,
0110
1000
0001
0100
0010
1000
0001
1000
0012
1000
0100
1000
0010
0100
0010
1000
,
0103
0010
0101
0010
1000
0001
1000
0010
1100
0001
0100
0010
1000
0001
1000
0010
,
1100
0010
1000
0010
0100
0001
0010
0001
0210
0001
1000
0010
0001
1000
0010
0001
,
1300
0010
0100
0001
0010
0100
1000
0100
1000
0010
0100
0010
1000
0100
1000
0100
,
0001
0010
0100
1000
0010
0100
0001
1000
0100
0010
0001
0100
0010
1000
0001
0010
0100
0010
0001
1000
0100
0010
0100
1000
,
0110
0000
0011
0110
0010
0102
1100
1010
,
1103
0000
0011
1010
0010
0120
1001
1100
,
1130
0000
0011
1100
0010
2100
0011
0110
,
3011
0000
0011
1100
1000
0210
0011
1010
,
1301
0000
1100
0110
0100
2010
0011
0101
,
3011
0000
1100
0101
0100
0210
1001
0011
,
0311
0000
1100
0011
0100
0012
1100
0110
,
1103
0000
1100
0011
0001
0120
1100
0101
,
1031
0000
0000
0000
2100
0001
0100
0010
0001
0010
3100
0001
0010
0100
1000
0001
,
0100
0001
0010
0001
0110
1000
0010
0100
0001
1000
0010
0100
0001
1000
0001
1000
,
0010
0100
0001
0010
2100
0010
0100
0001
0010
0100
3001
0100
0010
1000
0001
1000
,
0010
0100
0001
1000
0011
0100
1000
0010
0100
0001
1000
0001
0100
0010
1000
0010
,
0100
0001
1200
0001
0010
0001
1000
0010
1300
0001
1000
0010
0100
0001
1000
0010
,
0100
0001
1100
0001
0100
0010
1000
0100
0010
0001
1000
0010
1000
0001
1000
0010
,
0100
0001
2100
0010
0100
0001
0010
0100
3010
0100
0001
1000
0010
0100
0001
0010
,
0100
1000
0011
0100
0001
0100
0010
1000
0010
0100
0001
1000
0001
0010
0100
0001
,
2020
3030
0000
0000
0000
0000
0000
0000
0000
0000
0000
0000
0000
0000
0000
0000
;
