#TITLE:Big Ship;
#SUBTITLE:Woah ooh!;
#ARTIST:kors k feat.Yukacco & MC STONE;
#TITLETRANSLIT:;
#SUBTITLETRANSLIT:;
#ARTISTTRANSLIT:;
#CREDIT:Avexian (Good job, you found my name);
#BANNER:../Banner.png;
#BACKGROUND:../BG.png;
#LYRICSPATH:;
#CDTITLE:../CDTitle_Avexian.png;
#MUSIC:Big Ship.ogg;
#OFFSET:-0.788;
#SAMPLESTART:81.889;
#SAMPLELENGTH:21.818;
#SELECTABLE:YES;
#BPMS:0.000=177.025,24.000=177.014,25.000=177.025,32.000=177.002,33.000=177.014,34.000=177.002,35.000=177.014,36.000=177.002,37.000=177.014,38.000=177.002,39.000=177.014,40.000=177.025,41.000=177.002,42.000=177.014,43.000=177.002,44.000=177.014,45.000=177.002,46.000=177.014,47.000=177.002,48.000=177.014,49.000=177.002,50.000=177.014,51.000=177.025,52.000=177.002,53.000=177.014,54.000=177.002,55.000=177.014,56.000=177.002,57.000=177.014,58.000=177.002,59.000=177.014,60.000=177.002,61.000=177.014,62.000=177.002,63.000=177.014,64.000=177.002,65.000=177.014,66.000=177.025,67.000=177.002,70.000=177.014,71.000=177.002,74.000=177.014,75.000=177.002,77.000=177.014,78.000=177.002,81.000=177.014,82.000=177.002,85.000=177.014,86.000=177.002,89.000=177.014,90.000=177.002,92.000=177.014,93.000=177.002,96.000=177.014,97.000=177.002,100.000=177.014,101.000=177.002,103.000=177.014,104.000=177.002,107.000=177.014,108.000=177.002,111.000=177.014,112.000=177.002,114.000=177.014,115.000=177.002,118.000=177.014,119.000=177.002,122.000=177.014,123.000=177.002,126.000=177.014,127.000=177.002,129.000=177.014,130.000=177.002,133.000=177.014,134.000=177.002,137.000=177.014,138.000=177.002,141.000=177.014,142.000=177.002,144.000=177.014,145.000=177.002,148.000=177.014,149.000=177.002,152.000=177.014,153.000=177.002,155.000=177.014,156.000=177.002,159.000=177.014,160.000=177.002,163.000=177.014,164.000=177.002,166.000=177.014,167.000=177.002,170.000=177.014,171.000=177.002,174.000=177.014,175.000=177.002,178.000=177.014,179.000=177.002,181.000=177.014,182.000=177.002,185.000=177.014,186.000=177.002,189.000=177.014,190.000=177.002,192.000=177.014,193.000=177.002,196.000=177.014,197.000=177.002,200.000=177.014,201.000=177.002,203.000=177.014,204.000=177.002,207.000=177.014,208.000=177.002,211.000=177.014,212.000=177.002,215.000=177.014,216.000=177.002,218.000=177.014,219.000=177.002,222.000=177.014,223.000=177.002,226.000=177.014,227.000=177.002,229.000=177.014,230.000=177.002,233.000=177.014,234.000=177.002,237.000=177.014,238.000=177.002,240.000=177.014,241.000=177.002,244.000=177.014,245.000=177.002,248.000=177.014,249.000=177.002,252.000=177.014,253.000=177.002,255.000=177.014,256.000=177.002,259.000=177.014,260.000=177.002,263.000=177.014,264.000=177.002,266.000=177.014,267.000=177.002,270.000=177.014,271.000=177.002,274.000=177.014,275.000=177.002,277.000=177.014,278.000=177.002,282.000=177.014,283.000=177.002,285.000=177.014,286.000=177.002,289.000=177.014,290.000=177.002,293.000=177.014,294.000=177.002,296.000=177.014,297.000=177.002,300.000=177.014,301.000=177.002,304.000=177.014,305.000=177.002,307.000=177.014,308.000=177.002,311.000=177.014,312.000=177.002,315.000=177.014,316.000=177.002,319.000=177.014,320.000=177.002,322.000=177.014,323.000=177.002,326.000=177.014,327.000=177.002,330.000=177.014,331.000=177.002,333.000=177.014,334.000=177.002,337.000=177.014,338.000=177.002,341.000=177.014,342.000=177.002,344.000=177.014,345.000=177.002,348.000=177.014,349.000=177.002,352.000=177.014,353.000=177.002,356.000=177.014,357.000=177.002,359.000=177.014,360.000=177.002,363.000=177.014,364.000=177.002,367.000=177.014,368.000=177.002,370.000=177.014,371.000=177.002,374.000=177.014,375.000=177.002,378.000=177.014,379.000=177.002,381.000=177.014,382.000=177.002,385.000=177.014,386.000=177.002,389.000=177.014,390.000=177.002,393.000=177.014,394.000=177.002,396.000=177.014,397.000=177.002,400.000=177.014,401.000=177.002,404.000=177.014,405.000=177.002,407.000=177.014,408.000=177.002,411.000=177.014,412.000=177.002,415.000=177.014,416.000=177.002,418.000=177.014,419.000=177.002,422.000=177.014,423.000=177.002,426.000=177.014,427.000=177.002,430.000=177.014,431.000=177.002,433.000=177.014,434.000=177.002,437.000=177.014;
#STOPS:;
#BGCHANGES:;
// cache tags:
#FIRSTBEAT:10.500;
#LASTBEAT:430.000;
#SONGFILENAME:Songs/Index Tesseract/Big Ship [Avexian]/Big Ship.sm;
#HASMUSIC:1;
#HASBANNER:1;
#MUSICLENGTH:149.327;
// end cache tags

//---------------dance-single - ----------------
#NOTES:
     dance-single:
     :
     Challenge:
     16:
     1.000,1.000,0.067,0.549,1.000,1204.000,10.000,82.000,0.000,0.000:
0000
0000
0000
0000
,
0000
0000
0000
0000
,
0000
0000
0000
0000
0000
0010
0000
1000
,
0100
0000
0010
0001
0000
0000
0000
1000
,
0100
0000
0000
0000
0000
0000
0000
0000
0000
0000
0000
0000
1000
0000
0000
0000
0000
0000
0000
0000
0000
0000
0000
0000
0010
0000
0000
0000
0000
0000
0000
0000
0000
0000
0000
0000
0200
0000
0000
0000
0000
0000
0000
0000
0000
0000
0000
0000
0000
0000
0000
0000
0000
0000
0000
0000
0000
0300
0000
0000
0002
0000
0000
0000
0000
0000
0000
0000
0000
0000
0000
0000
0000
0000
0000
0000
0000
0000
0000
0000
0000
0000
0000
0003
0020
0000
0000
0000
0000
0000
0000
0000
0000
0000
0000
0000
,
0000
0000
0000
0030
0200
0000
0000
0000
0000
0000
0000
0300
2000
0000
0000
0000
0000
0000
0000
0000
0000
0000
0000
0000
0000
0000
0000
0000
0000
0000
0000
0000
,
0000
0000
0000
0000
0000
0000
0000
0000
0000
0000
0000
0000
0000
0000
0000
0000
0000
0000
0000
0000
0000
0000
0000
0000
0000
0000
0000
0000
0000
0000
3000
0000
0002
0000
0000
0000
0000
0000
0000
0000
0000
0000
0000
0000
0000
0003
0000
0000
0200
0000
0000
0000
0000
0000
0000
0000
0000
0300
0000
0000
0020
0000
0000
0000
0000
0000
0000
0000
0000
0030
0000
0000
2000
0000
0000
0000
0000
0000
0000
0000
0000
3000
0000
0000
0200
0000
0000
0000
0000
0000
0000
0000
0000
0000
0000
0000
,
0000
0000
0000
0300
0020
0000
0000
0000
0000
0000
0000
0000
0000
0000
0000
0030
1000
0000
0000
0000
0000
0000
0000
0000
0000
0000
0000
0000
0100
0000
0000
0000
,
0010
0000
0000
0000
0100
0000
0000
0000
1000
0000
0000
0000
0020
0000
0000
0000
0000
0000
0000
0030
0200
0000
0000
0000
0000
0000
0000
0300
0002
0000
0000
0000
,
0000
0000
0000
0000
0000
0000
0000
0000
0003
0000
0000
0000
0020
0000
0000
0000
0000
0000
0000
0000
0000
0000
0000
0000
0000
0000
0000
0000
0000
0000
0000
0000
0030
0000
0000
0000
0200
0000
0000
0000
0000
0000
0000
0000
0000
0000
0000
0000
0000
0000
0000
0000
0000
0000
0000
0000
0000
0000
0000
0000
0000
0000
0000
0000
0000
0000
0000
0000
0000
0000
0000
0000
0000
0000
0000
0000
0000
0000
0000
0000
0000
0000
0000
0000
0000
0000
0000
0000
0000
0000
0000
0000
0000
0300
0000
0000
,
0020
0000
0000
0000
0000
0000
0000
0000
0030
2000
0000
0000
0000
0000
0000
0000
0000
0000
0000
0000
0000
0000
0000
3000
,
0100
0000
1000
0000
0001
0010
0000
0100
,
0000
0100
2000
0000
0000
0000
0000
0000
,
0000
0000
0000
0000
0000
0000
0000
0000
0000
0000
0000
0000
0000
0000
0000
3000
0010
0000
0000
0000
0100
0000
0000
0000
0000
0000
0000
0000
0010
0000
0000
0000
,
0000
0000
0000
0000
1000
0000
0000
0000
0200
0000
0000
0000
0000
0000
0000
0000
0000
0000
0000
0000
0000
0000
0000
0000
0000
0000
0000
0000
0000
0000
0000
0300
,
1000
0000
0100
0000
0010
0100
0000
0010
,
0000
0100
1000
0000
0000
0000
0000
0000
,
0000
0000
0000
0000
1000
0100
0000
0010
,
0000
0100
1000
0000
0000
0000
0000
0000
,
1000
0000
0000
0000
0010
0000
0000
0000
0000
0000
0000
0000
0100
0000
0000
0000
0002
0000
0000
0000
0000
0000
0000
0000
0000
0000
0000
0003
0200
0000
0000
0000
,
0000
0000
0000
0000
0000
0000
0000
0300
0020
0000
0000
0000
0000
0000
0000
0000
0000
0000
0000
0030
0100
0000
0000
0000
0010
0000
0000
0000
0000
0000
0000
0000
,
1000
0100
0000
0000
0000
1000
0100
0000
,
0010
0001
0000
0000
0000
0000
0000
0000
,
0000
0000
1000
0000
0100
0000
0000
0000
0022
0000
0000
0000
0033
0220
0000
0000
,
0000
0000
0000
0330
2200
0000
0000
0000
0000
3300
0001
0000
0010
0000
0000
0000
,
1000
0100
0000
0000
0000
0001
1000
0000
,
0010
0000
0100
0000
0000
0000
0000
0000
0000
0000
0002
0000
0000
0003
0200
0300
,
0020
0000
0000
0030
2000
3000
0200
0300
0022
0000
0000
0000
0000
0033
0220
0000
,
0000
0000
0000
0330
2200
0000
0000
0000
0000
3300
1000
0000
0100
0000
0000
0000
,
0010
0100
0000
0000
0000
1000
0010
0000
,
0100
0001
0000
0000
0000
0000
0000
0000
,
1000
0000
0010
0000
0000
0000
0100
0000
0022
0000
0000
0000
0000
0033
0220
0000
,
0000
0000
0000
0330
2200
0000
0000
0000
0000
3300
0001
0000
0010
0000
0000
0000
,
0100
0010
0000
0000
0000
0001
0010
0000
,
0100
0010
0000
0000
0000
1000
0000
0100
,
0010
0000
1000
0100
1000
0001
1000
0000
,
0001
1000
0001
1000
,
0001
1000
0001
1000
,
0001
1000
0001
1000
,
0001
0000
1000
0000
0001
1000
0001
1000
,
0001
1000
0001
1000
0001
1000
0001
1000
,
0001
0000
1000
0000
0001
0000
1000
0000
1000
0100
1000
0100
1000
0100
0001
1000
,
0001
1000
0001
1000
0001
0100
0001
0100
0001
0100
0001
1000
0100
1000
0100
1000
,
0100
0000
0000
1000
0000
0000
0100
0000
0000
1000
0000
0000
0001
0000
0010
0000
0100
0000
0010
0000
0001
0000
0000
0000
1000
0000
0000
0100
0000
0000
0010
0000
0000
0001
0000
0000
1000
0000
0000
0100
0000
0000
1000
0000
0000
0001
0000
0000
,
0010
0100
0010
0001
1000
0010
0100
0001
1000
0100
0010
0100
1000
0001
0010
0001
,
1000
0010
0100
0001
1000
0100
0010
0001
1000
0100
1000
0001
0010
0100
0010
0001
,
1000
0010
0100
0001
1000
0100
0010
0100
1000
0001
0010
0001
1000
0100
0010
0100
,
1000
0001
0010
0100
1000
0001
0100
0010
1000
0001
0010
0100
0010
0001
1000
0100
,
1000
0001
0010
0100
1000
0001
0010
0100
0010
0001
1000
0010
0100
0001
0100
0010
,
0100
0001
0010
0100
1000
0001
0100
0010
1000
0001
0010
0001
1000
0100
0010
0100
,
1000
0001
0100
0010
1000
0001
0010
0100
1000
0001
0010
0100
0010
0001
1000
0010
,
0100
0001
1000
0100
1000
0001
0010
0100
0010
0001
1000
0100
0010
0001
1000
0100
,
0010
0100
1000
0001
0100
0010
1000
0010
0100
0010
1000
0100
0010
0001
1000
0010
,
0100
0001
1000
0100
1000
0001
0010
0100
0010
0001
1000
0010
0100
0001
1000
0100
,
0010
0001
1000
0100
0010
0100
1000
0010
0100
0010
1000
0100
1000
0001
0100
0010
,
1000
0001
0010
0100
1000
0010
0100
0010
1000
0010
0100
0001
1000
0100
0010
0100
,
1000
0001
0010
0001
1000
0100
0010
0001
1000
0010
0100
0001
1000
0100
1000
0001
,
0010
0100
0010
0001
1000
0010
0100
0001
1000
0100
0010
0001
1000
0100
1000
0001
,
0010
0100
0010
0001
1000
0010
0100
0001
0100
0010
0100
0001
0010
0100
0010
0001
,
1000
0100
1000
0001
0100
0010
1000
0001
0010
0100
0010
0001
1000
0100
0010
0001
,
1000
0010
0100
0001
1000
0100
1000
0001
0010
0100
0010
0001
0100
0010
0100
0001
,
0010
0100
1000
0001
0010
0001
1000
0010
0100
0001
1000
0100
0010
0100
1000
0001
,
0100
0010
1000
0010
0100
0010
1000
0100
0010
0100
1000
0001
0010
0100
1000
0001
,
0100
0010
1000
0001
0010
0100
0010
0001
1000
0100
1000
0001
0010
0100
1000
0001
,
0100
0010
1000
0001
0010
0100
0010
0001
1000
0100
1000
0001
0100
0010
1000
0001
,
0010
0100
0010
0001
1000
0100
0010
0001
0100
0010
0100
0001
0100
0010
1000
0001
,
0010
0100
0010
0001
1000
0100
1000
0001
0010
0100
1000
0001
0100
0010
1000
0001
,
0010
0100
0010
0001
1000
0100
1000
0001
0100
0010
1000
0001
0010
0001
1000
0100
,
0010
0001
1000
0100
1000
0001
0010
0100
0010
0001
1000
0010
0100
0001
1000
0100
,
0010
0100
1000
0001
0010
0100
1000
0001
0010
0001
1000
0010
0100
0001
1000
0100
,
0010
0100
1000
0001
0010
0001
1000
0010
0100
0001
1000
0100
0010
0100
1000
0001
,
0010
0100
1000
0010
0100
0010
1000
0010
0100
0001
1000
0100
0010
0100
1000
0001
,
0010
0001
1000
0100
0010
0001
1000
0010
0100
0001
1000
0100
0010
0100
1000
0001
,
0010
0100
1000
0010
0100
0010
1000
0100
0010
0100
1000
0001
0100
0010
1000
0001
,
0010
0001
1000
0100
0010
0100
1000
0001
0100
0010
1000
0001
0010
0100
1000
0001
,
0010
0001
1000
0100
0010
0100
1000
0001
0100
0010
1000
0010
0100
0010
1000
0100
,
0010
0100
1000
0001
0010
0100
1000
0001
0100
0010
1000
0001
0010
0100
0010
0001
,
1000
0100
1000
0001
0100
0010
1000
0001
0010
0100
1000
0001
0010
0100
0010
0001
,
1000
0010
0100
0001
1000
0100
0010
0001
1000
0100
1000
0001
0100
0010
1000
0001
,
0010
0100
0010
0001
1000
0100
0010
0001
1000
0010
0100
0001
0100
0010
0100
0001
,
0010
0100
0010
0001
1000
0010
0100
0001
1000
0100
1000
0001
0010
0100
1000
0010
,
0100
0010
1000
0100
0010
0100
1000
0001
0100
0010
1000
0001
0010
0001
1000
0100
,
0010
0001
1000
0100
0010
0100
1000
0001
0100
0010
1000
0010
0100
0010
1000
0100
,
0010
0100
1000
0001
0010
0100
1000
0001
0010
0001
1000
0010
0100
0001
1000
0100
,
0010
0100
1000
0001
0010
0100
1000
0001
0100
0010
1000
0010
0100
0010
1000
0100
,
0010
0100
1000
0001
0010
0001
1000
0010
0100
0001
1000
0100
0010
0001
1000
0100
,
0010
0100
1000
0001
0100
0010
1000
0001
0010
0001
1000
0100
0010
0100
1000
0001
,
0010
0100
1000
0001
0100
0010
1000
0001
0010
0100
0010
0001
0100
0010
0100
0001
,
0100
0010
1000
0001
0010
0100
1000
0001
0010
0100
0010
0001
1000
0010
0100
0001
,
1000
0100
1000
0001
0010
0100
2000
3002
0023
0230
0320
0032
2003
3020
0230
0302
,
2003
3200
2300
3002
0023
0230
0320
0032
0203
0320
0230
0302
0203
0320
2030
3002
,
0023
0230
2300
3002
0023
0032
2003
3200
2300
3001
0100
0010
1000
0001
0010
0100
,
1000
0001
0010
0001
1000
0100
0010
0100
1000
0001
0100
0010
1000
0001
0010
0001
,
1000
0100
0010
0001
1000
0100
0010
0100
1000
0001
0100
0010
1000
0001
0010
0001
,
1000
0100
0010
0100
1000
0001
0010
0100
1000
0001
0100
0010
1000
0010
0100
0010
,
1000
0100
0010
0100
1000
0001
0010
0001
1000
0010
0100
0001
1000
0100
0010
0100
,
1000
0010
0100
0010
1000
0010
0100
0001
1000
0100
0010
0100
1000
0001
0100
0010
,
1000
0001
0010
0001
1000
0100
0010
0001
1000
0100
0010
0100
1000
0001
0100
0010
,
1000
0001
0010
0001
1000
0100
0010
0001
1000
0010
0100
0001
0100
0010
0100
0001
,
0010
0100
0010
0001
1000
0010
0100
0001
1000
0100
0010
0001
1000
0100
0010
0100
,
1000
0001
0010
0001
1000
0010
0100
0001
1000
0100
1000
0001
0010
0100
0010
0001
,
1000
0100
0010
0001
1000
0010
0100
0001
1000
0100
1000
0001
0010
0100
0010
0001
,
1000
0010
0100
0001
1000
0100
0010
0001
1000
0100
0010
0100
1000
0001
0010
0001
,
1000
0010
0100
0001
0000
1000
0100
1000
0001
0010
0100
0010
0001
1000
0100
0010
,
0001
1000
0010
0100
0001
1000
0100
0010
0100
1000
0010
0100
0010
1000
0010
0100
,
0001
1000
0100
0010
0001
1000
0100
0000
1000
0001
1000
0001
1000
0001
1000
0001
,
1000
0001
1000
0100
1000
0100
1000
0100
0001
0010
0001
0010
0001
0010
0001
1000
,
0001
1000
0001
1000
0002
0000
0000
0003
0110
0000
0000
0000
0000
0000
0000
0000
,
0000
0000
0000
0000
,
0000
0000
0000
0000
;
