#TITLE:New Process;
#SUBTITLE:;
#ARTIST:Akufen;
#TITLETRANSLIT:;
#SUBTITLETRANSLIT:;
#ARTISTTRANSLIT:;
#CREDIT:;
#BANNER:;
#BACKGROUND:;
#LYRICSPATH:;
#CDTITLE:;
#MUSIC:new process.ogg;
#OFFSET:-0.049;
#SAMPLESTART:46.118;
#SAMPLELENGTH:12.000;
#SELECTABLE:YES;
#BPMS:0.000=125.000;
#STOPS:;
#BGCHANGES:;
// cache tags:
#FIRSTBEAT:4.000;
#LASTBEAT:239.000;
#SONGFILENAME:Songs/toune 6/New Process/np.sm;
#HASMUSIC:1;
#HASBANNER:0;
#MUSICLENGTH:114.688;
// end cache tags

//---------------dance-single - Plz don't play... to----------------
#NOTES:
     dance-single:
     Plz don't play... to:
     Easy:
     3:
     0.381,0.417,0.584,0.140,0.000,223.000,67.000,16.000,0.000,0.000:






0000
0000
0000
0000
,
0000
0000
0000
0000
,
0001
0001
0001
0001
,
0001
0001
0001
0001
,
0010
1000
1000
1000
,
1000
1000
1000
1000
,
0010
0001
0001
0001
,
0001
0001
0001
0001
,
1000
0010
1000
0101
,
0001
0010
0001
1100
,
1000
0010
1000
0101
,
0001
0010
0001
1100
,
1000
0100
1000
0011
,
0001
0001
0001
1010
,
0011
0100
1000
0001
,
0100
0100
0100
0110
,
0010
0100
0001
0010
,
0100
1000
0010
1000
,
0001
0100
1000
1000
,
0100
0001
1001
0110
,
0001
0010
0100
0100
,
0010
0001
0200
0000
,
0310
1000
0100
0011
,
0100
0100
1000
1000
,
1010
1000
1100
1000
,
1010
1000
1100
1001
,
0101
0001
0011
0001
,
0101
0001
1001
1001
,
1010
1000
1100
1000
,
1010
1000
1001
1001
,
1001
0001
0011
0001
,
0101
0001
1001
0001
,
0001
0100
1000
0010
,
0001
1000
0100
0110
,
0110
0100
1000
0010
,
0100
0001
0010
0100
,
0110
0110
0110
0100
,
0110
0110
0110
0010
,
0011
0011
0011
0001
,
0011
0011
0011
0010
,
1100
1100
1100
1000
,
1100
1100
1100
0100
,
0110
0110
0110
0010
,
0011
1001
1100
1001
,
0001
0100
1000
0001
,
0010
1000
0001
0100
,
0001
1000
0100
0001
,
1000
0010
0001
1000
,
1000
2000
3001
0002
,
0103
0010
0110
0100
,
0001
0002
1003
2000
,
3100
0110
0110
0200
,
2300
3010
0200
0302
,
0023
0230
2300
0000
,
3002
0100
1000
0203
,
0010
0010
0301
1000
,
0110
0100
1010
0110
,
0001
0110
1100
1010
,
2002
0000
0000
0000
,
0000
0000
0000
3003
;

//---------------dance-single - Blank----------------
#NOTES:
     dance-single:
     Blank:
     Beginner:
     1:
     0.153,0.253,0.218,0.000,0.000,98.000,25.000,0.000,0.000,0.000:








0000
0000
0000
0000
,
1000
0000
0000
0000
,
0001
0000
0000
0000
,
1000
0000
0000
0000
,
0010
0000
0000
0000
,
0100
0000
0000
0000
,
0010
0010
0010
0000
,
0100
0100
0100
0000
,
1001
0000
0000
0000
,
0000
0000
0000
0000
,
1001
0000
0000
0000
,
0000
0000
0000
0000
,
0110
0000
0000
0000
,
0001
0001
0001
0000
,
0000
0000
0000
0000
,
0110
0000
0000
0100
,
0000
0100
0000
0010
,
0000
0110
0000
0100
,
0000
0000
0000
1000
,
1000
1000
1000
1000
,
0000
1001
0000
1001
,
0000
0010
0000
0000
,
0000
0000
0000
0100
,
0000
0110
0110
0110
,
0000
0000
0010
0010
,
0010
0000
0000
0000
,
0000
0000
0100
0100
,
0100
0000
0000
0000
,
0000
0000
1000
1000
,
1000
0000
0000
0000
,
0000
0000
0001
0001
,
0001
0000
0000
0000
,
0000
0110
0000
0110
,
0000
0110
0000
0110
,
0000
1001
0000
1001
,
0000
1001
0000
1001
,
0000
0000
0000
0000
,
0000
0000
1000
1000
,
1000
0000
0000
0000
,
0000
0000
0000
0001
,
0001
1001
0000
0000
,
0000
0000
0000
0000
,
0010
0010
0010
0000
,
0000
0000
0000
0000
,
0100
0000
0100
0000
,
0100
0000
0110
0000
,
0010
0000
0010
0000
,
0010
0000
0110
0000
,
1000
0000
0001
0000
,
1001
0000
0000
0000
,
0001
0000
1000
0000
,
1001
0000
0000
0000
,
0010
0000
0100
0000
,
0110
0000
0000
0000
,
1000
1000
1000
1000
,
1000
1000
1000
1000
,
1000
1000
1000
1000
,
1000
1000
1000
1000
,
1001
0000
0000
0000
;

//---------------dance-single - Imashoe----------------
#NOTES:
     dance-single:
     Imashoe:
     Hard:
     9:
     0.583,0.670,0.270,0.026,0.083,434.000,31.000,3.000,0.000,0.000:



0000
0000
0000
0000
,
0000
0000
0000
0000
,
1000
1000
0100
0010
0001
0001
0010
0100
,
1000
1000
0100
0010
0001
0001
0010
0100
,
1000
1000
0010
0100
0001
0001
0100
0010
,
1000
1000
0010
0100
0001
0001
0100
0010
,
1000
1000
0100
0010
0001
0001
0010
0100
,
1000
1000
0100
0010
0001
0001
0010
0100
,
1000
0100
0000
0000
0010
0000
0001
0100
0000
0000
0010
0000
0010
0000
0010
0000
,
1000
1000
0100
0010
0001
0001
0010
0100
,
1000
0100
0000
0000
0010
0000
0001
0100
0000
0000
0010
0000
0010
0000
0010
0000
,
1000
1000
0100
0010
0001
0001
0010
0100
,
1000
0100
0000
0010
0001
0000
0200
0000
0000
0300
0010
0000
1000
0000
0100
0000
,
0010
1000
0010
0100
0001
0100
0010
0100
,
1000
0000
0010
0000
0001
0000
1000
0100
1000
0100
0000
0001
0000
0000
0000
0000
,
1000
1000
1000
1000
0100
0010
0001
0001
,
0100
0000
0100
0000
0010
0000
1000
0000
0100
0010
0000
0100
0000
0000
0010
0000
,
0010
0001
0000
1000
0000
0000
0100
0000
0010
0000
0001
1000
0100
0000
0010
0000
,
0001
0000
0000
1000
0000
0000
0001
0000
0000
1000
0000
0000
0001
0000
0000
0000
0100
0000
0000
0000
0010
0000
0000
0000
0100
0000
0000
0000
0001
0000
0000
0000
,
1000
0100
0010
0100
1000
0001
0010
0100
,
1000
0010
1000
0010
0100
0001
1000
0000
,
0100
0010
0010
0001
0100
0010
0001
0010
,
0100
1000
0001
0010
1000
0100
0001
1000
,
0001
0000
0100
0000
1000
0000
1000
0001
1000
0001
1000
0000
1000
0000
1000
0000
,
1000
0010
0001
1000
0100
0001
0010
1000
,
0001
0100
1000
0010
0001
1000
0100
0001
,
0010
1000
0001
0100
1000
0010
0001
1000
,
0100
0001
0010
1000
0001
0100
1000
0010
,
0001
1000
0100
0001
0010
1000
0001
0100
,
1000
0010
0001
1000
0100
0001
0010
1000
,
0001
0100
1000
0010
0001
1000
0100
0001
,
0010
1000
0001
0100
1000
0010
0001
1000
,
0100
0001
0010
0001
0100
0010
1000
0100
,
1000
0001
0010
0001
0100
0010
0100
0001
,
0010
0001
1000
0100
1000
0010
0100
0010
,
1000
0001
0010
0001
1000
0010
1000
0001
,
1000
0010
0001
1000
0100
0001
0010
1000
,
0001
0100
1000
0010
0001
1000
0100
0001
,
0010
1000
0001
0100
1000
0010
0001
1000
,
0100
0001
0010
1000
0001
0100
1000
0010
,
0001
1000
0100
0001
0010
1000
0001
0100
,
1000
0010
0001
1000
0100
0001
0010
1000
,
0001
0100
1000
0010
0001
1000
0100
0001
,
0010
1000
0001
0100
1000
0010
0001
1000
,
0100
0001
0010
1000
0001
0100
1000
0010
,
0001
1000
0100
0001
0010
1000
0001
0100
,
1000
0010
0001
0100
1000
0010
0001
0100
,
1000
0010
0001
0100
1000
0010
0001
0100
,
1100
0000
0011
0000
,
1001
0000
0000
0000
0010
0010
0010
0010
,
1001
0000
0110
0000
,
1100
0000
0000
0000
0110
0110
0110
0110
,
0001
0001
0001
0001
1000
1000
1000
1000
,
1010
1010
1010
1010
0010
0010
0010
0100
,
0110
0010
0110
0010
0110
0010
0110
0010
,
1100
0100
0110
0001
0101
0010
1100
0001
,
0110
0001
1100
0001
0110
0001
1100
0001
,
0110
0001
1100
0001
0110
0001
1100
0001
,
0022
0000
0000
0000
,
0000
0033
0000
0000
0000
0000
0000
0000
;

//---------------dance-single - l1----------------
#NOTES:
     dance-single:
     l1:
     Challenge:
     10:
     0.584,0.797,0.000,0.296,0.554,435.000,0.000,34.000,21.000,0.000:







0000
0000
0000
0000
,
0000
0000
0000
0000
,
0000
0000
0000
0000
,
0000
0000
0000
0000
,
1000
1000
0000
0100
0000
0010
0000
0001
,
0100
0000
0000
0010
0000
0000
0000
0000
0001
0000
1000
0000
0000
0000
1000
0100
0000
0001
1000
0000
0000
0000
0000
0000
,
1000
1000
0000
0100
0000
0010
0000
0001
,
0100
0000
0000
0010
0000
0000
0000
0000
0001
0000
1000
0000
0000
0000
1000
0100
0000
0001
1000
0000
0000
0000
0000
0000
,
1000
1000
0000
0000
0100
0000
0001
0010
0000
0000
0000
0000
0001
0000
0100
0000
,
0100
0000
0100
0000
0000
0000
0000
0000
0000
0100
0000
0000
0000
0000
0000
0010
0000
0000
1000
0000
0000
1000
0000
0000
,
0001
0000
0000
0100
0000
0000
2000
0000
0000
0010
0000
0100
3000
0000
0000
1000
0000
0000
0010
0000
0000
0000
0000
0000
,
0100
0000
0100
0000
0000
0000
0000
0000
0000
0100
0000
0000
0000
0000
0000
0010
0000
0000
1000
0000
0000
1000
0000
0000
,
0100
0000
0100
0000
0000
0000
0020
0000
0000
0230
0000
0000
0310
0001
0010
0100
0000
0000
0010
0000
0000
0000
0000
0000
,
0010
1000
0010
0100
0001
0000
0100
0000
,
0010
0000
0000
0000
0100
0000
0010
0001
1000
0100
0000
1000
1000
0100
0000
0000
,
1000
0000
0010
0000
1000
0000
0001
0000
0100
0000
0001
0000
1000
0000
0100
0000
1000
0000
0001
0000
0000
0010
0000
0000
0100
0000
0000
0000
0010
0000
0010
0000
0000
0000
0000
0000
1000
0000
0000
0000
0000
0000
1000
0000
0000
0000
0000
0000
,
0001
0000
0000
0001
0000
0000
0100
0000
0000
0010
0000
0000
0001
0000
1000
0000
0000
0010
0000
0000
0001
0010
0000
0000
,
1000
0000
0000
0000
0010
0000
0001
0000
0000
0000
0010
0000
0000
0000
0000
0000
0000
0000
0100
0000
0000
0001
0000
0000
0000
0000
0000
0000
0000
0000
1000
0000
0000
1000
0000
0000
1000
0000
0000
0000
0000
0000
0100
0000
0000
0000
0000
0000
,
0010
0000
0000
0000
0000
0000
0000
0000
0000
0000
0000
0000
0000
0000
0000
0000
0000
0000
0000
0000
0000
0000
0000
0000
0001
0000
0000
0000
0000
0000
0000
0000
0000
0000
0000
0000
0000
0000
0000
0000
0000
0000
0000
0000
0000
0000
0000
0000
0200
0000
0000
0000
0000
0000
0000
0000
0000
0000
0000
0000
0000
0000
0000
0000
0000
0000
0300
0000
0000
0000
0000
0000
0010
0000
0000
0000
0000
0000
0000
0000
1000
0000
0000
0000
0000
0000
0000
0000
0010
0000
0000
0000
0000
0000
0000
0000
1000
0000
0000
0000
0000
0000
0000
0000
0010
0000
0000
0000
0000
0000
0000
0000
1000
0000
0000
0000
0000
0000
0000
0000
0010
0000
0000
0000
0000
0000
0000
0000
0000
0000
0000
0000
0000
0000
0000
0000
0001
0000
0000
0000
0000
0000
0000
0000
0000
0000
0000
0000
0000
0000
0000
0000
0000
0000
0000
0000
0000
0000
0000
0000
1000
0000
0000
0000
0000
0000
0000
0000
0100
0000
0000
0000
0000
0000
0000
0000
0000
0000
0000
0000
0000
0000
0000
0000
0001
0000
0000
0000
0000
0000
0000
0000
,
1000
0000
0010
0000
0100
0000
0002
0000
0013
0000
0100
0100
1000
0010
0001
0000
,
1000
0000
0100
0001
0000
0000
2000
0000
0000
0000
0000
0000
3001
0000
0000
0010
0000
0000
0200
0000
0000
0002
0000
0000
,
0300
0003
1000
0010
0000
0000
0001
1000
0100
1000
0001
0100
0000
0000
2000
0000
,
3001
0000
0000
0000
0010
0000
0001
0000
0000
0000
0010
0000
1000
0000
0000
0000
0001
0000
0100
0000
0000
0000
1000
0000
1000
0000
0000
1000
0000
0000
0200
0000
0000
0000
0000
0000
0320
0000
0000
0000
0000
0000
2030
0000
0000
0000
0000
0000
,
3100
0000
0000
0000
0010
0000
0000
0000
0000
0000
0000
0000
0001
0000
1000
0000
0100
0000
1000
0000
0100
0000
1000
0000
0100
0000
1000
0000
0000
0000
0100
0000
0000
1000
0000
0000
0000
0000
0000
0010
0000
0000
0001
0000
0000
0000
0000
0000
,
0010
0000
0000
0100
0000
1000
0000
0000
0000
0100
0000
0000
1000
0000
0000
0100
0000
0000
0001
0000
0000
0200
0000
0000
,
0000
0000
0000
0300
0000
0000
0010
0000
0000
0000
0000
0000
0000
0000
0000
0000
0000
0000
0100
0000
0001
0000
1000
0000
0100
0000
0000
0000
0000
0000
0000
0000
0000
0000
0000
0000
1000
0000
0000
0000
0000
0000
0001
0000
0000
0000
0000
0000
,
0100
0000
0000
0010
0000
0001
0000
0000
0000
0010
0000
0000
0001
0000
0000
0010
0000
0000
1000
0000
0000
0020
0000
0000
,
0000
0000
0000
0030
0000
0000
0100
0000
0000
0000
0000
0000
0000
0000
0000
0000
0000
0000
0010
0000
1000
0000
0001
0000
0010
0000
0000
0000
0000
0000
0000
0000
0000
0000
0000
0000
0001
0000
0000
0000
0000
0000
1000
0000
0000
0000
0000
0000
,
0010
0000
0000
0100
0000
1000
0000
0000
0000
0100
0000
0000
1000
0000
0000
0100
0000
0000
0001
0000
0000
0200
0000
0000
,
0000
0000
0000
0300
0000
0000
0010
0000
0000
0000
0000
0000
0000
0000
0000
0000
0000
0000
0100
0000
0001
0000
1000
0000
0100
0000
0000
0000
0000
0000
0000
0000
0000
0000
0000
0000
1000
0000
0000
0000
0000
0000
0001
0000
0000
0000
0000
0000
,
0100
0000
0000
0010
0000
0001
0000
0000
0000
0010
0000
0000
0001
0000
0000
0010
0000
0000
1000
0000
0000
0020
0000
0000
,
0000
0000
0000
0030
0000
0000
0100
0000
0000
0000
0000
0000
0000
0000
0000
0000
0000
0000
0010
0000
1000
0000
0001
0000
0010
0000
0000
0000
0000
0000
0000
0000
0000
0000
0000
0000
0001
0000
0000
0000
0000
0000
1000
0000
0000
0000
0000
0000
,
0000
0000
0100
0100
0010
0000
0100
0000
MM1M
0000
0000
0000
M1MM
0000
0000
0000
,
1MMM
0000
0000
0000
0000
MMM1
0000
0000
0000
0010
0000
0000
0100
0000
0000
0000
0000
0000
1000
0010
0000
0010
0000
0100
,
1000
0000
0000
0000
0000
0000
0001
0000
0000
0000
0000
0000
0000
0000
0020
0000
0000
0000
0000
0000
0030
0000
0020
0000
0000
0000
0000
0000
0030
0000
0100
0000
0000
1000
0000
0000
0001
0000
0000
0010
0000
0000
0000
0000
0000
0000
0000
0000
,
0010
0000
0000
0000
0000
0000
0100
0000
0000
1000
0000
0000
0000
0000
0000
0000
0000
0000
0100
0000
0000
0000
0000
0000
0001
0000
0000
0000
0000
0000
1000
0000
0000
0000
1000
0000
0000
0000
1000
0000
0000
0000
0001
0000
0000
0000
1000
0000
,
0010
0000
0000
0100
0000
1000
0000
0000
0000
0100
0000
0000
1000
0000
0000
0100
0000
0000
0001
0000
0000
0200
0000
0000
,
0000
0000
0000
0300
0000
0000
0010
0000
0000
0000
0000
0000
0000
0000
0000
0000
0000
0000
0100
0000
0001
0000
1000
0000
0100
0000
0000
0000
0000
0000
0000
0000
0000
0000
0000
0000
1000
0000
0000
0000
0000
0000
0001
0000
0000
0000
0000
0000
,
0100
0000
0000
0010
0000
0001
0000
0000
0000
0010
0000
0000
0001
0000
0000
0010
0000
0000
1000
0000
0000
0020
0000
0000
,
0000
0000
0000
0030
0000
0000
0100
0000
0000
0000
0000
0000
0000
0000
0000
0000
0000
0000
0010
0000
1000
0000
0001
0000
0010
0000
0000
0000
0000
0000
0000
0000
0000
0000
0000
0000
0001
0000
0000
0000
0000
0000
1000
0000
0000
0000
0000
0000
,
0010
0000
0000
0100
0000
1000
0000
0000
0000
0100
0000
0000
1000
0000
0000
0100
0000
0000
0001
0000
0000
0200
0000
0000
,
0000
0000
0000
0300
0000
0000
0010
0000
0000
0000
0000
0000
0000
0000
0000
0000
0000
0000
0100
0000
0001
0000
1000
0000
0100
0000
0000
0000
0000
0000
0000
0000
0000
0000
0000
0000
1000
0000
0000
0000
0000
0000
0001
0000
0000
0000
0000
0000
,
0100
0000
0000
0010
0000
0001
0000
0000
0000
0010
0000
0000
0001
0000
0000
0010
0000
0000
1000
0000
0000
0020
0000
0000
,
0000
0000
0000
0030
0000
0000
0100
0000
0000
0000
0000
0000
0000
0000
0000
0000
0000
0000
0010
0000
1000
0000
0001
0000
0010
0000
0000
0000
0000
0000
0000
0000
0000
0000
0000
0000
0001
0000
0000
0000
0000
0000
1000
0000
0000
0000
0000
0000
,
0010
0000
0000
0100
0000
1000
0000
0000
0000
0100
0000
0000
1000
0000
0000
0100
0000
0000
0001
0000
0000
0200
0000
0000
,
0000
0000
0000
0300
0000
0000
0010
0000
0000
0000
0000
0000
0000
0000
0000
0000
0000
0000
0100
0000
0001
0000
1000
0000
0100
0000
0000
0000
0000
0000
0000
0000
0000
0000
0000
0000
1000
0000
0000
0000
0000
0000
0001
0000
0000
0000
0000
0000
,
0100
0000
0000
0010
0000
0001
0000
0000
0000
0010
0000
0000
0001
0000
0000
0010
0000
0000
1000
0000
0000
0020
0000
0000
,
0000
0000
0000
0030
0000
0000
0100
0000
0000
0000
0000
0000
0000
0000
0000
0000
0000
0000
0010
0000
1000
0000
0001
0000
0010
0000
0000
0000
0000
0000
0000
0000
0000
0000
0000
0000
0001
0000
0000
0000
0000
0000
1000
0000
0000
0000
0000
0000
,
0001
0000
0000
0000
1000
0000
0000
0000
0000
0000
0000
0000
0100
0000
0010
0000
1000
0000
0000
0000
0001
0100
0000
0000
0000
0000
0000
0000
0010
0000
0100
0000
,
00M0
0000
0020
0000
0030
0020
0000
0030
0002
0000
0003
0000
0000
0000
0000
0000
,
1000
0000
0000
0000
0001
0000
0000
0000
0000
0000
0000
0000
0010
0000
0100
0000
0001
0000
0000
0000
1000
0010
0000
0000
0000
0000
0000
0000
0100
0000
0010
0000
,
0M00
0000
0200
0000
0300
0200
0000
0300
2000
0000
3000
0000
0000
0000
0000
0000
,
0001
0000
0000
0000
1000
0000
0000
0000
0000
0000
0000
0000
0100
0000
0010
0000
1000
0000
0000
0000
0001
0100
0000
0000
0000
0000
0000
0000
0010
0000
0100
0000
,
00M0
0000
0020
0000
0030
0020
0000
0030
0002
0000
0003
0000
0000
0000
0000
0000
,
1000
0000
0000
0100
0000
0000
0010
0000
0100
0010
0000
0100
0010
0000
0000
0010
0000
0000
1000
0000
0000
1000
0000
0000
,
0000
0000
0001
0000
0000
0000
0100
0000
0000
0000
0000
0000
0010
0000
0000
0010
0000
0000
0100
0000
0000
1000
0000
0000
MMMM
0000
0000
0000
0000
0000
0000
0000
0000
0000
0000
0000
0001
0000
0000
000M
0100
0000
0000
0000
0M00
0000
0010
0000
,
1000
0100
0010
0000
0010
0000
1000
0000
0010
0000
0100
0000
1000
0000
0001
0000
,
1000
0100
0010
0000
0010
0000
1000
0000
0010
0000
0100
0000
1000
0000
0001
0000
,
0020
0000
0000
0000
,
0030
0000
0000
0000
;

//---------------dance-single - Blank----------------
#NOTES:
     dance-single:
     Blank:
     Medium:
     6:
     0.503,0.437,0.000,0.017,0.000,402.000,0.000,2.000,0.000,0.000:

0000
0000
0000
0000
,
0000
0000
0000
0000
,
0001
1000
0001
1000
,
0001
0000
1000
0000
0010
0100
0010
1000
,
0001
1000
0001
1000
,
0001
0000
1000
0000
0100
0010
0100
1000
,
0001
1000
0001
1000
,
0001
0000
1000
0000
0010
0100
0010
1000
,
0001
0010
0001
1000
0001
0000
1000
0000
,
1000
0010
1000
0001
1000
0000
1000
0000
,
0001
0010
0001
1000
0001
0000
0001
0000
,
1000
0010
1000
0001
1000
0000
1000
0000
,
0001
0100
0001
1000
0100
0000
0100
0000
,
1000
1000
0010
0010
0100
0000
0100
0000
,
0001
0000
2000
0000
0100
0100
3100
0000
,
1000
0001
1000
0010
0100
0001
0010
0000
,
0100
1000
0100
0000
0010
0001
0010
0000
,
1000
0010
1000
0000
0001
0100
0001
0100
,
1000
0010
1000
0000
0001
0100
0001
0000
,
0010
0100
0010
0001
0100
0001
0100
0000
,
0010
1000
0000
1000
0100
1000
0001
0100
,
0010
1000
0001
0010
0100
0100
1000
0000
,
0001
0010
1000
0010
0001
0001
0001
0000
,
1000
0100
1000
0001
0100
0001
1000
0000
,
1000
0010
1000
0001
0010
0001
1000
0010
,
1000
0001
0010
0001
1000
0010
1000
1000
,
0001
0100
0001
1000
0100
1000
0001
0100
,
0001
1000
0100
1000
0001
0100
0001
0001
,
1000
0010
1000
0001
0010
0001
1000
0010
,
1000
0001
0010
0001
1000
0010
1000
1000
,
0001
0100
0001
1000
0100
1000
0001
0100
,
0001
1000
0100
1000
0010
0100
0001
0010
,
0100
1000
0100
1000
0100
0010
0100
0010
,
0001
0010
0100
1000
0001
0100
0010
0010
,
0100
0001
1000
0100
0010
0100
1000
0001
,
0100
0010
0100
0001
1000
0100
0010
0001
,
1000
0001
0100
0001
1000
0001
0100
0001
,
1000
0001
0100
0001
1000
0001
0100
0001
,
1000
0100
1000
0001
1000
0100
1000
0001
,
1000
0100
1000
0001
1000
0100
1000
0001
,
1000
0010
1000
0001
1000
0010
1000
1000
,
0001
0010
0001
1000
0001
0010
0001
0001
,
0100
0010
1000
0100
0010
0001
0100
0100
,
0010
0100
0001
0010
0100
1000
0010
0010
,
0100
0001
0010
0001
0100
0010
0100
0001
,
0010
0001
0100
0010
0100
0001
0010
0001
,
1000
0100
1000
0010
0100
0010
1000
0100
,
1000
0010
0100
0010
1000
0100
1000
0001
,
0100
0010
0100
0001
0010
0100
0000
0100
,
0010
0001
0100
0010
1000
0100
0010
0000
,
0010
0100
1000
0010
0100
0001
0000
0001
,
0010
0100
0010
0001
0100
0010
0100
0001
,
1000
0001
1000
0001
0100
0010
0100
0010
,
1000
0100
1000
0100
1000
0010
0100
0001
,
0010
0100
0010
0001
0010
0100
0010
0001
,
1000
0010
0100
0010
1000
0001
0001
0001
,
1000
1000
0001
0001
0100
0100
0010
0010
,
1000
1000
0001
0001
0100
0100
0010
0010
,
2000
0000
0000
0000
,
3000
0000
0000
0000
;
