#TITLE:Forever;
#SUBTITLE:;
#ARTIST:The Berzerker;
#TITLETRANSLIT:;
#SUBTITLETRANSLIT:;
#ARTISTTRANSLIT:;
#CREDIT:;
#BANNER:Forever.gif;
#BACKGROUND:Forever-bg.jpg;
#LYRICSPATH:;
#CDTITLE:;
#MUSIC:Forever.mp3;
#OFFSET:-0.426;
#SAMPLESTART:34.878;
#SAMPLELENGTH:12.000;
#SELECTABLE:YES;
#BPMS:0.000=194.946;
#STOPS:11.000=1.231
,15.000=1.231
,15.000=1.231
;
#BGCHANGES:;
// cache tags:
#FIRSTBEAT:19.000;
#LASTBEAT:212.250;
#SONGFILENAME:Songs/IzzySM Keyboard Mega Pack/Forever - The berzerker/forever.sm;
#HASMUSIC:1;
#HASBANNER:1;
#MUSICLENGTH:69.961;
// end cache tags

//---------------dance-single - ----------------
#NOTES:
     dance-single:
     :
     Challenge:
     12:
     1.000,1.000,0.972,0.272,1.000,478.000,68.000,19.000,0.000,1.000:
0000
0000
0000
0000
,
0000
0000
0000
0000
,
0000
0000
0000
0000
,
0000
0000
0000
0000
,
0000
0000
0000
0220
,
0000
0000
0000
0000
,
0000
0000
0000
0000
,
0000
0000
0000
0000
,
0000
0030
0300
0000
0000
0000
0000
0000
,
0000
0000
0000
0000
,
0000
0000
0000
0000
,
0000
0000
0000
0000
,
0000
0000
0000
1001
,
0200
0320
2030
3002
,
0203
0000
0000
0000
0320
0000
0000
0000
1030
0100
0010
0001
0010
0000
0000
0000
,
2000
3020
2030
3202
,
0000
0000
0303
0000
1000
1000
1000
0000
,
2000
3002
0203
0320
,
0030
0000
0000
0000
1000
0100
0010
0001
0010
0100
0010
0000
1000
0100
0010
0001
,
1000
0100
0010
0001
1000
0100
0010
0001
1000
0100
0010
0001
1000
0100
0010
0001
,
1000
0100
0010
0001
1000
0100
0010
0001
1000
0100
0010
0001
1001
0000
0000
0000
,
1000
0011
1000
0110
0001
1001
0100
0101
,
0110
0000
1000
0000
0101
0000
0001
0000
1000
0100
0010
0001
0100
0000
0001
0000
,
1100
0010
0101
1000
0110
0001
1100
0001
,
0101
0000
0010
0000
1010
0000
0001
0000
0001
0010
0100
1000
0001
0000
0100
0000
,
0001
0010
1000
0100
0001
1001
0100
0110
,
1000
0000
0001
0000
0101
0000
0010
0000
0001
0010
0100
1000
0001
1000
0001
1000
,
0001
1000
0001
1000
0001
1000
0001
1000
0001
1000
0001
1000
0001
1000
0001
1000
,
0001
1000
0100
0010
0001
1000
0100
0010
0001
1000
0100
0010
0001
0001
0010
0001
,
0010
1000
0100
0010
0001
1000
0100
1000
0100
0001
0010
0100
1000
0001
0010
0100
,
1000
0001
0010
0100
1000
0001
0010
0001
0010
1000
0100
0010
0001
0010
0001
0010
,
0001
1000
0100
0010
1001
0100
0010
1001
0100
0010
0001
0100
0001
1000
0010
0001
,
1000
0100
0010
0001
0100
0010
1000
0100
0001
0010
0100
0001
1000
0010
0100
1000
,
0010
0001
0100
0001
1000
0010
0100
0001
0010
0100
0010
1000
0010
0001
0100
1000
,
0001
1000
0010
0100
0001
1000
0010
0100
0001
1000
0010
0100
0001
1000
0001
0100
,
0010
1000
0100
1000
0100
1000
0100
1000
0001
0100
0010
0001
1000
0100
0001
1000
,
0100
0000
0001
0000
0000
0000
1000
0000
0100
0000
0001
0000
0010
0000
1000
0000
1000
0100
0010
0001
1000
0100
0010
0001
1000
0000
1001
0000
0000
0000
0101
0000
,
0000
1010
0000
0101
0000
0101
0000
0101
0000
1010
0000
1010
0000
1010
0000
0110
,
0000
0110
0000
0110
0000
0101
0000
0101
0000
0101
0000
1001
0000
1001
0000
0110
,
0000
1001
0000
1010
0000
0101
0000
1010
0000
0110
0000
1001
0000
0101
0000
1010
,
0000
1001
0000
0011
1000
0100
0010
0001
0000
1001
0000
0101
0000
0101
0000
1100
,
0000
0101
0000
1010
0000
0101
0000
1010
0000
1010
0000
0101
0000
0110
0000
1010
,
0000
0101
0000
1010
0000
0101
0000
0011
0000
0101
0000
0000
1000
0010
0100
0001
,
1000
0100
0010
1000
0001
0100
0010
0001
1000
0100
0001
0100
1000
0001
0100
1000
,
0001
0100
0010
1000
0001
0010
1000
0100
0001
1000
0100
0011
0100
1000
0001
0100
,
0001
0100
0010
1000
0001
0010
0100
0001
1000
0100
0010
0001
1000
0100
0010
0001
,
1000
0100
0010
0001
1000
0100
0010
0001
0010
0001
0010
0001
0010
0001
0010
0001
,
0010
0001
0010
0001
0010
0100
0010
0100
0010
0100
0010
0100
0010
0100
1000
0100
,
1000
0100
1000
0100
1000
0100
1000
0100
1000
0100
1000
0100
0010
0100
0010
0100
,
0010
0100
0010
0001
1000
0001
1000
0001
1000
0001
1000
0001
1000
0001
1000
0001
,
1000
0001
0100
0010
1000
0001
0010
0100
1000
0010
0001
0100
0010
0001
1000
0100
,
0001
0010
1000
0001
0100
0001
1000
0100
0001
0100
0010
1000
0010
0100
0001
1000
,
2002
0000
0000
0000
,
0000
3003
0000
0000
0000
0000
0000
0000
0000
0000
0000
0000
0000
0000
0000
0000
;
