#TITLE:Monstermania;
#SUBTITLE:;
#ARTIST:Roachman;
#TITLETRANSLIT:;
#SUBTITLETRANSLIT:;
#ARTISTTRANSLIT:;
#CREDIT:ChaosUnown;
#BANNER:monstermania-bn.png;
#BACKGROUND:monstermania.png;
#LYRICSPATH:;
#CDTITLE:chaosunownCD.png;
#MUSIC:monstermania.ogg;
#OFFSET:0.011;
#SAMPLESTART:44.000;
#SAMPLELENGTH:12.000;
#SELECTABLE:YES;
#DISPLAYBPM:60.000:120.000;
#BPMS:0.000=120.000,77.750=180.000,79.500=120.000,189.250=180.000,191.500=120.000,192.000=60.000;
#STOPS:77.750=0.083
,78.250=0.084
,78.750=0.083
,79.250=0.042
,189.250=0.083
,189.750=0.084
,190.250=0.083
,190.750=0.083
,191.250=0.042
;
#BGCHANGES:;
// cache tags:
#FIRSTBEAT:32.000;
#LASTBEAT:200.000;
#SONGFILENAME:Songs/Omnifarious/(ChaosUnown) Monstermania/monstermania.sm;
#HASMUSIC:1;
#HASBANNER:1;
#MUSICLENGTH:106.475;
// end cache tags

//---------------dance-single - P. Mason----------------
#NOTES:
     dance-single:
     P. Mason:
     Challenge:
     10:
     0.637,0.728,0.338,0.291,0.864,407.000,36.000,31.000,27.000,0.000:



0000
0000
0000
0000
,
0000
0000
0000
0000
,
0000
0000
0000
0000
,
0000
0000
0000
0000
,
0000
0000
0000
0000
,
0000
0000
0000
0000
,
0000
0000
0000
0000
,
0000
0000
0000
0000
,
1MM0
0001
0000
0000
0101
0000
0000
0100
0010
0100
0001
1000
0100
0000
0010
0001
,
1000
0010
1000
0000
0001
0001
0000
0001
0000
0001
0100
0010
1000
0000
0001
0010
,
0001
1000
0000
0000
1100
0000
0000
0100
0010
0001
1000
0010
0100
0000
0001
1000
,
0001
1000
0010
0000
0100
0100
0001
1000
0000
0010
1000
0001
0100
0001
0020
0000
,
0130
1000
0000
0000
1001
0000
0000
0001
0100
0100
0010
1000
0001
0000
0010
0100
,
0010
0100
1000
0000
0004
0000
1003
0010
0000
0010
0010
0100
0001
0000
1000
0100
,
1000
0001
0000
0000
0011
0000
0000
0010
0100
1000
0001
0100
0010
0000
1000
0010
,
1000
0010
0100
0000
0001
1000
0000
1010
0000
1010
0000
1010
0000
0010
0100
0000
,
M0M2
0000
1003
0000
1100
0000
0100
0010
0001
1000
0001
0100
0010
0000
1000
0001
,
0020
0000
0031
0000
1001
0000
1000
0010
1000
0010
0100
0001
0010
0000
0100
0100
,
2000
0000
3010
0000
0110
0000
0100
0001
0100
0001
1000
0100
0010
0000
0001
1000
,
0020
0000
0130
0000
0101
0000
0001
1000
0000
1100
0000
1100
0000
0100
0010
0000
,
0002
0000
1003
0000
1010
0000
0010
0100
0010
0100
0001
1000
0100
0000
0010
0001
,
2000
0000
3010
0000
0110
0000
0100
0001
0100
0001
1000
0001
0010
0000
0100
0100
,
2000
0000
3001
0000
0101
0000
0100
0010
0100
0010
1000
0001
0010
0000
0100
1000
,
0002
0000
0000
0000
0103
0000
0000
0000
0040
0000
0000
0000
1030
0001
1000
0000
0100
0000
1000
0000
0001
0000
0100
0010
0100
0000
0001
0000
1000
0000
0001
0000
,
MM10
0000
0010
0000
0010
0000
0010
0100
0010
0100
0000
1000
0000
1000
0000
1000
,
0001
0000
0001
0000
0001
0000
0100
0010
0100
0001
1000
0100
0010
0010
0001
1000
,
0010
0000
0010
0000
0010
0000
0010
0100
0010
0100
0000
0001
0000
0001
0000
0001
,
1000
0010
1000
0000
0100
0000
0100
0000
0010
0001
0010
0001
1000
1000
0010
0100
,
0001
0000
0001
0000
0001
0000
0001
1000
0001
1000
0000
0100
0000
0100
0000
0100
,
0010
0000
0010
0000
0010
0000
0001
1000
0010
0100
0001
0010
0100
0100
1000
0001
,
0100
0000
0100
0000
0100
0000
0100
0010
0100
0010
0000
1000
0000
1000
0000
1000
,
0100
0000
1000
0000
0001
0000
0000
0000
0010
0000
0000
0000
0010
0000
0000
0000
0001
0000
1000
0000
0000
0000
0010
1000
0010
0000
0100
0000
0001
0000
0100
0000
,
M02M
0000
0030
0000
2000
0000
3000
1000
0000
0000
2000
0000
3000
1000
0000
0000
,
0000
0000
0000
0000
0100
0100
0000
0100
0000
0100
0200
0000
0300
0100
0000
0000
,
0000
0000
0000
0000
0020
0000
0030
0010
0000
0000
0020
0000
0030
0010
0000
0000
,
000M
0000
0000
0000
0100
0100
0000
0100
0000
0100
0200
0000
0300
0100
0000
0000
,
0000
0000
0000
0000
2000
0000
3000
1000
0000
0000
2000
0000
3000
1000
0000
0000
,
0M00
0000
0000
0000
0001
0001
0000
0001
0000
0001
0002
0000
0003
0001
0000
0000
,
00M0
00M0
00M0
00M0
0000
0000
0000
0000
0200
0000
0000
0000
0300
0000
0100
0000
0000
0000
0000
0000
0200
0000
0000
0000
0300
0000
0100
0000
0000
0000
0000
0000
,
0110
0000
0000
0110
0000
0000
0110
0000
0000
0001
1000
0100
0100
2000
0000
0000
,
3MM1
0100
0010
0000
1010
0000
1000
0001
4000
0000
3100
0010
0001
0000
1000
0010
,
0100
0000
0000
0000
0001
0000
0000
0000
1001
0000
0000
0000
1000
0000
0100
1000
0100
1000
0100
0000
0010
0000
0000
0000
0001
0000
0100
0000
0000
0000
0100
0000
,
0020
0000
1030
0000
1100
0000
0100
0010
0100
0010
0001
1000
0040
0000
0130
0001
,
2000
0000
3100
0000
0110
0000
0010
0001
4000
0040
0000
0000
0000
0000
0000
3000
,
0230
0000
0301
0000
1001
0000
1000
0100
0040
0000
0031
1000
0010
0000
0100
0001
,
2000
0000
0000
0000
3100
0000
0000
0000
0110
0000
0000
0000
0010
0000
0001
0000
1000
0001
1000
0001
1000
0000
0010
0000
0100
0000
0000
0000
0001
0000
0001
0000
,
0020
0000
0130
0000
1100
0000
1000
0001
0400
0000
0310
1000
0001
0010
0000
0010
,
M10M
0000
0010
0000
0001
1000
0000
1010
0000
1010
0000
1010
0000
0010
0100
0000
,
M0M2
0000
0M23
0000
,
0M32
0000
0000
0000
0000
0000
0000
0000
0000
0000
0000
0000
0000
0000
0000
0000
0M23
0000
0000
0000
0000
0000
M000
M000
0000
M000
M000
0000
0000
0000
0000
0000
,
0030
0000
0000
0000
;
