#TITLE:Conjuring the thoughts;
#SUBTITLE:;
#ARTIST:Skyfire;
#TITLETRANSLIT:;
#SUBTITLETRANSLIT:;
#ARTISTTRANSLIT:;
#CREDIT:;
#BANNER:banner.png;
#BACKGROUND:bgbg.png;
#LYRICSPATH:;
#CDTITLE:!ZyrreTitle.png;
#MUSIC:01_skyfire-conjuring_the_thoughts.ogg;
#OFFSET:0.300;
#SAMPLESTART:40.000;
#SAMPLELENGTH:11.980;
#SELECTABLE:YES;
#BPMS:0.000=100.100,36.000=200.200,68.000=100.100,72.000=200.200,104.000=100.100,108.000=200.200,172.000=100.100,220.000=200.200;
#STOPS:;
#BGCHANGES:;
// cache tags:
#FIRSTBEAT:4.000;
#LASTBEAT:287.125;
#SONGFILENAME:Songs/Bemani.se Megapack/(Zyrre) Conjuring the thoughts/conjuring.sm;
#HASMUSIC:1;
#HASBANNER:1;
#MUSICLENGTH:113.576;
// end cache tags

//---------------dance-single - Blank----------------
#NOTES:
     dance-single:
     Blank:
     Challenge:
     11:
     1.000,1.000,1.000,0.634,1.000,671.000,133.000,72.000,0.000,2.000:

0000
0000
0000
0000
,
1001
0000
0001
0000
0010
0000
0100
0000
1000
0000
0010
0000
0100
0000
0001
0010
0001
0000
0100
0000
0010
0000
0100
0000
0001
0000
0200
0000
0000
0000
0000
0000
,
0311
0000
0000
0000
0101
0000
0000
0000
0000
0000
1010
0000
0000
0000
0010
0100
0002
0000
0000
0000
0010
0000
0103
0000
2000
0000
0000
0000
3000
0000
0001
0100
,
0101
0000
0000
0000
1010
0000
0010
0000
0100
0000
0001
0000
0100
0000
1000
0100
1100
0000
0000
0000
0110
0000
0000
0000
0101
0000
0010
0100
0010
0000
0100
0000
,
1100
0000
0000
0000
0101
0000
0010
0000
1000
0000
0001
0000
0010
0000
0100
1000
0200
0000
0000
0300
0002
0000
0020
0003
0200
0030
0000
0300
0000
0000
0010
0100
,
1001
0000
0000
0000
0000
0000
0000
0000
0000
0000
0000
0000
0000
0000
0000
0000
0000
0000
0000
0000
0000
0000
0000
0000
0011
0000
0000
0000
0000
0000
0000
0000
0000
0000
0000
0000
0000
0000
0000
0000
0000
0000
0000
0000
0000
0000
0000
0000
0000
0000
0000
0000
0000
0000
0000
0000
0000
0000
0000
0000
0110
0000
0000
0000
0000
0000
0000
0000
0000
0000
0000
0000
0000
0000
0000
0000
0000
0000
0000
0000
0000
0000
0000
0000
0001
0000
0000
0000
0000
0000
0010
0000
0000
0000
0000
0000
0001
0000
0000
0000
0000
0000
0000
0000
0010
0000
0000
0000
0000
0000
0000
0000
0100
0000
0000
0000
0000
0000
0000
0000
1000
0000
0000
0000
0000
0000
0000
0000
0100
0000
0000
0000
0000
0000
0000
0000
0010
0000
0000
0000
0000
0000
0000
0000
0001
0000
0000
0000
0000
0000
0000
0000
1000
0000
0000
0000
0000
0000
0000
0000
0100
0000
0000
0000
0000
0000
0000
0000
0010
0000
0000
0000
0000
0000
0000
0000
0100
0000
0000
0000
0000
0000
0000
0000
1000
0000
0000
0000
0000
0000
0000
0000
,
0110
0000
0000
0000
1100
0000
0000
0000
0000
0000
0110
0000
0000
0000
0010
1000
0200
0000
0000
0300
0002
0000
2000
0003
0200
3000
0000
0300
0000
0000
1000
0100
,
0011
0000
0000
0000
1100
0000
0010
0000
0100
0000
0001
0000
1000
0000
0100
0010
0001
0000
1000
0000
0010
0000
0100
0000
0010
0000
0100
0000
0001
0000
0010
0100
,
1100
0000
0000
0000
1100
0000
0010
0000
0100
0000
1000
0000
0100
0000
0010
0100
0020
0000
0000
0000
2030
0000
3002
0000
0023
0000
0030
0000
0000
0000
0000
0000
,
0011
0010
0110
0100
1100
1000
1001
1000
,
1010
0000
0010
0000
0110
0000
0100
0000
0101
0000
0100
0010
0100
0000
0010
0000
,
1010
1000
1100
0100
0110
0010
0011
0010
,
0110
0000
0100
0000
1100
0000
1000
0000
1001
0000
0001
0100
0001
0000
0100
0000
,
0001
0010
0100
1000
0001
0010
0100
1000
0010
0100
0001
0100
0010
1000
0100
0010
,
0001
0010
0100
1000
0100
0010
0100
1000
0010
0100
0010
1000
0010
0100
0001
0010
,
0100
0010
0100
0010
0100
1000
0010
0100
0010
0100
0001
0100
0010
1000
0001
1000
,
0001
0010
0100
0010
0001
0100
0010
1000
0010
0100
0001
0100
0010
1000
0100
0010
,
1001
0000
0000
0000
0100
0000
1100
0000
0000
0000
0010
0000
0011
0000
0000
0000
0100
0000
1000
0100
1000
0000
0100
0000
1000
0000
1000
0000
1000
0000
1000
0000
,
1001
0001
0011
0010
0110
0100
1100
0100
,
0110
0000
0010
0000
0011
0000
0001
0000
1001
0000
0001
0100
0001
0000
0100
0000
,
0110
0010
1010
1000
1100
0100
0110
0010
,
0011
0000
0001
0000
1001
0000
1000
0000
1010
0000
0010
0100
0010
0000
0100
0000
,
0001
0010
0001
0010
0001
0010
0100
0010
0100
1000
0010
0100
0010
1000
0010
0100
,
0001
0010
0100
1000
0100
0010
0100
0010
0100
1000
0100
0010
0100
0010
0001
0010
,
0001
0010
0001
0010
0100
1000
0100
1000
0100
0010
0100
0010
0100
0010
0001
0010
,
0001
0010
0100
1000
0001
0010
0100
1000
0010
0100
0010
1000
0010
0100
0001
0010
,
0101
0000
0000
0000
0010
0000
0110
0000
0000
0000
1000
0000
1001
0000
0000
0000
0001
0000
0010
0100
1000
0000
0010
0000
0100
0000
0100
0000
0100
0000
0100
0000
,
0011
0011
0000
1100
1100
0000
0110
0101
,
0000
1010
1100
0000
2000
3200
0320
0030
,
1010
0101
0000
0101
0011
0000
1010
0011
,
0000
0000
0000
0011
0000
0000
1100
0000
0000
0000
0001
0000
0010
0000
0001
0000
0010
0000
0002
0000
0000
0000
0003
0000
,
0110
0110
0000
0101
0101
0000
1010
0110
,
0000
0101
1100
0000
2000
3020
0230
0300
,
0010
1000
0010
1000
0010
1000
0010
0100
0010
0100
0010
0100
0001
0100
0001
0100
,
0001
0010
0100
0010
0001
1000
0200
0300
,
0101
1001
0000
1001
1010
0000
1010
1100
,
0000
1100
0101
0000
0200
0302
0023
0030
,
0011
0011
0000
1100
1100
0000
0110
0110
,
0000
0000
0000
1001
0000
0000
1001
0000
0000
0000
1000
0000
0100
0000
1000
0000
0100
0000
2000
0000
0000
0000
3000
0000
,
0011
0101
0000
1010
1100
0000
0101
0011
,
0000
0000
0000
1100
0000
0000
1010
0000
0000
0000
0010
0000
0100
0000
0010
0000
0100
0000
0020
0000
0000
0000
0030
0000
,
1000
0010
0100
0001
0100
0010
1000
0100
0010
0001
0010
0001
0010
0100
0010
0100
,
1000
0010
0100
0010
1000
0010
0200
0300
,
2020
0000
3030
0202
0000
0303
0220
0000
0030
1000
0300
0000
0001
0000
1000
0100
,
0022
0000
0033
0220
0000
0330
2200
0000
3000
0001
0300
0000
0100
0000
0010
0100
,
0101
0000
0000
0010
0110
0000
0100
0000
0000
1000
0000
0010
0101
0000
0010
1000
,
1100
0000
0000
0000
0000
0000
0100
0000
0110
0000
0000
0000
0001
0000
0000
0000
0000
0000
0100
0000
0000
0000
0010
0100
0101
0000
0000
0000
0000
0000
0000
0000
,
1000
0010
0001
0010
1000
0100
1000
0100
2000
0010
0001
0010
0100
0010
0001
3010
,
1000
0000
0100
0000
0010
0000
0001
0000
0010
0000
0100
0000
0010
0000
0100
0000
2000
0000
0000
0000
0010
0000
3100
0000
0001
0000
0000
0000
0000
0000
0010
1000
,
1100
0000
0000
0000
0000
0000
0000
0000
0000
0000
0000
0000
0000
0000
0000
0000
0000
0000
0000
0000
0000
0000
0000
0000
1100
0000
0000
0000
0000
0000
0000
0000
0000
0000
0000
0000
0000
0000
0000
0000
0000
0000
0000
0000
0000
0000
0000
0000
0000
0000
0000
0000
0000
0000
0000
0000
0000
0000
0000
0000
0110
0000
0000
0000
0000
0000
0000
0000
0000
0000
0000
0000
0000
0000
0000
0000
0000
0000
0000
0000
0000
0000
0000
0000
1000
0000
0000
0000
0000
0000
0010
0000
0000
0000
0000
0000
0100
0000
0000
0000
0000
0000
0000
0000
0000
0000
0000
0000
0000
0000
0000
0000
0001
0000
0000
0000
0000
0000
0000
0000
0000
0000
0000
0000
0000
0000
0000
0000
1000
0000
0000
0000
0000
0000
0000
0000
0000
0000
0000
0000
0000
0000
0000
0000
0001
0000
0000
0000
0000
0000
0000
0000
0000
0000
0000
0000
0000
0000
0000
0000
1000
0000
0000
0000
0000
0000
0000
0000
0000
0000
0000
0000
0000
0000
0000
0000
0001
0000
0000
0000
0000
0000
0000
0000
0000
0000
0000
0000
0000
0000
0000
0000
,
1010
0000
0000
0000
1001
0000
0000
0000
0000
0000
0011
0000
0000
0000
1000
0100
0020
0000
0000
0000
0032
0000
0203
0000
2300
0000
3000
0000
0000
0000
0000
0000
,
1000
0010
0100
0010
0100
0010
0100
0010
0002
1000
0010
1000
0010
1000
0010
0103
,
1001
0000
0000
0000
0110
0000
0000
0000
0000
0000
1010
0000
0000
0000
0001
0010
0002
0000
0000
0000
1000
0000
0103
0000
0020
0000
0000
0000
0030
0000
0000
0000
,
1000
0010
1000
0100
0010
0001
0010
0100
2000
0100
0001
0100
0010
0100
0001
3100
,
0001
0010
0100
0010
0001
0010
0100
1000
0200
0000
0001
0310
0002
0000
0003
0000
,
0001
0010
0001
0010
0100
1000
0100
0000
,
0001
0000
0010
0000
0001
0000
0010
0000
0000
0000
1000
0000
0001
0010
0001
0000
,
2000
0000
0000
0000
0000
3000
0000
0000
,
0001
0010
0100
1000
0001
0010
0100
1000
,
0010
1000
0001
0001
0001
0002
0000
0000
,
0003
0000
1000
1000
0200
0000
0300
0000
,
0022
0000
0000
0033
,
2000
0000
0100
3020
0000
0100
2030
0000
,
3000
0000
0010
0000
0000
0100
0000
0000
,
1000
0000
0010
0000
0100
0000
0010
0000
0000
0000
1000
0000
0010
0100
0010
0000
,
0002
0000
0000
0003
,
1000
1000
1000
1000
0100
0100
0100
0100
,
0011
0011
0110
0110
1100
1100
2200
0000
,
0000
0000
3302
0023
0230
0300
0000
0000
,
0022
0000
0000
0000
0000
0000
0000
0000
0000
0000
0033
0000
0100
1000
0100
1000
,
0200
0000
0301
0200
0000
0301
0200
0000
,
0000
0000
0300
0000
0000
0000
0000
0000
0000
0000
0000
0000
0000
0000
0000
0000
0000
1000
0000
0100
0000
1000
0000
0100
0000
1000
0000
0000
0000
0000
0000
0000
;
