#TITLE:Fly high;
#SUBTITLE:;
#ARTIST:浜崎あゆみ;
#TITLETRANSLIT:;
#SUBTITLETRANSLIT:;
#ARTISTTRANSLIT:Ayumi Hamasaki;
#CREDIT:Banner and Background by Monica @ AH.Net;
#BANNER:Flyhighbanner.png;
#BACKGROUND:Flyhighbackground2.png;
#LYRICSPATH:Fly high.lrc;
#CDTITLE:;
#MUSIC:Ayumi Hamasaki - Fly high (Long Version).mp3;
#OFFSET:-0.060;
#SAMPLESTART:142.380;
#SAMPLELENGTH:16.000;
#SELECTABLE:YES;
#BPMS:0.000=139.630,160.000=133.000,164.000=133.570,356.000=133.650;
#STOPS:;
#BGCHANGES:;
// cache tags:
#FIRSTBEAT:8.000;
#LASTBEAT:684.000;
#SONGFILENAME:Songs/toune/Fly high/Ayumi Hamasaki - Fly high (Long Version).sm;
#HASMUSIC:1;
#HASBANNER:1;
#MUSICLENGTH:315.802;
// end cache tags

//---------------dance-single - ----------------
#NOTES:
     dance-single:
     :
     Easy:
     3:
     0.203,0.352,0.146,0.073,0.000,379.000,46.000,23.000,0.000,0.000:
0000
0000
0000
0000
,
0000
0000
0000
0000
,
0000
0000
0000
0000
,
0000
0000
0000
0000
,
0000
0000
0000
0000
,
0000
0000
0000
0000
,
0000
0000
0000
0000
,
0000
0000
0000
0000
,
1000
0000
1000
0000
,
0010
0000
0100
0000
,
0001
0000
1000
0000
,
0010
0000
0100
0000
,
1000
0000
0100
0000
,
0010
0000
0001
0000
,
1000
0000
0100
0000
,
0100
0000
1000
0000
,
0010
0000
0001
0000
,
0001
0000
0010
0000
,
0100
0000
1000
0000
,
0100
0000
1000
0000
,
0010
0000
0100
0000
,
0001
0000
0100
0000
,
1000
0000
0010
0000
,
0100
0000
0001
0000
,
1000
1000
1000
0000
,
0100
0100
0100
0000
,
0010
0010
0010
0000
,
0001
0001
0001
0000
,
0001
0100
0001
0000
,
0010
1000
0010
0000
,
0100
0001
1000
0000
,
0010
1000
0001
0000
,
1000
0001
1001
0000
,
0001
1000
1001
0000
,
0010
0100
0110
0000
,
0100
0010
0110
0000
,
1000
0100
1100
0000
,
0010
0001
0011
0000
,
0001
1000
0010
0100
,
1000
0001
0010
0100
,
1001
0200
0000
0300
,
0020
0000
0000
0030
,
2000
3000
0002
0000
,
0000
0000
0003
0000
,
1000
0100
1000
0000
,
0001
0010
0001
0000
,
0100
0010
0100
0000
,
2002
0000
0000
0000
,
3003
0010
0100
0010
,
1001
1000
0100
0010
,
1000
0000
0001
0010
,
0100
0000
1000
0000
,
1000
0000
1000
0000
,
0100
0000
0100
0000
,
0010
0000
0010
0000
,
0001
0001
0002
0003
,
0000
0000
0000
0000
,
0000
0100
0000
1000
,
0000
0001
0000
0100
,
0000
0010
0000
0010
,
0000
1000
0000
0001
,
0000
0100
0000
0010
,
0000
1000
0000
0100
,
0110
0000
0000
0000
,
0000
1000
0000
0100
,
0000
0010
0000
0100
,
0000
1000
0000
1000
,
0000
0001
0000
0010
,
0000
0001
0000
0001
,
0000
0010
0000
0100
,
0000
0000
0000
0010
,
0110
0000
0000
0000
,
0000
1000
0100
1000
,
0000
0100
1000
0100
,
0000
0001
0010
0001
,
0000
0010
0001
0010
,
0000
1000
0001
1000
,
0000
0001
1000
0001
,
0000
0010
0100
0010
,
0000
0100
0010
0100
,
0000
0110
0000
1001
,
0200
0000
0000
0300
,
0020
0000
0000
0030
,
2000
3000
0002
0000
,
0003
0000
1001
0000
,
1000
0001
1000
0000
,
0001
0010
0010
0000
,
1000
0100
0100
0000
,
1000
0100
0010
0000
,
0001
0010
0100
0001
,
1000
0000
0110
0000
,
0110
0000
1000
0000
,
0100
0100
0010
0000
,
0010
0010
0100
0000
,
1000
1000
0100
0000
,
0010
0010
0001
0000
,
0100
0010
0100
0010
,
1001
0000
0000
0000
,
0000
0100
0000
1000
,
0000
0010
0000
0001
,
0000
0110
0000
0110
,
0000
1001
0000
1001
,
0000
0100
0000
1000
,
0000
1100
0000
1100
,
1000
0000
0000
0000
,
1000
0100
0000
0010
,
0001
0000
0010
0100
,
0000
0010
0100
0000
,
1000
0010
0000
0100
,
0001
1000
0000
1000
,
0000
0100
0000
0010
,
0000
1000
0000
0100
,
0000
0001
0000
0100
,
0000
0010
0000
0000
,
2000
0000
0000
3000
,
0200
0000
0000
0300
,
0020
0030
0002
0000
,
0000
0000
0003
0000
,
1000
0100
0010
0000
,
0010
0100
0100
0000
,
0100
0100
0010
0000
,
0001
0010
0100
0000
,
0110
1001
1001
0000
,
1001
1001
0110
0000
,
2000
3000
0002
0000
,
0000
0003
0000
0000
,
0001
0010
0100
0000
,
1000
0001
0100
0000
,
0010
1000
0100
0000
,
0001
0010
0001
0000
,
1000
0100
1000
0000
,
0010
0100
0010
0000
,
1000
0001
1000
0000
,
0100
0010
1001
1001
,
1000
0000
0100
0000
,
0010
0000
0010
0000
,
1000
0000
0100
0000
,
0010
0000
0100
0000
,
0001
0000
0001
0000
,
1000
0000
1000
0000
,
0010
0000
0100
0000
,
1000
0000
0001
0000
,
0010
0000
0100
0000
,
1000
0000
0100
0000
,
0010
0000
0010
0000
,
0100
0000
0100
0000
,
1000
0000
1000
0000
,
0110
1001
1001
0000
,
0110
0000
0110
0000
,
0200
0300
0020
0000
,
0000
0000
0030
0000
,
1000
0010
0100
0000
,
0010
0100
0001
0000
,
0010
1000
0001
0010
,
0100
1000
1001
0000
,
1100
0000
1100
0000
,
0011
0000
0011
0000
,
2002
3003
0220
0000
,
0000
0000
0330
0000
,
0010
0100
0010
0000
,
1000
0001
1000
0000
,
0100
0010
0100
0000
,
0001
1000
0001
0100
,
0000
1000
0000
0001
,
0000
0010
0000
0001
,
0000
0100
0000
0001
,
0000
0100
0000
1000
,
0000
0010
0000
1000
,
0000
0100
0000
0001
,
0000
0010
0000
0100
,
0000
0000
1000
0000
0000
0000
1001
0110
,
0110
0000
0000
0000
;

//---------------dance-single - ----------------
#NOTES:
     dance-single:
     :
     Beginner:
     1:
     0.096,0.190,0.066,0.025,0.000,183.000,21.000,8.000,0.000,0.000:
0000
0000
0000
0000
,
0000
0000
0000
0000
,
0000
0000
0000
0000
,
0000
0000
0000
0000
,
0000
0000
0000
0000
,
0000
0000
0000
0000
,
0000
0000
0000
0000
,
0000
0000
0000
0000
,
1000
0000
0000
0000
,
0100
0000
0000
0000
,
0010
0000
0000
0000
,
0001
0000
0000
0000
,
0100
0000
0000
0000
,
0001
0000
0000
0000
,
0010
0000
0000
0000
,
1000
0000
0000
0000
,
0100
0100
0000
0000
,
0010
0010
0000
0000
,
0001
0001
0000
0000
,
1000
1000
0000
0000
,
0100
0010
0000
0000
,
0010
0100
0000
0000
,
1001
1000
0000
0000
,
0110
0001
0000
0000
,
2000
0000
0000
3000
,
0002
0000
0000
0003
,
0020
0000
0000
0030
,
0200
0000
0000
0300
,
2000
0000
0000
3000
,
0020
0000
0000
0030
,
0200
0000
0000
0300
,
2000
0000
0000
3000
,
0110
0000
0000
0000
,
0011
0000
0000
0000
,
0110
0000
0000
0000
,
1100
0000
0000
0000
,
1010
0000
0000
0000
,
0110
0000
0000
0000
,
0101
0000
0000
0000
,
0001
0000
0000
0000
,
0010
0000
0000
0000
,
0100
0000
0000
0000
,
1000
0000
0000
0000
,
0001
0000
0000
0000
,
1000
0000
0000
0000
,
0100
0000
0000
0000
,
0010
0000
0000
0000
,
0000
0000
0000
0000
,
1000
0000
0000
1000
,
0000
0000
0000
0100
,
0000
0000
0000
0010
,
0000
0000
0000
0100
,
0000
0000
0000
0110
,
0000
0000
0000
1001
,
0000
0000
0000
0100
,
0000
0000
0000
1000
,
0100
0000
0000
0000
,
0001
0000
0000
0000
,
0010
0000
0000
0000
,
0100
0000
0000
0000
,
0001
0000
0000
0000
,
1000
0000
0000
0000
,
0010
0000
0000
0000
,
0100
0000
0000
0000
,
0001
0000
0000
0000
,
1000
0000
0000
0000
,
0100
0000
0000
0000
,
1000
0000
0000
0000
,
0010
0000
0000
0000
,
0100
0000
0000
0000
,
1000
0000
0000
0000
,
0001
0000
0000
0000
,
0010
0000
0000
0000
,
0010
0000
0000
0000
,
0010
0000
0000
0000
,
0100
0000
0000
0000
,
0001
0000
0000
0000
,
1000
0000
0000
0000
,
0010
0000
0000
0000
,
0100
0000
0000
0000
,
1000
0000
0000
0000
,
1000
0000
0000
0000
,
0010
0000
0000
0000
,
0010
0000
0000
0000
,
0100
0000
0000
0000
,
0100
0000
0000
0000
,
0001
0000
0000
0000
,
0001
0000
0000
0000
,
1000
0000
0000
0000
,
0010
0000
0000
0000
,
0100
0000
0000
0000
,
0001
0000
0000
0000
,
1000
0000
0000
0000
,
0010
0000
0000
0000
,
0100
0000
0000
0000
,
0100
0000
0000
0000
,
1000
0000
0000
0000
,
0001
0001
0000
0000
,
0010
0010
0000
0000
,
0010
0010
0000
0000
,
0100
0100
0000
0000
,
0010
0010
0000
0000
,
1000
1000
0000
0000
,
0001
0001
0000
0000
,
1000
0100
0000
0000
,
0010
0001
0000
0000
,
0001
1000
0000
0000
,
0100
0010
0000
0000
,
1001
0000
0000
0000
,
0110
0000
0000
0000
,
0100
0000
0000
0000
,
1000
0000
0000
0000
,
0001
0000
0000
0000
,
0100
0000
0000
0000
,
1000
0000
0000
0000
,
0010
0000
0000
0000
,
0100
0000
0000
0000
,
1000
0000
0000
0000
,
0001
0000
0000
0000
,
0100
0000
0000
0000
,
0010
0000
0000
0000
,
0100
0000
0000
0000
,
0010
0000
0000
0000
,
0100
0000
0000
0000
,
1000
0000
0000
0000
,
0010
0000
0000
0000
,
0100
0000
0000
0000
,
0001
0000
0000
0000
,
0100
0000
0000
0000
,
0110
0000
0000
0000
,
1001
0000
0000
0000
,
1001
0000
0000
0000
,
0110
0000
0000
0000
,
1100
0000
0000
0000
,
0011
0000
0000
0000
,
0101
0000
0000
0000
,
1010
0000
0000
0000
,
0100
0000
0000
0000
,
0010
0000
0000
0000
,
1000
0000
0000
0000
,
0001
0000
0000
0000
,
0001
0000
0000
0000
,
0010
0000
0000
0000
,
0001
0000
0000
0000
,
0001
0000
0000
0000
,
0100
0000
0000
0000
,
1000
0000
0000
0000
,
1000
0000
0000
0000
,
0100
0000
0000
0000
,
0010
0000
0000
0000
,
0100
0000
0000
0000
,
0100
0000
0000
0000
,
1000
0000
0000
0000
,
0010
0000
0000
0000
,
0100
0000
0000
0000
,
0001
0000
0000
0000
,
0010
0000
0000
0000
,
0100
0000
0000
0000
,
1000
0000
0000
0000
,
0001
0000
0000
0000
,
0100
0000
0000
0000
,
1000
0000
0000
0000
,
0001
0000
0000
0000
,
0010
0000
0000
0000
,
1000
0000
0000
0000
,
0001
0000
0000
0000
,
0010
0000
0000
0000
,
0100
0000
0000
0000
,
0001
0000
0000
0000
,
0010
0000
0000
0000
,
0100
0000
0000
0000
,
1000
0000
0000
0000
;

//---------------dance-single - ----------------
#NOTES:
     dance-single:
     :
     Medium:
     5:
     0.339,0.460,0.212,0.066,0.000,662.000,67.000,21.000,0.000,0.000:
0000
0000
0000
0000
,
0000
0000
0000
0000
,
0000
0000
0000
0000
,
0000
0000
0000
0000
,
1000
0000
0000
0000
,
0010
0000
0000
0000
,
0100
0000
0000
0000
,
0001
0000
0000
0000
,
1000
0100
0001
0010
,
0100
1000
0001
0100
,
0001
0001
1000
0100
,
0001
0100
1000
0001
,
0001
0000
0100
0000
0001
0100
0010
0000
,
0001
0000
1000
0000
0100
0001
1000
0000
,
0100
0000
1000
0000
0001
1000
0010
0000
,
0100
0000
1000
0000
0100
0010
0100
0000
,
0010
1000
0001
0100
,
0100
0010
0001
1000
,
0100
0010
0010
1000
,
0001
0001
0001
1000
,
1000
1000
1000
0001
,
0100
0100
0010
0010
,
0001
0001
0100
0100
,
1000
0000
0010
0000
,
0001
0001
0100
0000
1000
0000
0000
0000
,
0100
0100
0001
0000
1000
0000
0000
0000
,
1000
0001
1000
0000
0001
0000
0000
0000
,
0100
0010
1000
0000
0010
0000
0000
0000
,
1000
0100
0001
0000
0100
0000
0000
0000
,
1000
0010
0001
0000
0100
0000
0000
0000
,
1000
0100
0010
0000
0001
0000
0000
0000
,
0001
0010
0100
0000
0100
0000
0010
0000
,
1000
0010
1010
0001
,
0100
1000
0101
0010
,
0001
1000
0011
0100
,
0010
1000
1001
0110
,
0001
1000
1100
0010
,
0010
0100
0110
0110
,
0010
1000
0010
0000
0010
0000
0010
0000
,
1000
0100
1000
0000
1000
0000
1000
0000
,
0011
2000
0000
3001
,
0020
0000
0000
0000
0000
0000
1030
1000
,
1200
0310
0002
0000
,
0000
0000
1000
1003
,
0000
0010
0001
0010
,
1000
0001
0001
0010
,
0010
0100
0100
0010
,
1100
0100
0011
0010
0110
1000
1001
0001
,
0100
1000
1000
0101
,
1000
0010
0010
1000
,
0100
1000
0100
0001
,
0010
0010
0100
0001
,
1000
1000
0010
0010
,
0100
0001
0001
1000
,
0010
0010
0100
0001
,
1000
0010
0002
0003
,
1000
0100
0010
0000
0100
0000
0100
0000
,
0100
1000
0010
1000
,
0010
1000
0100
0001
,
0010
0100
1000
1000
,
0010
1000
0001
0001
,
0100
0001
0010
0100
,
0010
0100
1100
1000
,
0100
0001
0010
0001
,
0010
0100
1000
1000
,
0010
0001
0100
0001
,
0010
0100
0100
0001
,
0100
0001
0010
0001
,
1000
0010
0010
0100
,
0001
0100
0100
0100
,
1000
0010
0010
0100
,
1001
0100
0001
0010
,
0001
0010
0100
0010
,
1000
1000
0110
0001
,
0100
1000
0001
0010
,
0010
0010
0100
0100
,
1000
0010
0010
0100
,
0100
1000
0011
0100
,
1000
1000
1100
1000
,
1000
1000
0100
1000
,
0100
0010
0100
0011
,
0010
0101
0010
0101
,
0010
2000
0000
0100
,
3100
0020
0000
0000
,
0000
0100
1030
0000
0200
0000
1300
0000
,
0002
0000
0000
0100
0003
0000
1000
0000
,
0100
0010
0001
0010
,
0100
1000
0010
1000
,
1000
0100
0001
0100
,
0010
0110
1000
1000
,
0001
0100
1000
0001
,
1000
0010
0010
1000
,
0001
1100
0100
1100
,
0010
1000
1000
0001
,
0001
0001
0100
1000
,
0100
0100
0010
0100
,
1000
0001
0100
0001
,
1000
0001
1000
0000
1000
0000
0010
0000
,
0001
0010
0010
0101
,
1000
0100
0010
0100
,
0100
1000
0001
1000
,
0100
0100
0010
1100
,
0001
1100
1000
0101
,
1000
0101
0010
1000
,
0100
0001
0010
1100
,
0010
1100
1000
0100
,
0100
0001
1000
0010
,
1000
0010
0010
1000
,
0001
0100
0010
0100
,
1000
0010
1000
0000
0100
0000
0001
0000
,
0100
0010
0100
0100
,
0001
1000
0010
0100
,
1000
0010
0100
0001
,
0001
0000
0010
0000
1000
0001
0100
0000
,
1000
0100
0010
0001
,
0100
0010
0001
1000
,
0100
0001
0010
0200
,
0000
0000
0010
0310
,
2000
0000
0000
0000
0000
0100
3100
0000
,
0020
1030
0002
0000
,
0000
1003
1000
0100
,
0010
1000
0010
0000
0001
0000
0100
0000
,
1000
0100
0001
0010
,
0100
0100
0010
1000
,
0001
0100
0001
0110
,
0001
1100
1010
0110
,
0100
1001
0011
1010
,
0001
0200
0310
0002
,
0000
0000
0000
1000
1003
0000
0010
0000
,
0100
0010
0001
0010
,
0010
1000
0001
0100
,
0100
0010
1000
0001
,
0100
1100
0010
0010
,
0001
0011
0100
1000
,
1000
0110
1000
1000
,
0100
1001
1000
1000
,
0010
0100
0010
0100
,
0010
0101
0101
0010
,
1000
0100
0001
0010
,
0100
0010
0001
0100
,
1000
0100
0010
1000
,
0100
0010
1010
0010
,
0100
0010
0101
1000
,
0100
0000
0001
0000
0100
0000
0010
0001
,
0100
1000
0100
0001
,
0010
0100
1000
0001
,
0100
0001
1000
1000
,
0100
0100
0010
0100
,
0010
0100
1100
0001
,
0011
0010
0110
0010
,
1001
0010
1010
0100
,
0101
1010
0110
0100
,
1001
0010
1001
0100
,
0110
0110
2000
3100
,
0020
0000
0000
0000
0000
0000
0000
1000
,
1030
1000
0100
1000
,
0001
0001
0010
0010
,
0010
1000
0100
0010
,
1000
0001
1000
0010
,
1000
1010
0001
0100
,
1010
0100
1001
0100
,
1001
0100
0011
0100
,
0202
0303
2020
3030
,
0100
0010
0100
0000
1000
0000
0100
0000
,
0010
0001
0100
0000
1000
0000
0001
0000
,
0010
0100
1000
0000
0010
0000
1000
0000
,
0010
1000
0001
0000
1000
0000
0010
0000
,
0001
0010
1000
0000
0001
0000
0001
0000
,
0100
0001
1000
0000
0010
0000
0001
0000
,
0100
0100
0001
0000
1000
0000
0010
0000
,
0100
0010
0001
1000
0001
0100
0001
0010
,
0100
0000
0000
0000
;

//---------------dance-single - ----------------
#NOTES:
     dance-single:
     :
     Hard:
     9:
     0.578,0.704,0.472,0.396,0.275,1003.000,149.000,125.000,0.000,7.000:
0000
0000
0000
0000
,
0000
0000
0000
0000
,
1000
0100
0010
0001
,
0010
0100
1000
0001
,
0100
1000
0010
0000
0100
0000
0010
0000
,
1000
0100
0001
0000
1000
0000
0001
0000
,
1000
0100
1000
0000
0001
0010
0001
0000
,
0100
1000
0100
0000
0010
0001
0010
0100
,
1000
0000
0010
0000
0100
0010
0010
0001
,
0100
0000
1000
0000
0010
0100
0001
0100
,
1000
0000
0100
0000
0010
0100
0001
0010
,
1000
0000
0100
0000
0010
1000
0100
0001
,
0011
0000
1100
0000
0100
0010
0100
1000
,
0110
0000
1001
0000
0100
1000
0010
0001
,
1010
0000
0101
0000
1000
0100
0010
0001
,
0011
0000
1100
0000
0010
0100
0001
1000
,
0100
0000
0010
0000
0001
0010
0100
0000
,
1000
0000
0100
0000
0010
0001
0100
0000
,
0010
0000
0100
0000
1000
0001
0100
0000
,
0010
0000
0001
0000
0100
0010
1000
0000
,
1000
0100
0010
0000
0001
0010
0100
0000
,
0010
0100
0100
0000
1000
0010
0010
0000
,
0001
0100
0100
0000
0010
1000
1000
0000
,
1100
0100
1100
0000
0011
0001
0000
1000
,
2000
0000
0000
3100
0100
0000
0000
0001
,
0002
0000
0000
0013
0100
0000
0000
1100
,
2020
0000
0000
3130
0001
0000
0000
0101
,
0022
0000
0000
1133
0010
0000
0000
0100
,
2000
0000
0000
3010
0001
0000
0000
0100
,
2000
0000
0000
3100
0001
0000
0000
1010
,
0202
0000
0000
0313
0010
0000
0000
0110
,
2002
0000
0000
3113
1000
0000
0000
0000
,
1000
0000
0100
0000
0010
0100
0010
0001
,
1000
0000
0100
0000
0100
0010
1000
0010
,
0100
0000
1100
0000
0010
0100
0001
1000
,
1000
0000
0100
0000
0010
0100
0010
0100
,
1100
0000
0011
0000
0100
0010
1000
0001
,
2000
0000
0100
0000
3100
0100
0001
1000
,
1000
0000
0000
0100
0000
0000
0010
0000
0100
0000
0000
0011
0000
0000
1100
0000
,
0011
0001
1000
0001
1000
0001
1000
0001
1000
0001
1000
0001
1000
0001
1000
0001
,
1000
0000
0000
0100
0000
0000
0100
0000
0000
0000
0011
0000
0100
0000
1000
0000
,
0001
0000
0000
0100
0000
0000
0020
0000
0000
0000
0000
0000
0031
0000
0000
0000
,
2020
0000
3030
0101
2020
0000
0000
0000
,
0000
0000
0000
3030
,
0010
0000
1000
0100
0000
0010
0001
0000
0000
0000
0100
0000
0010
0000
1000
0000
,
0110
0000
0000
0010
0000
0000
1000
0000
0000
0000
0000
0000
0010
0000
2002
0000
,
0000
0000
0000
3003
,
1000
0100
1000
0100
0010
0100
0010
0100
0010
0001
0010
0001
0010
0100
1000
0000
,
0010
0000
0100
0010
1000
0000
0001
0100
0010
0001
1000
0010
0100
0000
0000
0000
,
0001
1000
0010
0100
0001
0000
1000
0100
0010
0100
0001
0010
0100
0001
0000
0000
,
1000
0001
0100
0010
1000
0000
0001
0000
0100
0010
1000
0001
0010
0100
0000
0000
,
1000
0100
0010
0000
0001
0000
0100
0000
1000
0010
0001
0000
0100
0000
1000
0100
,
0020
0000
0030
0000
0001
1000
0010
0000
,
1000
0010
0100
0001
0010
0100
0001
0000
,
0100
1000
0010
0001
0001
0100
0010
1000
0100
0000
0010
0000
0001
0000
0000
0000
,
0100
0000
0000
0000
0010
0100
0010
2002
0000
0000
0000
3003
0000
0000
0000
0000
,
1000
0000
0100
0010
0000
0000
0001
0000
1000
0000
0100
0001
0000
1000
0010
0000
,
0100
0000
0000
0011
0000
0000
1100
0000
0010
0000
0000
1000
0000
0000
0101
0000
,
0010
0000
0001
0010
0000
0000
1000
0000
0010
0000
0000
0001
0010
0000
1000
0000
,
0100
0000
0000
0010
0000
0000
0010
0000
0100
0000
0000
1000
0000
0000
0110
0000
,
1000
0000
0100
0010
0000
0000
1000
0000
0100
0000
1010
0101
0000
0000
0010
0000
,
0100
0000
0000
1000
0000
0000
0010
0000
0001
0000
0000
0010
0000
0000
0100
0000
,
0100
0000
2100
0000
0000
0010
0000
0002
,
0000
0000
3003
0000
0010
0010
0100
0100
,
0001
0000
0100
0010
0000
1000
0010
0000
0100
0000
0000
0010
0000
0110
0110
0000
,
2000
0000
0000
0002
3000
0000
0200
0003
0010
0000
0300
0020
0000
0000
1000
0030
,
0110
0000
1000
0001
0000
0010
0100
0000
2000
0000
0100
0010
3000
0000
0001
0000
,
0200
0000
0000
0020
0300
0000
1000
0030
0200
0000
0000
0010
0300
0000
0001
0000
,
1000
0101
0010
0101
0010
1010
0100
0001
,
0020
0000
0000
0100
0030
0000
1000
0000
0010
0000
0000
0100
0000
0000
0001
0000
,
1010
0000
0102
0000
0000
0010
0000
2000
,
0000
0000
3003
0000
1100
0011
1010
0101
,
0001
0000
0010
1000
0000
0100
0010
0000
0001
0000
0000
0010
0000
0000
1000
0000
,
0100
0000
0000
0010
0000
0000
0001
0000
0100
0000
0000
0000
0000
0000
0001
0010
,
0200
0000
0300
1000
0020
0000
0030
1100
,
0002
0000
0003
0010
0200
0000
0300
1000
,
0020
0000
0030
0100
0200
0000
0000
0301
,
2200
0000
0000
3310
0010
0000
0000
0100
,
0020
0000
0030
0000
0001
0000
0000
0000
1000
0000
0000
0100
0000
0000
0001
0000
,
0020
0030
2000
3100
0020
0000
0000
0030
,
1100
0000
0000
0110
0000
0000
0011
0000
0000
1010
0000
0000
0101
0000
0000
0000
,
1000
0000
0000
0011
0000
0000
0100
0000
0000
0000
0010
0000
0001
0000
1000
0000
,
0100
0000
0000
0010
0000
0000
0220
0000
0000
0000
0330
0000
1001
0000
0000
0000
,
0200
0000
0320
0000
,
0000
0030
2200
3300
,
0010
0000
0001
0010
0000
0100
1000
0000
0000
0000
0100
0000
0010
0000
0001
0000
,
2200
0000
3300
0011
0000
0000
0220
0000
0000
0000
0330
0000
1000
0000
0200
0000
,
0000
0000
0300
0000
0001
0001
0010
0100
,
0010
1000
0010
0100
0010
0100
0001
0000
,
1000
0000
0100
0010
0001
0000
0100
1000
0010
0000
0001
0010
1000
0000
0000
0000
,
0100
0000
0010
1000
0001
0010
0100
0000
1000
0000
1000
0000
0010
0001
0100
0000
,
0010
0100
0000
0001
1000
0000
0010
0000
0100
0001
0010
1000
0100
0000
0001
0000
,
0001
0100
0010
1000
0100
0000
0100
0010
0001
0000
0100
1000
0010
0001
0100
0000
,
0220
0000
0000
0330
0000
1000
0000
0110
,
0000
0011
0000
0110
0000
1001
0000
0000
,
0100
0010
1000
0001
0110
0010
0100
0000
0010
0000
0001
1000
0100
0010
0001
0000
,
0220
0000
0000
0000
0000
0330
1001
0000
,
0100
0000
0010
0100
0000
0001
0010
0000
0100
0000
1000
0010
0000
0100
0001
0000
,
2000
0000
0000
0100
3000
0000
0020
0000
0100
0000
0030
1000
0000
0000
0001
0000
,
0100
0000
0010
1000
0000
0001
0000
0000
0100
0000
0010
1000
0000
0000
0001
0000
,
0020
0000
0030
0001
0000
0000
0100
0000
1000
0000
0000
0100
0000
0000
0010
0000
,
0110
1001
1100
0011
1010
0101
0110
1001
,
0110
0000
0000
0100
0000
0000
0010
0000
1000
0000
0000
0001
0000
0000
0100
0000
,
1010
0000
0120
0000
0000
0100
0001
2000
,
0000
0000
3030
0000
1000
0010
0100
0001
,
0010
0000
0100
1000
0000
0000
0001
0000
0100
0000
0010
1000
0000
0000
0001
0000
,
0100
0000
0000
0110
0000
0000
1010
0000
0101
0000
0000
0000
0000
0000
0010
0100
,
0020
0000
0030
0001
0200
0000
0300
1000
,
0202
0000
0303
0010
2200
0000
3300
0001
,
0020
0000
0030
0100
2000
0000
3000
0100
,
0020
0000
0030
0001
0220
0000
0330
1001
,
0110
0000
0000
0000
1100
0000
0000
0000
0110
0000
0000
0011
0000
0000
0110
0000
,
1000
0000
0000
0010
0000
0000
0101
0000
2020
0000
0000
0000
3030
0000
0000
0000
,
0110
0000
0000
1100
0000
0000
0011
0000
0000
0110
0000
0000
2002
0000
3003
0000
,
0100
0000
0000
0010
0000
0000
1000
0000
0000
0000
0001
0000
0010
0000
1000
0000
,
0200
0000
0300
0020
0000
0000
0032
0000
0000
0000
0003
0000
1000
0000
0000
0000
,
0200
0000
0000
0310
0002
0000
0000
0000
,
0000
0003
1100
0011
,
1000
0000
0001
0010
0000
0100
2000
0000
3000
0000
0100
0000
0010
0000
1000
0000
,
0100
0000
0000
0002
0000
0000
0200
0003
0000
0000
0300
0000
0010
0000
2000
0000
,
0000
0000
0000
0000
,
3010
0000
0100
0010
1000
0000
0100
0010
0001
0010
0100
0000
1000
0010
0100
0000
,
1000
0000
0000
0100
0000
0000
0011
0000
0000
0000
0110
0000
1100
0000
0001
0000
,
0010
0000
0000
0100
0000
0000
0002
0000
0000
0000
0003
0000
1000
0000
0000
0000
,
0202
0000
0000
0313
2002
0000
0000
0000
,
0000
3003
0000
0010
0100
1000
0001
0000
,
0100
0000
1000
0010
0000
0100
0001
0000
0000
0000
0010
0000
0100
0000
1000
0000
,
0110
0000
0000
1010
0000
0000
0101
0000
0000
0000
0000
0000
2000
0000
3020
0000
,
0000
0000
0000
0000
0000
0000
0000
0030
,
1000
0100
0010
0001
0001
0010
0100
1000
,
2200
0000
0000
0000
0000
0000
0000
3300
,
0022
0033
0200
2300
,
3020
0000
0000
0000
,
0230
0300
2000
3001
,
0110
0000
1000
0100
0000
0010
0001
0000
0000
1000
0100
0000
0010
0000
0101
0000
,
0100
0000
1000
0001
0000
0100
0010
0000
0000
1000
0001
0000
0100
0000
1001
0000
,
0010
0000
0100
0001
0000
0010
1000
0000
0000
0100
0010
0000
0101
0000
1010
0000
,
0100
0000
0010
0001
0000
1000
0100
0000
0000
0010
0100
0000
0010
0000
1000
0000
,
0100
0010
0001
1000
0010
0100
0001
0100
,
0010
1000
0010
0100
0001
0010
0100
1001
,
0100
0010
1000
0100
0001
0010
0100
0011
,
1000
0100
1000
0010
0100
0001
0010
1000
,
0010
0100
0001
0010
0001
1000
0100
0010
,
1000
0010
0100
0001
1000
0100
0001
1000
,
0100
1000
0010
0001
1000
0100
0001
0010
,
0100
1000
0010
0100
0001
0010
1000
0110
,
1100
0000
0000
0110
0000
0000
1001
0000
0000
1010
0000
0000
0101
0000
0000
0000
,
2000
0000
3000
0100
0000
0000
0020
0000
0030
0000
0001
0000
0100
0000
1000
0000
,
0010
0000
0000
0100
0000
0000
2200
0000
0000
0000
3300
0000
0022
0000
0033
0000
,
2000
0000
0000
3110
0202
0000
0000
0000
,
0000
0303
1000
0001
,
0100
0000
0100
0010
0000
1000
0100
0000
0000
0000
0001
0000
0010
0000
0100
0000
,
1010
0000
0000
0110
0000
0000
0011
0000
0000
0000
0000
0000
1000
0000
0010
0000
,
0200
0000
0000
0000
0000
0000
0000
0300
,
0001
0000
0001
0100
1000
0000
0010
1000
0100
0001
0100
0000
0010
1000
1000
0000
,
0001
0000
0000
0100
0000
0000
0010
0000
0000
0000
1000
0000
0100
0000
0011
0000
,
0100
0000
0000
1000
0000
0000
0220
0000
0000
0000
0330
0000
0011
0000
0000
0000
,
2000
0000
0000
0000
0000
3000
0110
0000
0002
0000
0000
0000
0000
0000
0000
0000
,
0000
0000
1003
0100
,
0010
0000
0100
1000
0000
0001
0010
0000
0000
0000
1000
0000
0100
0000
0010
0000
,
1100
0000
0000
0011
0000
0000
0220
0000
0000
0000
0330
0000
1000
0000
0002
0000
,
0000
0000
0000
0000
,
0003
0000
0000
0000
,
1000
0100
0001
0010
0100
0001
1000
0100
,
0010
1000
0001
0010
0100
0001
0100
0010
,
1000
0010
0010
0001
0100
0010
1000
0010
,
0001
1000
0100
0100
0001
0100
0001
0010
,
1000
0100
0010
1100
0010
0001
1000
0011
,
0100
0010
1000
0110
0001
1000
0010
1001
,
0100
0001
1000
0010
0100
0001
1000
0010
,
0100
1000
0000
0010
0001
0000
0010
0100
0000
1000
0100
0000
0001
0010
0100
1000
,
1001
0000
0000
0000
;
