#TITLE:Blood Ocean;
#SUBTITLE:;
#ARTIST:Dethklok;
#TITLETRANSLIT:;
#SUBTITLETRANSLIT:;
#ARTISTTRANSLIT:;
#CREDIT:Wavanova;
#BANNER:Blood Ocean Banner.jpg;
#BACKGROUND:Dethklok - Blood Ocean.jpg;
#LYRICSPATH:;
#CDTITLE:wavanova06.png;
#MUSIC:Dethklok - Blood Ocean.mp3;
#OFFSET:0.000;
#SAMPLESTART:41.780;
#SAMPLELENGTH:12.000;
#SELECTABLE:YES;
#BPMS:0.000=120.000;
#STOPS:;
#BGCHANGES:;
// cache tags:
#FIRSTBEAT:3.000;
#LASTBEAT:217.000;
#SONGFILENAME:Songs/toune/blod ocean/Dethklok - Blood Ocean.sm;
#HASMUSIC:1;
#HASBANNER:1;
#MUSICLENGTH:115.539;
// end cache tags

//---------------dance-single - ----------------
#NOTES:
     dance-single:
     :
     Hard:
     14:
     1.000,1.000,0.320,0.043,1.000,1090.000,37.000,5.000,0.000,2.000:
0000
0000
0000
0002
,
0000
1013
0100
0001
0010
1001
0100
0010
0001
1010
0100
0001
0010
0101
0010
0100
,
1000
0101
0010
0100
0001
1010
0100
0010
0001
0110
1000
0100
0010
1001
0100
0010
,
0100
1010
0100
1000
0100
0010
0001
0010
0001
0100
0010
0100
0010
0100
0001
0100
,
0001
0010
1000
0010
1000
0001
1000
0001
1000
0100
0010
0100
0010
0001
0010
0001
,
0010
1100
0001
0010
1000
0110
0001
1000
0010
1100
0001
0010
1000
0011
1000
0001
,
0100
0011
1000
0001
0010
1100
0001
1000
0010
1001
0100
0001
1000
0110
0001
1000
,
0001
1100
0001
0100
0001
1000
0010
1000
0010
0001
1000
0001
1000
0001
0010
0001
,
0010
1000
0100
1000
0100
0010
0100
0010
0100
0001
1000
0001
1000
0010
0001
0010
,
0001
0100
0010
0100
0010
0001
1000
0001
1000
0100
1000
0100
1000
0010
1000
0010
,
1000
0100
0001
0100
0001
1000
0001
1000
0001
0100
1000
0100
1000
0010
0001
0010
,
0001
0100
1000
0100
0010
0100
1000
0010
0001
0010
0100
0001
0010
0100
1000
0100
,
0010
0100
0010
0001
0010
0100
1000
0100
1000
0010
0100
0001
0010
0100
1000
0010
,
0100
0010
0001
0100
0010
0100
1000
0010
0100
0010
0001
0100
0010
0100
0010
1000
,
0100
0010
0001
0010
0100
0001
0010
0001
0010
0100
1000
0100
1000
0100
0010
0100
,
0010
0001
0010
0100
1000
0010
0100
0010
0100
0001
1000
0001
1000
0100
0010
0100
,
0010
0001
0100
0010
1000
0001
0100
0001
0100
0010
1000
0010
1000
0100
1000
0100
,
1000
0101
1000
0010
0100
0011
1000
0100
0010
0101
1000
0010
0100
1010
0100
1000
,
0001
1010
0100
1000
0010
0101
1000
0100
0010
1100
0001
1000
0100
0011
1000
0100
,
1000
0101
1000
0001
1000
0100
0010
0100
0010
1000
0100
1000
0100
1000
0010
1000
,
0010
0100
0001
0100
0001
0010
0001
0010
0001
1000
0100
1000
0100
0010
0100
0010
,
0100
1001
0010
0100
0001
1100
0010
0001
0100
1001
0010
0100
0001
0110
0001
0010
,
1000
0110
0001
0010
0100
1001
0010
0001
0100
0011
1000
0010
0001
1100
0010
0001
,
0010
1001
0010
1000
0010
0001
0100
0001
0100
0010
0001
0010
0001
0010
0100
0010
,
0100
0001
1000
0001
1000
0100
1000
0100
1000
0010
0001
0010
0001
0100
0010
0100
,
0010
1000
0100
1000
0100
0010
0001
0010
0001
1000
0001
1000
0001
0100
0001
0100
,
0001
1000
0010
1000
0010
0001
0010
0001
0010
1000
0001
1000
0001
0100
0010
0100
,
0010
1000
0001
1000
0100
1000
0001
0100
0010
0100
1000
0010
0100
1000
0001
1000
,
0100
1000
0100
0010
0100
1000
0001
1000
0001
0100
1000
0010
0100
1000
0001
0100
,
1000
0100
0010
1000
0100
1000
0001
0100
1000
0100
0010
1000
0100
1000
0100
0001
,
1000
0100
0010
0100
1000
0010
0100
0010
0100
1000
0001
1000
0001
1000
0100
1000
,
0100
0010
0100
1000
0001
0100
1000
0100
1000
0010
0001
0010
0001
1000
0100
1000
,
0100
0010
1000
0100
0001
0010
1000
0010
1000
0100
0001
0100
0001
1000
0001
1000
,
0001
0000
0010
0100
1000
0001
0100
0010
1000
0001
0010
0100
1000
0001
0100
0010
1000
0001
0010
0100
1000
0001
0100
0010
1000
0001
0010
0100
1000
0001
0100
0010
,
1000
0100
0010
0001
1000
0010
0100
0001
1000
0100
0010
0001
1000
0010
0100
0001
1000
0100
0010
0001
1000
0010
0100
0001
1000
0100
0010
0001
1000
0010
0100
0001
,
1000
0010
0100
0001
1000
0100
0001
0010
1000
0010
0100
0001
1000
0100
0001
0010
1000
0010
0100
0001
1000
0100
0001
0010
1000
0010
0100
0001
1000
0100
0001
0010
,
0001
0100
0010
1000
0001
0010
1000
0100
0001
0100
0010
1000
0001
0010
1000
0100
0001
0100
0010
1000
0001
0010
1000
0100
0001
0100
0010
1000
0001
0010
1000
0100
,
0010
0100
1000
0001
0100
0010
1000
0001
0010
0100
1000
0001
0100
0010
1000
0001
0010
0100
1000
0001
0100
0010
1000
0001
0010
0100
1000
0001
0100
0010
1000
0100
,
0010
0001
1000
0010
0100
0001
1000
0100
0010
0001
1000
0010
0100
0001
1000
0100
0010
0001
1000
0010
0100
0001
1000
0100
0010
0001
1000
0010
0100
0001
1000
0010
,
0100
0001
1000
0100
0001
0010
1000
0010
0100
0001
1000
0100
0001
0010
1000
0010
0100
0001
1000
0100
0001
0010
1000
0010
0100
0001
1000
0100
0001
0010
0001
0100
,
0010
1000
0001
0010
1000
0100
0001
0100
0010
1000
0001
0010
1000
0100
0001
0100
0010
1000
0001
0010
1000
0100
0001
0100
0010
1000
0001
0010
1000
0100
0001
1000
,
0010
0100
1000
0001
0100
0010
1000
0001
0010
0100
1000
0001
0100
0010
1000
0001
0010
0100
1000
0001
0100
0010
1000
0001
0010
0100
1000
0001
0100
0010
1000
0100
,
0010
0001
1000
0010
0100
0001
1000
0100
0010
0001
1000
0010
0100
0001
1000
0100
0010
0001
1000
0010
0100
0001
1000
0100
0010
0001
1000
0010
0100
0001
1000
0010
,
0100
0001
1000
0100
0001
0010
1000
0010
0100
0001
1000
0100
0001
0010
1000
0010
0100
0001
1000
0100
0001
0010
1000
0010
0100
0001
1000
0100
0001
0010
0001
0100
,
0010
1000
0001
0010
1000
0100
0001
0100
0010
1000
0001
0010
1000
0100
0001
0100
0010
1000
0001
0010
1000
0100
0001
0100
0010
1000
0001
0010
1000
0100
0001
0010
,
1000
0001
0100
0010
0001
1000
0010
0100
0001
1000
0100
0010
0001
1000
0010
0100
0001
1000
0100
0010
0001
1000
0010
0100
0001
1000
0100
0010
0001
1000
0010
0100
,
1000
0001
0100
0010
0001
1000
0010
0100
0001
1000
0100
0010
0001
1000
0010
0100
0001
1000
0100
0010
0001
1000
0010
0100
0001
1000
0100
0010
0001
1000
0010
0100
,
1000
0001
0100
0010
0001
1000
0010
0100
0001
1000
0100
0010
0001
1000
0010
0100
0001
1000
0100
0010
0001
1000
0010
0100
0001
1000
0100
0010
0001
1000
0010
0100
,
1000
0001
0100
0010
0001
1000
0010
0100
0001
1000
0100
0010
0001
1000
0010
0100
0001
1000
0100
0010
0001
1000
0010
0100
0001
1000
0100
0010
0001
1000
0010
0100
,
1000
0001
0100
0010
0001
1000
0010
0100
0001
1000
0100
0010
0001
1000
0010
0100
0001
1000
0100
0010
0001
1000
0010
0100
0001
1000
0100
0010
0001
1000
0010
0100
,
1000
0001
0100
0010
0001
1000
0010
0100
0001
1000
0100
0010
0001
1000
0010
0100
0001
1000
0100
0010
0001
1000
0010
0100
0001
1000
0100
0010
0001
1000
0010
0100
,
2002
0000
0000
0000
,
3203
0320
0000
0000
,
0000
0000
0000
0000
,
0000
0030
0000
0000
;

//---------------dance-single - ----------------
#NOTES:
     dance-single:
     :
     Medium:
     12:
     0.997,0.775,0.000,0.035,1.000,802.000,0.000,4.000,0.000,0.000:
0000
0000
0000
0002
,
0000
0003
1000
0100
0010
0100
0001
1000
0010
1000
0010
1000
0100
0100
1000
0010
,
0001
0100
0010
0100
0010
0001
1000
0010
0100
1000
0001
0010
0100
1000
0100
0001
,
1000
0100
0010
0001
1000
0100
1000
0100
0010
0100
0010
0001
0100
1000
0100
1000
,
0001
0001
1000
1000
0001
0010
0001
1000
1000
0100
1000
0100
1000
1000
0100
1000
,
0100
1000
0010
0001
0100
1000
1000
0010
1000
0100
1000
1000
0100
0100
0001
0100
,
0100
0010
1000
0100
0010
0001
0001
0001
0100
0100
1000
0001
0001
0010
0100
1000
,
1000
0010
0010
0001
1000
0100
1000
0100
0001
1000
0001
1000
0001
1000
0100
0010
,
1000
1000
0100
1000
0001
0100
0001
0100
1000
0100
1000
0010
0010
1000
1000
1000
,
0001
1000
0001
0001
0100
0001
1000
0100
0010
1000
0010
1000
0100
0010
0010
0100
,
0010
1000
0100
1000
0010
1000
0100
1000
0010
0100
0010
0010
1000
0100
0001
0010
,
0010
0001
0100
0001
0100
0001
0100
0010
0010
0100
0001
1000
1000
0100
0001
1000
,
0100
0001
0010
0001
1000
0001
1000
0010
0100
0100
1000
0010
1000
0010
0001
0100
,
0100
0100
1000
1000
0100
0001
0010
0001
0010
1000
1000
0100
1000
0001
0001
0010
,
1000
0100
1000
0001
1000
0001
0010
0100
0100
0001
0100
0010
0001
0010
0100
0100
,
0100
0010
0010
0001
0100
0010
0010
1000
0001
0100
0010
0010
0010
0001
1000
0010
,
0001
1000
0100
0010
0001
1000
0100
0001
0100
0100
0100
1000
0100
0001
1000
0010
,
0010
0010
0010
0010
0010
0001
1000
0010
0001
0100
0001
0001
0010
0010
1000
1000
,
1000
0001
1000
0010
1000
0010
0010
0001
0001
0010
1000
0010
0001
0100
0001
0100
,
0100
0001
0010
0100
1000
0010
0010
1000
0001
0010
0010
0100
1000
1000
0100
0001
,
0010
1000
0100
0001
0100
0100
0010
1000
0001
0001
0100
0010
0100
0100
0100
0100
,
0100
0001
1000
0100
0010
1000
0001
0001
1000
0001
1000
0100
0001
0100
1000
1000
,
0100
1000
0010
1000
0100
0010
0100
0010
0001
0010
0010
0100
0001
0010
0001
0001
,
0001
0001
0100
1000
0001
0100
1000
0100
0010
0010
0010
0001
1000
1000
0001
1000
,
0010
0010
0001
0100
1000
0100
0001
0001
0010
0001
0010
0010
0001
0010
0010
0001
,
0001
1000
0010
0100
1000
0001
1000
1000
1000
0100
1000
1000
1000
1000
0010
0100
,
1000
0010
1000
1000
1000
0001
1000
0010
0001
1000
0001
0100
0010
0001
0010
1000
,
0010
1000
0001
0100
0100
0100
1000
0010
0100
1000
0010
0100
0100
1000
0100
1000
,
0001
0100
0001
0010
0010
0100
0100
0100
0001
0001
1000
0010
1000
0001
0010
0010
,
0100
0001
1000
0001
0001
0100
1000
0001
0100
0010
0100
0100
1000
1000
0010
0010
,
1000
0010
1000
0010
0010
1000
0001
0010
0100
0001
0001
0100
0100
0001
0010
0010
,
0010
1000
1000
0100
0010
0010
0001
0010
0100
0100
0001
0001
0100
0001
0001
1000
,
0001
1000
0100
0010
0010
1000
0100
1000
0100
0100
0010
0010
1000
1000
1000
0100
,
0100
0100
0010
1000
0100
0001
0100
0001
0001
0010
0100
0010
0001
0100
1000
1000
,
0010
0001
0010
0001
1000
0001
0010
0010
0100
0010
1000
0010
0001
0001
0001
0001
,
0010
1000
0100
0100
1000
1000
0010
0001
0100
0100
0010
0010
0100
1000
0100
0001
,
0001
0001
0001
0010
0100
0001
0001
0001
0001
0100
0010
1000
1000
0010
1000
0010
,
0010
1000
0001
0100
1000
0010
0100
0010
0100
0001
1000
0100
0010
0001
0010
0100
,
0001
0010
1000
0010
0010
0100
0010
1000
0010
0010
0100
1000
0001
0001
0001
0010
,
0100
0100
1000
0010
1000
0010
1000
0001
1000
1000
0010
0100
1000
1000
0001
0010
,
0100
0001
0010
0100
0001
1000
0100
0100
0010
0100
0001
0100
0010
0001
0001
0010
,
0001
0010
0001
0100
0010
1000
1000
0001
0100
0001
0001
0100
1000
0001
0100
0001
,
0100
1000
0010
0010
0001
0100
0100
1000
1000
0001
0010
0010
0100
0100
0010
0100
,
0010
1000
0100
0001
0001
0001
0010
0100
0100
1000
1000
0010
0100
0010
0100
1000
,
1000
0010
0010
0010
1000
0010
1000
0010
0100
0100
0100
0100
0100
0001
0001
0100
,
0100
0001
0001
0001
0010
0100
1000
0010
0010
0100
0010
0001
0001
0001
0100
1000
,
0010
0001
0001
0100
0100
0010
0100
1000
1000
1000
0010
1000
1000
0100
0100
0001
,
0010
0100
0100
1000
0010
1000
1000
0001
0001
0010
0100
0100
0010
0010
0010
1000
,
0100
0001
1000
1000
0100
1000
0001
0100
0100
0010
0100
0010
0001
0100
0001
0100
,
0001
0010
0100
0100
0010
1000
0010
0010
0001
1000
0100
0100
1000
0001
0010
0001
,
0010
1000
1000
0010
0001
0001
1000
0010
0001
0010
0001
1000
0001
1000
0001
0010
,
0020
0030
0002
0000
0000
0000
0000
0000
0000
0000
0000
0000
0000
0000
0000
0000
0000
0000
0000
0000
0000
0000
0000
0000
0000
0000
0000
0000
0000
0000
0000
0000
0000
0000
0000
0000
0000
0000
0000
0000
0000
0000
0000
0000
0000
0000
0000
0000
0000
0000
0000
0000
0000
0000
0000
0000
0000
0000
0000
0000
0000
0000
0000
0000
0000
0000
0000
0000
0000
0000
0000
0000
0000
0000
0000
0000
0000
0000
0000
0000
0000
0000
0000
0000
0000
0000
0000
0000
0000
0000
0000
0000
0000
0000
0000
0000
0000
0000
0000
0000
0000
0000
0000
0000
0000
0000
0000
0000
0000
0000
0000
0000
0000
0000
0000
0000
0000
0000
0000
0000
0000
0000
0000
0000
0000
0000
0000
0000
0000
0000
0000
0000
0000
0000
0000
0000
0000
0000
0000
0000
0000
0000
0000
0000
0000
0000
0000
0000
0000
0000
0000
0000
0000
0000
0000
0000
0000
0000
0000
0000
0000
0000
0000
0000
0000
0000
0000
0000
0000
0000
0000
0000
0000
0000
0000
0000
0000
0000
0000
0000
0000
0000
0000
0000
0000
0000
0000
0000
0000
0000
0000
0000
,
0003
2000
0000
0000
,
0000
0000
0000
0000
,
0000
3000
0000
0000
;

//---------------dance-single - ----------------
#NOTES:
     dance-single:
     :
     Easy:
     7:
     0.500,0.399,0.000,0.026,0.000,401.000,0.000,3.000,0.000,0.000:
0000
0000
0000
2000
,
0000
3000
1000
0100
0001
1000
0010
0001
,
1000
0001
1000
0100
0100
0010
0001
0100
,
0001
1000
0010
1000
0010
0001
1000
0001
,
1000
0010
1000
0010
1000
0010
1000
1000
,
0010
0001
0001
1000
0001
0001
0100
0010
,
1000
0100
1000
0001
0001
0001
0100
0001
,
0001
0010
0010
1000
0100
0100
1000
1000
,
0010
0100
0001
0001
0010
1000
0100
1000
,
0100
1000
1000
0010
0010
0010
1000
0100
,
0001
0100
0010
0010
0001
0010
0001
0100
,
0001
0001
1000
0100
1000
1000
0100
0100
,
0010
1000
0010
0100
0001
0010
0100
0100
,
0001
0010
0010
1000
0010
0001
1000
1000
,
1000
0100
0100
1000
0001
0010
0001
1000
,
1000
0001
0001
0001
0010
0001
0001
1000
,
0010
0001
0100
1000
0100
1000
1000
0010
,
1000
0100
1000
1000
0100
0001
0001
0100
,
0100
0010
0001
0010
0001
0100
1000
1000
,
1000
0100
0100
0001
0100
1000
0010
0010
,
1000
0001
0100
0010
0010
0100
0001
0100
,
0010
0100
1000
0010
1000
0100
0010
0010
,
0010
0001
0010
0100
1000
0001
0001
0100
,
0010
0010
1000
1000
0001
0010
0001
0010
,
1000
0100
0010
0001
0010
1000
0001
0001
,
0001
1000
0010
1000
1000
0010
0010
0010
,
0010
0001
0001
1000
0001
0001
0001
0001
,
0010
0100
0001
0010
0100
1000
0010
1000
,
0100
0001
0100
0100
0010
0100
0001
0010
,
0001
0100
0001
0001
0001
0001
1000
0001
,
0001
0100
0100
0010
0001
1000
0010
0010
,
0010
0100
0001
1000
0001
0001
0001
0010
,
0001
1000
0100
0100
0001
0100
1000
0100
,
0010
0001
0010
0010
1000
0001
0010
0001
,
0001
0100
1000
1000
1000
0010
1000
1000
,
0010
0100
0001
0100
1000
0010
0010
1000
,
0010
0001
1000
0100
0001
0100
0100
0001
,
0010
0100
1000
0001
0010
0010
0100
0010
,
0001
0100
0010
0010
0001
0100
0001
0100
,
1000
0010
1000
0001
0010
0001
0001
1000
,
0001
0010
0010
1000
0010
0010
1000
0001
,
0100
0010
0001
0001
0100
1000
0100
0100
,
1000
1000
0010
0010
1000
0001
1000
1000
,
0100
1000
0010
0001
0100
1000
1000
0001
,
1000
0010
1000
0010
0010
0001
0010
0001
,
0001
0010
0100
0100
0001
0010
0100
0010
,
0010
1000
0001
1000
0001
0010
0001
0001
,
0100
0010
1000
0100
0010
0010
0100
0100
,
0100
0010
0010
0100
0001
1000
1000
1000
,
0100
0001
0001
0010
0100
0100
0001
0010
,
0010
0001
0100
0001
0001
0001
0010
1000
,
2000
0000
0000
0000
,
3000
0020
0000
0000
,
0000
0000
0000
0000
,
0000
0030
0000
0000
;

//---------------dance-single - ----------------
#NOTES:
     dance-single:
     :
     Beginner:
     3:
     0.252,0.211,0.000,0.026,0.000,201.000,0.000,3.000,0.000,0.000:
0000
0000
0000
0020
,
0000
0030
0001
1000
,
0010
0100
0010
0010
,
0100
0010
0001
0001
,
1000
1000
0001
1000
,
1000
0010
0010
0100
,
1000
0001
0010
0001
,
0010
1000
0001
1000
,
1000
1000
0100
0001
,
0100
0100
0100
0100
,
0010
0010
0001
0001
,
1000
0001
0001
0001
,
1000
0010
1000
0001
,
0001
1000
1000
0001
,
0010
0001
1000
0010
,
0001
0100
0010
0100
,
1000
0010
0100
1000
,
0100
0001
0001
0100
,
0010
0010
0100
0010
,
1000
0100
1000
0100
,
0001
0001
1000
0001
,
0010
0001
0001
0001
,
1000
0001
0100
0001
,
0010
0010
1000
0001
,
0001
1000
1000
0010
,
1000
0010
0010
0100
,
0100
1000
0001
0001
,
0010
0100
1000
0100
,
0001
0100
0010
0100
,
0001
0010
0001
0100
,
0100
1000
0010
0100
,
0001
0010
0010
1000
,
0010
0010
0100
0010
,
0001
0010
0001
0100
,
0001
0100
0100
0010
,
1000
0001
0010
0010
,
0100
0001
0100
0010
,
0001
0100
0100
0100
,
1000
1000
0100
1000
,
0100
1000
0010
0001
,
0001
0001
0100
1000
,
1000
0100
0001
0100
,
0001
1000
1000
1000
,
0010
0001
0100
0100
,
0001
0100
0010
0010
,
0010
0010
1000
0001
,
0001
0001
1000
0010
,
0001
0100
0010
0100
,
0100
1000
0001
1000
,
0100
1000
1000
0100
,
1000
0010
0001
0100
,
0020
0000
0000
0000
,
0030
0200
0000
0000
,
0000
0000
0000
0000
,
0000
0300
0000
0000
;
