#TITLE:Strangeprogram;
#SUBTITLE:;
#ARTIST:DJ Sharpnel;
#TITLETRANSLIT:;
#SUBTITLETRANSLIT:;
#ARTISTTRANSLIT:;
#CREDIT:;
#BANNER:StrangeProgram-Banner.jpg;
#BACKGROUND:StrangeProgram-BG.jpg;
#LYRICSPATH:;
#CDTITLE:cdtitle.jpg;
#MUSIC:Strangeprogram.mp3;
#OFFSET:-3.890;
#SAMPLESTART:61.689;
#SAMPLELENGTH:12.000;
#SELECTABLE:YES;
#BPMS:0.000=215.000;
#STOPS:64.000=3.320
;
#BGCHANGES:;
// cache tags:
#FIRSTBEAT:0.000;
#LASTBEAT:421.167;
#SONGFILENAME:Songs/Community Keyboard Megapack - Volume 2/(DTM) Strangeprogam/Strangeprogram.sm;
#HASMUSIC:1;
#HASBANNER:1;
#MUSICLENGTH:126.720;
// end cache tags

//---------------dance-single - ----------------
#NOTES:
     dance-single:
     :
     Hard:
     13:
     1.000,1.000,1.000,0.055,1.000,1253.000,138.000,7.000,0.000,0.000:
1000
0000
0110
0001
0000
0010
1100
0000
,
0010
0000
0101
0010
0000
0100
1010
0000
,
0100
0000
0011
0100
0000
0010
1100
0000
,
0001
0000
0101
0010
0000
0100
1010
0000
,
0001
0000
0110
1000
0000
1000
0110
0000
,
0100
0000
1001
0010
0000
0100
1001
0000
,
0010
0000
0101
0010
0000
0100
1010
0000
,
0100
0100
0100
0100
0100
0100
0100
0100
,
0001
0100
0001
0010
0100
1000
0001
1000
0001
0010
0100
1000
0100
1000
0010
0100
,
0010
1000
0001
1000
0010
0100
0001
1000
0010
1000
0010
1000
0001
1000
0001
1000
,
0010
0100
0001
0010
0100
1000
0001
0100
0010
1000
0001
1000
0010
1000
0010
0100
,
0001
0100
0001
0100
0010
0100
0010
0100
0001
1000
0010
0100
0001
1000
0001
1000
,
0100
1000
0010
0100
0001
0100
0001
0100
0010
1000
0010
1000
0100
1000
0001
1000
,
0100
1000
0001
0100
0001
1000
0010
0100
0001
1000
0001
1000
0100
0010
0001
1000
,
0010
0100
0010
0100
0001
1000
0010
0100
0001
1000
0100
0010
0001
1000
0100
1000
,
0010
0010
0010
0010
0010
0010
0010
0010
,
0110
0000
0000
0000
,
0001
0010
0001
0010
0001
0100
0001
0100
0010
1000
0010
1000
0010
0100
0010
0100
,
0001
1000
0010
0100
0001
1000
0001
1000
0010
0100
0001
0010
0100
1000
0010
0100
,
0001
1000
0100
1000
0010
0100
0001
1000
0010
0100
0001
1000
0100
1000
0001
1000
,
0100
0010
0001
0100
0001
0100
0010
1000
0010
1000
0100
1000
0010
0000
0100
0000
,
0001
0100
0010
0100
0001
1000
0010
1000
0001
0100
0010
0100
0001
0010
0100
0010
,
0001
1000
0100
1000
0100
0010
0001
0010
0001
1000
0010
0100
0001
0010
0100
1000
,
0100
0010
0001
0010
0100
1000
0100
1000
0100
0010
0100
0010
0100
0010
0001
0010
,
0001
0000
0100
0100
0100
0100
0100
0100
,
1010
0100
0011
1000
0110
0001
1010
0100
,
0011
0100
1010
0001
0110
1000
0101
0010
,
1100
0010
0101
0010
1100
0001
1010
0100
,
0011
0100
1010
0100
1001
0100
1010
1010
,
1010
0100
0011
0100
1010
0100
0000
0010
,
1001
0100
0010
0001
0000
0010
0100
0000
,
1000
0100
0000
0010
0001
0000
0010
0100
,
0000
1000
0100
0000
0010
2200
0000
3300
,
1000
0010
1000
0010
1000
0001
1000
0001
1000
0010
1000
0010
1000
0100
1000
0100
,
1000
0001
0010
0001
0010
0001
1000
0001
1000
0001
0100
0001
0100
0001
0010
0001
,
0010
0100
1000
0100
0010
0001
1000
0010
0100
0001
1000
0010
0100
0001
1000
0100
,
0010
0001
0100
0010
1000
0001
1000
0010
0100
0001
0010
0100
0010
0000
0010
0000
,
0010
0001
1000
0001
1000
0010
0100
0001
1000
0010
0100
0001
1000
0010
1000
0010
,
1000
0001
0010
0100
1000
0010
0100
0010
1000
0001
0100
0010
1000
0100
0010
0001
,
0010
0100
1000
0001
1000
0001
0100
0010
1000
0100
0010
0001
1000
0010
0100
0001
,
1000
0100
1000
0010
0100
0001
0100
0001
1000
0000
1000
0000
1000
0000
1000
0000
,
0010
1000
0001
0100
0010
1000
0001
0100
0010
1000
0100
1000
0001
0010
0100
1000
,
0001
0100
0010
1000
0001
0010
0100
1000
0001
0100
0010
1000
0010
0100
0001
0100
,
0010
1000
0001
0100
0010
1000
0001
0100
0010
1000
0100
1000
0001
0100
0001
0100
,
0010
0100
0001
1000
0010
0100
0001
0010
0100
1000
0001
1000
0100
0000
0001
0000
,
1000
0100
1000
0010
1000
0001
1000
0010
,
0001
0010
0001
0100
0001
1000
0001
0010
,
0100
1000
0100
0010
0100
0001
0100
1000
,
0010
0100
0020
0000
0030
0110
1100
0110
,
0011
0100
1010
0100
0011
0100
1010
1010
,
0100
0011
0110
1100
1010
0101
0110
1001
,
0101
0010
1100
0010
0101
0010
1010
0101
,
0010
1100
0110
0011
1001
0110
1100
0110
,
0011
0100
1010
0100
0011
0100
1010
0101
,
0010
1100
0110
0011
0100
1100
0110
0011
,
0100
0011
0110
1100
0010
1100
0110
0011
,
0100
1010
1010
0100
0010
0101
1010
0101
,
0110
0001
0110
1000
0110
1000
0110
0011
,
0100
1001
0110
0011
1100
0110
1001
0011
,
1100
0010
0101
0010
1001
0100
1010
0110
,
0001
0110
0011
1001
0110
1010
0101
0110
,
1100
0010
0101
0010
1100
0010
1100
0011
,
0100
1010
0101
0011
0100
0011
0101
1010
,
0100
0011
0101
1001
0100
1010
0101
1010
,
0100
0000
1010
0000
2020
0000
0000
0000
0000
0000
0000
0000
0000
3030
0000
0000
,
1000
0100
1000
0100
1000
0000
0010
0000
0001
0010
0001
0010
0001
0000
0100
0000
,
1000
0100
0010
0001
0010
0001
0010
0000
0010
0100
1000
0100
0010
0001
0010
0000
,
0001
0000
0010
0100
0010
0100
0010
0000
0001
1000
0001
1000
0001
0000
1000
0100
,
0010
0000
0010
0001
0010
0001
0010
0000
0010
0100
1000
0100
0010
0000
0001
0010
,
0100
0000
0100
1000
0100
1000
0100
0000
0001
1000
0001
1000
0001
0000
0010
0100
,
1000
0000
1000
0100
0010
0001
0010
0000
0010
0001
0010
0100
1000
0000
0001
0100
,
0010
0000
0010
0100
0010
0100
0010
0000
1000
0001
1000
0001
1000
0000
1000
0100
,
0010
1001
0000
1001
0000
1001
0000
1001
,
0001
0100
0001
0100
0010
1000
0010
1000
0100
1000
0100
1000
0001
0010
0001
0010
,
0001
0010
0100
1000
0010
0100
0010
1000
0001
0100
0010
1000
0001
1000
0010
0100
,
0001
1000
0010
0100
0001
0100
0001
0010
0100
1000
0001
1000
0010
0100
0010
1000
,
0100
0010
0001
1000
0010
0100
0001
1000
0001
1000
0001
0100
0010
1000
0001
0010
,
0100
1000
0100
1000
0100
1000
0010
0100
0001
0100
0001
0100
0001
1000
0010
0100
,
0001
1000
0001
1000
0001
0100
0010
1000
0100
0010
0001
1000
0010
0100
0001
1000
,
0001
0010
0100
1000
0001
1000
0010
0100
0001
1000
0100
0010
0001
1000
0010
0100
,
0001
0100
0001
0100
0010
0100
0010
0100
0010
1000
0010
1000
0100
0010
0100
0010
,
0001
1000
0100
0010
0001
1000
0100
0010
0001
0010
0100
1000
0001
0010
0100
1000
,
0100
1000
0100
1000
0100
1000
0100
1000
0001
0100
0001
0100
0001
0100
0001
0100
,
0001
1000
0010
0100
0001
1000
0001
1000
0001
0010
0100
1000
0001
0010
0100
1000
,
0001
0100
0001
0100
0010
1000
0010
1000
0001
0010
0001
0010
0100
1000
0100
1000
,
0001
0010
0001
0010
0100
1000
0100
1000
0001
0100
0001
0100
0010
1000
0010
1000
,
0100
1000
0001
0100
0010
1000
0001
0100
0010
1000
0001
1000
0010
0100
0001
0010
,
0100
1000
0001
0010
0100
0010
0001
1000
0001
1000
0010
0100
0001
0010
0100
1000
,
0001
1001
0000
1001
0000
1001
0000
1001
,
0001
1000
0001
1000
0001
0010
0100
1000
0001
1000
0001
1000
0001
0010
0100
1000
,
0100
0010
0100
0010
0001
0010
0100
1000
0100
0010
0100
0010
0001
0010
0100
1000
,
0010
0100
0001
1000
0010
0100
0001
1000
0100
0010
0001
1000
0100
0010
0001
1000
,
0100
0010
0100
0010
0001
1000
0001
1000
0100
0010
0100
0010
0001
1000
0001
1000
,
0100
1000
0100
1000
0010
0100
0010
0100
0001
0010
0001
0010
0100
0010
0100
0010
,
0001
1000
0001
1000
0010
0100
0001
1000
0010
0100
0010
0100
0001
1000
0010
0100
,
0001
0100
0001
0100
0001
0010
0001
0010
0100
1000
0100
1000
0001
1000
0001
1000
,
0010
0100
0001
0010
0100
1000
0010
0100
0001
1000
0010
0100
0001
1000
0001
1000
,
0100
0010
0001
1000
0100
0010
0001
1000
0100
1000
0100
0010
0001
1000
0001
1000
,
0010
0100
0001
0010
0100
1000
0100
1000
0100
0010
0100
0010
0001
0010
0001
0010
,
0001
0100
0001
0100
0010
1000
0010
1000
0001
0010
0100
1000
0001
0010
0100
1000
,
0100
1000
0100
0010
0001
1000
0001
0100
0010
1000
0001
1000
0010
0100
0001
1000
,
0010
0100
0001
1000
0001
1000
0010
0100
0001
1000
0001
1000
0010
0100
0010
0100
,
0010
0100
0001
1000
0100
1000
0100
1000
0100
0010
0001
1000
0100
0010
0001
0100
,
0001
0010
0001
0010
0001
0010
0001
0010
,
0100
0100
0000
0100
0000
0100
0100
0100
,
2002
0000
0000
0000
0000
0000
0000
3003
0000
0000
0000
0000
0000
0000
0000
0000
0000
0000
0000
0000
0000
0000
0000
0000
;
