#TITLE:9.1.1;
#SUBTITLE:;
#ARTIST:Hoodie;
#TITLETRANSLIT:;
#SUBTITLETRANSLIT:;
#ARTISTTRANSLIT:;
#CREDIT:;
#BANNER:../fthescorept1bn.png;
#BACKGROUND:../fthescorept1bg.png;
#LYRICSPATH:;
#CDTITLE:;
#MUSIC:9.1.1.ogg;
#OFFSET:-0.019;
#SAMPLESTART:22.340;
#SAMPLELENGTH:14.000;
#SELECTABLE:YES;
#BPMS:0.000=140.000,72.500=159.040,73.000=178.240,73.500=199.040,74.000=220.640,74.500=241.440,75.000=261.440,75.500=282.240,76.000=301.440,76.500=320.639,77.000=339.839,77.500=362.239,78.000=385.439,78.500=408.638,79.000=421.438,79.250=437.438,79.500=453.437,79.750=471.837,80.000=487.837,80.250=499.037,80.500=509.437,80.750=521.436,81.000=531.036,81.250=539.036,81.500=546.236,81.750=553.436,82.000=560.636,82.250=567.036,82.500=574.236,82.750=580.636,83.000=587.035,83.250=591.835,83.500=595.835,83.750=598.235,84.000=600.635,84.250=602.235,84.500=602.655,84.750=603.655,85.000=604.875,85.250=605.875,85.500=610.075,85.750=614.075,86.000=618.875,86.250=622.875,86.500=627.675,86.750=633.275,87.000=638.075,87.250=642.075,87.500=646.875,87.750=651.675,88.000=656.475,88.250=661.275,88.500=666.075,88.750=671.674,89.000=676.474,89.250=681.274,89.500=686.074,89.750=690.074,90.000=694.074,90.250=698.074,90.500=700.474,90.750=702.874,91.000=706.074,91.250=708.474,91.500=711.674,91.750=714.074,92.000=715.894,92.250=717.294,92.500=721.694,92.750=724.894,93.000=725.694,93.250=735.294,93.500=740.094,93.750=744.094,94.000=748.893,94.250=752.893,94.500=756.893,94.750=760.893,95.000=765.693,95.250=769.693,95.500=774.493,95.750=778.493,96.000=783.293,96.250=787.293,96.500=791.293,96.750=796.093,97.000=800.093,97.250=803.293,97.500=808.093,97.750=812.093,98.000=816.092,98.250=820.892,98.500=824.092,98.750=828.092,99.000=832.092,99.250=836.092,99.500=840.092,99.750=844.092,100.000=848.092,100.250=852.092,100.500=856.092,100.750=860.092,101.000=864.092,101.250=868.892,101.500=872.892,101.750=876.892,102.000=880.891,102.250=884.891,102.500=889.691,102.750=893.691,103.000=897.691,103.250=902.491,103.500=904.711,103.750=905.511,104.000=909.311,104.250=917.311,104.500=924.511,104.750=930.911,105.000=938.911,105.250=949.311,105.500=961.310,105.750=970.910,106.000=979.710,106.250=988.510,106.500=994.110,106.750=999.710,107.000=1003.710,107.250=1007.710,107.500=1009.310,107.750=1011.710,108.000=1013.310;
#STOPS:;
#BGCHANGES:;
// cache tags:
#FIRSTBEAT:0.000;
#LASTBEAT:124.000;
#SONGFILENAME:Songs/Fuck The Score Part I/911 [Dossar]/9.1.1.sm;
#HASMUSIC:1;
#HASBANNER:1;
#MUSICLENGTH:37.929;
// end cache tags

//---------------dance-single - ----------------
#NOTES:
     dance-single:
     :
     Challenge:
     24:
     1.000,1.000,0.000,0.026,1.000,473.000,0.000,1.000,0.000,0.000:
1000
0010
0100
0001
1000
0010
0100
0001
1000
0010
0100
0001
1000
0010
0100
0001
,
1000
0100
0010
0001
1000
0100
0010
0001
,
1000
0010
0100
0001
1000
0010
0100
0001
1000
0010
0100
0001
1000
0010
0100
0001
,
1000
0100
0010
0001
1000
0100
0010
0001
,
1000
0100
0010
0001
1000
0100
0010
0001
,
1000
0010
0100
0001
1000
0001
1000
0100
1000
0001
0100
0010
1000
0001
0100
0001
1000
0010
0100
0001
1000
0010
1000
0010
0100
0001
1000
0001
1000
0010
0100
0001
,
1000
0100
0010
0001
1000
0100
0010
0001
1000
0100
0010
0001
1000
0100
0010
0001
1000
0100
1000
0001
0010
0100
1000
0001
0010
0001
1000
0100
0010
0001
0010
0100
,
1000
0001
0100
0010
1000
0001
1000
0100
1000
0001
0100
0001
1000
0010
0100
0001
0100
0010
1000
0001
0100
0001
1000
0010
0100
0001
1000
0001
0100
0010
0100
0001
,
1000
0100
0010
0001
1000
0100
1000
0001
0010
0100
1000
0001
0010
0001
1000
0100
0010
0001
1000
0100
1000
0001
0010
0100
1000
0001
0010
0001
1000
0100
0010
0001
,
1000
0010
0100
0001
0100
0001
1000
0010
0100
0001
0100
0001
1000
0010
0100
0001
1000
0001
1000
0100
1000
0001
0100
0001
1000
0010
0100
0001
1000
0001
0100
0001
,
1000
0100
0010
0001
1000
0100
0010
0001
1000
0100
0010
0001
1000
0100
1000
0001
0010
0001
1000
0100
0010
0001
0010
0100
1000
0001
0010
0001
1000
0100
0010
0001
,
1000
0010
0100
0001
1000
0001
1000
0100
1000
0001
0100
0010
1000
0001
0100
0001
1000
0100
1000
0001
0100
0010
1000
0001
0100
0001
1000
0010
0100
0001
0100
0001
,
1000
0100
0010
0001
1000
0100
0010
0001
1000
0100
1000
0001
0010
0100
1000
0001
0010
0001
1000
0100
0010
0001
1000
0100
1000
0001
0010
0001
1000
0100
0010
0001
,
1000
0010
0100
0001
1000
0001
0100
0010
1000
0001
1000
0100
1000
0001
0100
0010
1000
0001
0100
0001
1000
0010
0100
0001
1000
0100
1000
0001
1000
0001
0100
0001
,
1000
0100
0010
0001
1000
0100
0010
0001
1000
0100
1000
0001
0010
0100
1000
0001
0010
0001
1000
0100
0010
0001
1000
0100
1000
0001
0010
0001
1000
0100
0010
0001
,
1000
0010
0100
0001
1000
0001
0100
0010
1000
0001
1000
0100
1000
0001
0100
0010
1000
0001
0100
0001
1000
0010
0100
0001
1000
0100
1000
0001
1000
0001
0100
0001
,
1000
0100
0010
0001
1000
0100
0010
0001
1000
0100
1000
0001
0010
0100
1000
0001
0010
0001
1000
0100
0010
0001
1000
0100
1000
0001
0010
0001
1000
0100
0010
0001
,
1000
0010
0100
0001
1000
0001
0100
0010
1000
0001
1000
0100
1000
0001
0100
0010
1000
0001
0100
0010
1000
0001
0100
0001
1000
0100
1000
0001
1000
0001
0100
0010
,
2000
0000
0000
0000
,
0000
0000
0000
0000
,
0000
0000
0000
0000
,
0000
0000
0000
0000
,
0000
0000
0000
0000
,
0000
0000
0000
0000
,
0000
0000
0000
0000
,
0000
0000
0000
0000
,
0000
0000
0000
0000
,
0000
0000
0000
0000
,
0000
0000
0000
0000
,
0000
0000
0000
0000
,
0000
0000
0000
0000
,
3000
0000
0000
0000
;

//---------------dance-single - ----------------
#NOTES:
     dance-single:
     :
     Hard:
     22:
     1.000,1.000,0.000,1.000,1.000,409.000,0.000,65.000,0.000,0.000:
1000
0010
0100
0001
1000
0010
0100
0001
1000
0010
0100
0001
1000
0010
0100
0001
,
1000
0100
0010
0001
1000
0100
0010
0001
,
1000
0010
0100
0001
1000
0010
0100
0001
1000
0010
0100
0001
1000
0010
0100
0001
,
1000
0100
0010
0001
1000
0100
0010
0001
,
1000
0100
0010
0001
1000
0100
0010
0001
,
1000
0010
0100
0001
1000
0001
1000
0100
1000
0001
0100
0010
1000
0001
0100
0001
1000
0010
0100
0001
1000
0010
1000
0010
0100
0001
1000
0001
1000
0010
0100
0001
,
1000
0001
0010
0100
1000
0001
0010
0001
1000
0100
0010
0001
1000
0100
0010
0001
1000
0100
1000
0001
0010
0100
1000
0001
0010
0001
1000
0100
0010
0001
0010
0100
,
1000
0001
0100
0010
1000
0001
1000
0100
1000
0001
0100
0001
1000
0010
0100
0001
0100
0010
1000
0001
0100
0001
1000
0010
0100
0001
1000
0001
0100
0010
0100
0001
,
1000
0100
0010
0001
1000
0100
1000
0001
0010
0001
1000
0100
0010
0001
1000
0100
0010
0001
1000
0100
1000
0001
0010
0100
1000
0001
0010
0001
1000
0100
0010
0001
,
2000
3200
0320
0032
2003
3200
0320
0032
2003
3200
0320
0032
2003
3200
0320
0032
,
2003
3020
0230
0302
2003
3020
0230
0302
2003
3020
0230
0302
2003
3020
0230
0302
,
0023
0230
2300
3002
0023
0230
2300
3002
0023
0230
2300
3002
0023
0230
2300
3002
,
0203
0320
2030
3002
0203
0320
2030
3002
0203
0320
2030
3002
0203
0320
2030
3002
,
1003
0010
0100
0001
1000
0001
0100
0010
1000
0001
1000
0100
1000
0001
0100
0010
1000
0001
0100
0001
1000
0010
0100
0001
1000
0100
1000
0001
1000
0001
0100
0010
,
1000
0001
0010
0001
1000
0100
0010
0001
1000
0100
1000
0001
0010
0100
1000
0001
0010
0001
1000
0100
1000
0001
0010
0100
1000
0001
0010
0001
1000
0100
0010
0001
,
1000
0010
0100
0001
1000
0001
0100
0010
1000
0001
1000
0100
1000
0001
0100
0010
1000
0001
0100
0001
1000
0010
1000
0001
0100
0010
1000
0001
0100
0001
1000
0010
,
1000
0001
0010
0100
1000
0001
0010
0001
1000
0100
1000
0001
0010
0100
1000
0001
0010
0001
1000
0100
0010
0001
1000
0100
1000
0001
0010
0001
1000
0100
0010
0001
,
1000
0010
0100
0001
1000
0001
0100
0010
1000
0001
1000
0100
1000
0001
0100
0010
1000
0001
0100
0010
1000
0001
0100
0001
1000
0100
1000
0001
1000
0001
0100
0010
,
2000
0000
0000
0000
,
0000
0000
0000
0000
,
0000
0000
0000
0000
,
0000
0000
0000
0000
,
0000
0000
0000
0000
,
0000
0000
0000
0000
,
0000
0000
0000
0000
,
0000
0000
0000
0000
,
0000
0000
0000
0000
,
0000
0000
0000
0000
,
0000
0000
0000
0000
,
0000
0000
0000
0000
,
0000
0000
0000
0000
,
3000
0000
0000
0000
;

//---------------dance-single - ----------------
#NOTES:
     dance-single:
     :
     Medium:
     17:
     1.000,1.000,0.000,1.000,1.000,373.000,0.000,65.000,0.000,0.000:
1000
0010
0100
0001
1000
0010
0100
0001
1000
0010
0100
0001
1000
0010
0100
0001
,
1000
0100
0010
0001
1000
0100
0010
0001
,
1000
0010
0100
0001
1000
0010
0100
0001
1000
0010
0100
0001
1000
0010
0100
0001
,
1000
0100
0010
0001
1000
0100
0010
0001
,
1000
0100
0010
0001
1000
0100
0010
0001
,
1000
0010
0100
0001
1000
0001
0100
0000
0001
1000
0010
1000
0001
0100
0001
0000
1000
0010
0100
0001
1000
0100
1000
0000
0001
0100
0001
1000
0010
1000
0001
0000
,
1000
0100
0010
0001
1000
0100
1000
0000
0001
0010
0100
1000
0001
0010
0001
0000
1000
0100
0010
0001
0010
0100
1000
0000
0001
0010
0100
1000
0100
0010
0001
0000
,
1000
0010
0100
0001
1000
0010
1000
0000
0001
0100
0010
1000
0001
0100
0001
0000
1000
0010
0100
0001
1000
0010
1000
0000
0001
0100
0010
1000
0001
0100
0001
0000
,
1000
0100
0010
0001
0010
0100
1000
0000
0001
0010
0100
1000
0100
0010
0001
0000
1000
0100
0010
0001
1000
0100
1000
0000
0001
0010
0100
1000
0001
0010
0001
0000
,
2000
3200
0320
0032
2003
3200
0320
0032
2003
3200
0320
0032
2003
3200
0320
0032
,
2003
3020
0230
0302
2003
3020
0230
0302
2003
3020
0230
0302
2003
3020
0230
0302
,
0023
0230
2300
3002
0023
0230
2300
3002
0023
0230
2300
3002
0023
0230
2300
3002
,
0203
0320
2030
3002
0203
0320
2030
3002
0203
0320
2030
3002
0203
0320
2030
3002
,
1003
0010
0100
0001
0100
0010
1000
0000
0001
0100
0010
1000
0010
0100
0001
0000
1000
0010
0100
0001
1000
0010
1000
0000
0001
0100
0010
1000
0001
0100
0001
0000
,
1000
0100
0010
0001
1000
0100
1000
0000
0001
0010
0100
1000
0001
0010
0001
0000
1000
0100
0010
0001
0010
0100
1000
0000
0001
0010
0100
1000
0100
0010
0001
0000
,
1000
0010
0100
0001
1000
0010
1000
0000
0001
0100
0010
1000
0001
0100
0001
0000
1000
0010
0100
0001
1000
0010
1000
0000
0001
0100
0010
1000
0001
0100
0001
0000
,
1000
0100
0010
0001
0010
0100
1000
0000
0001
0010
0100
1000
0100
0010
0001
0000
1000
0100
0010
0001
1000
0100
1000
0000
0001
0010
0100
1000
0001
0010
0001
0000
,
1000
0010
0100
0001
1000
0001
1000
0000
0010
0100
0001
1000
0001
1000
0100
0000
1000
0001
0100
0001
1000
0010
0100
0000
0001
1000
0010
1000
0001
0100
0010
0000
,
2000
0000
0000
0000
,
0000
0000
0000
0000
,
0000
0000
0000
0000
,
0000
0000
0000
0000
,
0000
0000
0000
0000
,
0000
0000
0000
0000
,
0000
0000
0000
0000
,
0000
0000
0000
0000
,
0000
0000
0000
0000
,
0000
0000
0000
0000
,
0000
0000
0000
0000
,
0000
0000
0000
0000
,
0000
0000
0000
0000
,
3000
0000
0000
0000
;
