#TITLE:ハレ晴レユカイ;
#SUBTITLE:(Full Version);
#ARTIST:涼宮ハルヒ・長門有希・朝比奈みくる;
#TITLETRANSLIT:Hare Hare Yukai;
#SUBTITLETRANSLIT:;
#ARTISTTRANSLIT:Haruhi Suzumiya & Yuki Nagato & Mikuru Asahina;
#CREDIT:;
#BANNER:nɦJC (Full Version)-bn.bmp;
#BACKGROUND:nɦJC (Full Version)-bg.bmp;
#LYRICSPATH:;
#CDTITLE:;
#MUSIC:nɦJC (Full Version).mp3;
#OFFSET:0.016;
#SAMPLESTART:122.780;
#SAMPLELENGTH:12.000;
#SELECTABLE:YES;
#BPMS:0.000=172.000;
#STOPS:;
#BGCHANGES:;
// cache tags:
#FIRSTBEAT:8.000;
#LASTBEAT:600.500;
#SONGFILENAME:Songs/longs versions/chinois 1/nɦJC (Full Version).sm;
#HASMUSIC:1;
#HASBANNER:1;
#MUSICLENGTH:210.636;
// end cache tags

//---------------dance-single - ----------------
#NOTES:
     dance-single:
     :
     Hard:
     8:
     0.659,0.641,0.622,0.090,0.024,822.000,131.000,19.000,0.000,0.000:
0000
0000
0000
0000
,
0000
0000
0000
0000
,
1010
0000
1000
0001
0000
0010
0001
0000
,
0101
0000
0010
1000
0000
0001
0100
0000
,
0020
0000
0000
2000
0000
3030
0000
0101
,
0000
1000
0100
1000
0000
0001
0100
0001
,
0011
0000
0001
0100
0000
0010
1000
0000
,
0011
0000
0100
0010
0000
1000
0100
0000
,
2000
0000
0000
0002
0000
3003
0000
1100
,
0000
0101
0000
1001
0000
0001
0100
0001
,
0100
0000
0010
1000
0000
0100
1000
0100
,
1000
0000
0001
0100
0000
0010
0001
0010
,
0100
0000
1000
0100
0000
0001
0100
0010
,
0000
1010
0000
1100
0000
1001
0000
0001
,
0010
0000
0001
0100
0000
1000
0100
0010
,
0000
0000
1000
0000
0000
0000
0001
0000
0100
0000
0000
0010
0000
0000
1000
0000
,
0001
0000
0010
0100
0000
1000
0100
1000
,
0000
0010
0100
0010
0001
1000
0100
0010
,
0010
0000
0100
0001
0000
0010
0001
0010
,
0001
0000
1000
0010
0000
0100
1000
0100
,
0010
0000
0001
0010
0000
1000
0010
0100
,
0000
0101
0000
0011
0000
1001
0000
1000
,
0100
0000
1000
0010
0000
0001
0010
0100
,
0000
0001
0000
1000
0010
0100
0000
0001
,
1000
0000
0100
0010
0000
0001
0010
0001
,
0000
1000
0100
1000
0100
1000
0001
0100
,
0020
0000
0030
1000
0100
0000
1000
0001
,
0000
0101
0000
0010
0200
0000
0300
0000
,
2000
0000
3000
0001
0100
0000
0001
0010
,
0000
0011
0000
0101
0000
0000
0001
0100
,
0001
0100
0010
1000
0000
0001
0100
0001
,
0000
0010
0100
1000
0000
0001
0100
0010
,
1000
0001
1000
0100
1000
0001
1000
0100
,
0000
0101
0000
1100
0110
0000
0000
0000
,
0001
0100
0001
0000
1000
0100
0010
0000
,
0100
0010
0100
1000
0100
0010
0001
0000
,
1000
0010
1000
0000
1001
0000
0001
0100
,
0010
1000
0100
1000
0010
1000
0001
0000
,
0011
0000
0101
0000
0001
1000
0010
0000
,
1100
0000
0110
0000
1000
0001
0010
0000
,
0001
0100
1000
0100
0010
1000
0100
1000
,
0000
0011
0000
1010
0000
1001
0000
0000
,
0000
0000
1001
0000
0001
0100
0010
0000
,
1000
0001
0100
0001
1000
0001
0100
0000
,
0010
1000
0010
0000
0100
0001
0010
0001
,
1000
0100
0010
0001
0100
0001
1000
0000
,
1010
0000
0100
0001
0000
1000
0010
0000
,
0101
0000
0001
0100
0000
0010
1000
0000
,
0001
0011
1001
1010
,
1001
1100
0110
0011
,
0100
0000
0000
0001
0100
0000
0010
0000
0000
0000
1000
0000
0100
0000
1000
0000
,
0001
0000
0000
0010
0001
0000
0100
0000
0000
0000
0010
0000
1000
0000
0010
0000
,
0100
0000
0000
1000
0100
0000
0010
0000
0000
0000
1000
0000
0100
0000
0010
0000
,
1001
0000
0000
0000
0000
0001
0100
0101
,
0000
0010
1010
0000
1000
0100
1100
0000
,
0010
0001
1001
0001
1100
0000
0010
1000
,
0101
0000
0001
1000
0000
0100
1000
0000
,
1010
0000
0100
0001
0000
1000
0010
0000
,
0200
0000
0001
0302
0000
1003
0001
1010
,
0000
0001
0010
0001
0000
1000
0010
1000
,
1100
0000
1000
0010
0000
0100
0001
0000
,
1100
0000
0010
0100
0000
0001
0010
0000
,
0002
0000
1000
2000
0003
3000
0001
0011
,
0000
1010
0000
1001
0000
1000
0010
1000
,
0010
0000
0100
0001
0000
0010
0001
0010
,
0001
0000
1000
0010
0000
0100
1000
0100
,
0010
0000
0001
0010
0000
1000
0010
0100
,
0000
0101
0000
0011
0000
1001
0000
1000
,
0100
0000
1000
0010
0000
0001
0010
0100
,
0000
0001
0000
1000
0010
0100
0000
0001
,
1000
0000
0100
0010
0000
0001
0010
0001
,
0000
0100
0010
0100
1000
0001
0010
0100
,
0100
0000
0010
1000
0000
0100
1000
0100
,
1000
0000
0001
0100
0000
0010
0001
0010
,
0100
0000
1000
0100
0000
0001
0100
0010
,
0000
1010
0000
1100
0000
1001
0000
0001
,
0010
0000
0001
0100
0000
0010
1000
0010
,
0000
1000
0000
0001
0100
0010
0000
1000
,
0001
0000
0010
0100
0000
1000
0100
1000
,
0000
0001
0010
0001
0010
0001
1000
0010
,
0200
0000
0300
0001
0010
0000
0001
1000
,
0000
1010
0000
0100
0020
0000
0030
0000
,
0002
0000
0003
1000
0010
0000
1000
0100
,
0000
1100
0000
1010
0000
0000
1000
0010
,
1000
0010
0100
0001
0000
1000
0010
1000
,
0000
0100
0010
0001
0000
0100
0010
1000
,
0001
0100
0001
1000
0001
0010
0001
1000
,
0000
0110
0000
1001
0101
0000
0000
0000
,
1000
0010
1000
0000
0001
0010
0100
0000
,
0010
0100
0010
0001
0010
0100
1000
0000
,
0001
0100
0001
0000
1001
0000
1000
0010
,
0100
0001
0010
0001
0100
0001
1000
0000
,
1100
0000
1010
0000
1000
0001
0100
0000
,
0011
0000
0110
0000
0001
1000
0100
0000
,
1000
0010
0001
0010
0100
0001
0010
0001
,
0000
1100
0000
0101
0000
1001
0000
0000
,
0000
0000
1001
0000
1000
0010
0100
0000
,
0001
1000
0010
1000
0001
1000
0010
0000
,
0100
0001
0100
0000
0010
1000
0100
1000
,
0001
0010
0100
1000
0010
0100
0001
0000
,
0101
0000
0010
1000
0000
0001
0100
0000
,
1010
0000
1000
0010
0000
0100
0001
0000
,
1000
1100
1001
0101
,
1001
0101
1010
1100
,
0010
0000
0000
1000
0010
0000
0100
0000
0000
0000
0001
0000
0010
0000
0001
0000
,
1000
0000
0000
0100
1000
0000
0010
0000
0000
0000
0100
0000
0001
0000
0100
0000
,
0010
0000
0000
0001
0010
0000
0100
0000
0000
0000
0001
0000
0010
0000
0100
0000
,
1001
0000
0000
0000
0000
1000
0010
1010
,
0000
0100
0101
0000
0001
0010
0011
0000
,
0100
1000
1001
0001
1010
0000
0100
0001
,
1000
1100
1010
0110
,
0101
0000
1010
0001
0000
0010
0001
0100
,
0010
1010
0101
1001
,
0010
0001
0010
0100
0000
1000
0100
0000
,
0001
0100
0001
0100
0000
1000
0100
1000
,
0000
0001
0100
0001
0000
0010
0001
0010
,
0000
0001
0000
1001
0000
0011
0000
1000
,
0001
0001
0010
0001
1000
1000
0010
0100
,
0020
0000
0030
1000
0100
0000
1000
0001
,
0000
0101
0000
0010
0200
0000
0300
0000
,
2000
0000
3000
0001
0100
0000
0001
0010
,
0000
0011
0000
0101
0000
0000
0001
0100
,
0001
0100
0010
1000
0000
0001
0100
0001
,
0000
0010
0100
1000
0000
0001
0100
0010
,
1000
0001
1000
0100
1000
0001
1000
0100
,
0000
0101
0000
1100
0110
0000
0000
0000
,
0001
0100
0001
0000
1000
0100
0010
0000
,
0100
0010
0100
1000
0100
0010
0001
0000
,
1000
0010
1000
0000
1001
0000
0001
0100
,
0010
1000
0100
1000
0010
1000
0001
0000
,
0011
0000
0101
0000
0001
1000
0010
0000
,
1100
0000
0110
0000
1000
0001
0010
0000
,
0001
0100
1000
0100
0010
1000
0100
1000
,
0000
0011
0000
1010
0000
1001
0000
0000
,
0000
0000
1001
0000
0001
0100
0010
0000
,
1000
0001
0100
0001
1000
0001
0100
0000
,
0010
1000
0010
0000
0100
0001
0010
0001
,
1000
0100
0010
0001
0100
0001
1000
0000
,
1010
0000
0100
0001
0000
1000
0010
0000
,
0101
0000
0001
0100
0000
0010
1000
0000
,
0001
0011
1001
1010
,
1001
1100
0110
0011
,
0100
0000
0000
0001
0100
0000
0010
0000
0000
0000
1000
0000
0100
0000
1000
0000
,
0001
0000
0000
0010
0001
0000
0100
0000
0000
0000
0010
0000
1000
0000
0010
0000
,
0100
0000
0000
1000
0100
0000
0010
0000
0000
0000
1000
0000
0100
0000
0010
0000
,
1001
0000
0000
0000
0000
0001
0100
0101
,
0000
0010
1010
0000
1000
0100
1100
0000
,
0010
0001
1001
0001
1100
0000
0002
0000
,
0000
2000
0000
3003
0000
0110
0000
1000
,
0100
1000
0000
0001
0100
0001
1000
1001
,
0000
0011
0000
0000
0000
0000
0000
0000
;

//---------------dance-single - ----------------
#NOTES:
     dance-single:
     :
     Easy:
     4:
     0.345,0.392,0.195,0.100,0.000,447.000,41.000,21.000,0.000,0.000:
0000
0000
0000
0000
,
0000
0000
0000
0000
,
0001
0000
0000
1000
0000
0000
0100
0000
,
1000
0000
0000
0010
0000
0000
0001
0000
,
0100
0000
0000
0110
0000
0000
0000
0001
,
0000
1000
0000
0100
0000
1000
0000
0010
,
1000
0000
0000
0001
0000
0010
0000
0000
,
0100
0000
0000
1000
0000
0010
0000
0000
,
0100
0000
0000
1010
0000
0000
0000
0001
,
0000
1000
0000
0001
0000
1000
0000
0010
,
0100
0000
0100
0000
,
0001
1000
0010
0000
,
1000
0100
0010
0001
,
1000
0100
0001
0100
,
0010
0000
1000
0000
,
0001
0100
0010
0000
,
1000
0001
0100
0000
,
0001
0010
0100
1000
,
0100
0000
0100
0000
,
0001
1000
0010
0000
,
1000
0100
0010
0001
,
1000
0100
0001
0100
,
0010
0000
1000
0000
,
0001
0100
0010
0000
,
1000
0001
0100
0000
,
1001
0010
0100
1001
,
0220
0000
0330
0000
,
1001
0000
0000
0000
,
2000
0000
3000
0000
1000
0000
0000
0001
,
0000
0100
0000
0100
0000
0000
0010
0000
,
1000
0000
0000
0100
0000
0000
0000
0001
,
0000
0000
0000
0010
0000
0000
0000
0000
,
2002
0000
0000
0000
3003
0000
0000
0001
,
0000
1000
0000
0001
1000
0000
0000
0000
,
0010
0010
0100
0100
,
0010
1000
0010
0001
,
0010
0001
0010
0001
,
0100
1010
1001
0000
,
0100
0000
0100
0000
,
0010
0000
0010
0000
,
1000
0001
1000
0100
,
1000
0001
0100
0010
,
0000
1001
0100
0100
,
0010
0010
0001
1000
,
0010
0010
0010
0010
,
0100
0001
1000
0000
,
0100
0000
0100
0000
,
0010
0000
0010
0000
,
0001
1000
0001
1000
,
0001
0001
0100
0010
,
2000
0100
0000
3100
,
0000
0010
0001
0100
,
0020
1000
0000
1030
,
0001
0000
0000
0000
0000
0000
0000
1001
,
0000
1001
0000
1001
,
0000
1001
1001
0010
,
1000
0000
0000
0001
0000
0000
0010
0000
,
0001
0000
0000
0100
0000
0000
1000
0000
,
0010
0000
0000
0110
0000
0000
0000
1000
,
0000
0001
0000
0010
0000
0001
0000
0100
,
0001
0000
0000
1000
0000
0100
0000
0000
,
0010
0000
0000
0001
0000
0100
0000
0000
,
0010
0000
0000
0101
0000
0000
0000
1000
,
0000
0001
0000
1000
0000
0001
0000
0100
,
0010
0000
0010
0000
,
1000
0001
0100
0000
,
0001
0010
0100
1000
,
0001
0010
1000
0010
,
0100
0000
0001
0000
,
1000
0010
0100
0000
,
0001
1000
0010
0000
,
1000
0100
0010
0001
,
0010
0000
0010
0000
,
1000
0001
0100
0000
,
0001
0010
0100
1000
,
0001
0010
1000
0010
,
0100
0000
0001
0000
,
1000
0010
0100
0000
,
0001
1000
0010
0000
,
1001
0100
0010
1001
,
0220
0000
0330
0000
,
1001
0000
0000
0000
,
0002
0000
0003
0000
0001
0000
0000
1000
,
0000
0010
0000
0010
0000
0000
0100
0000
,
0001
0000
0000
0010
0000
0000
0000
1000
,
0000
0000
0000
0100
0000
0000
0000
0000
,
2002
0000
0000
0000
3003
0000
0000
1000
,
0000
0001
0000
1000
0001
0000
0000
0000
,
0100
0100
0010
0010
,
0100
0001
0100
1000
,
0100
1000
0100
1000
,
0010
0101
1001
0000
,
0010
0000
0010
0000
,
0100
0000
0100
0000
,
0001
1000
0001
0010
,
0001
1000
0010
0100
,
0000
1001
0010
0010
,
0100
0100
1000
0001
,
0100
0100
0100
0100
,
0010
1000
0001
0000
,
0010
0000
0010
0000
,
0100
0000
0100
0000
,
1000
0001
1000
0001
,
1000
1000
0010
0100
,
0002
0010
0000
0013
,
0000
0100
1000
0010
,
0200
0001
0000
0301
,
1000
0000
0000
0000
0000
0000
0000
1001
,
0000
1001
0000
1001
,
0000
1001
1001
0100
,
0001
1000
0010
0100
,
0001
0010
0100
0001
,
1000
0001
1000
0100
,
0001
0100
1000
0010
,
0100
0001
1000
0100
,
0001
0100
1000
0010
,
0100
0100
0100
0100
,
0001
1000
0010
0100
,
0220
0000
0330
0000
,
1001
0000
0000
0000
,
2000
0000
3000
0000
1000
0000
0000
0001
,
0000
0100
0000
0100
0000
0000
0010
0000
,
1000
0000
0000
0100
0000
0000
0000
0001
,
0000
0000
0000
0010
0000
0000
0000
0000
,
2002
0000
0000
0000
3003
0000
0000
0001
,
0000
1000
0000
0001
1000
0000
0000
0000
,
0010
0010
0100
0100
,
0010
1000
0010
0001
,
0010
0001
0010
0001
,
0100
1010
1001
0000
,
0100
0000
0100
0000
,
0010
0000
0010
0000
,
1000
0001
1000
0100
,
1000
0001
0100
0010
,
0000
1001
0100
0100
,
0010
0010
0001
1000
,
0010
0010
0010
0010
,
0100
0001
1000
0000
,
0100
0000
0100
0000
,
0010
0000
0010
0000
,
0001
1000
0001
1000
,
0001
0001
0100
0010
,
2000
0100
0000
3100
,
0000
0010
0001
0100
,
0020
1000
0000
1030
,
0001
0000
0000
0000
0000
0000
0000
1001
,
0000
1001
0000
1001
,
0000
1001
1001
0010
,
0000
1000
0000
0000
0000
0001
0000
0000
,
0000
0010
0000
0000
0000
0001
0000
0000
,
0000
0100
0000
0000
0000
0000
0000
0000
;

//---------------dance-single - ----------------
#NOTES:
     dance-single:
     :
     Medium:
     7:
     0.533,0.641,0.489,0.081,0.000,666.000,103.000,17.000,0.000,0.000:
0000
0000
0000
0000
,
0000
0000
0000
0000
,
0001
0000
0100
0010
0000
1000
0000
0000
,
0001
0000
0010
0100
0000
0001
0000
0000
,
1000
0000
0000
0100
0000
0000
0000
0000
,
0100
0000
0100
1000
0100
0000
0010
0001
,
0010
0000
1000
0100
0000
0010
0000
0000
,
0001
0000
0100
0010
0000
1000
0000
0000
,
0001
0000
0000
0101
0000
0000
0010
0100
,
0000
0001
0000
1000
0000
0100
1000
0010
,
0100
0100
0001
0010
,
0100
0100
0010
0001
,
0100
0100
0001
0010
,
1000
0001
0100
0010
,
1001
0010
0101
1010
,
1000
0100
0010
0001
,
0100
0000
1000
0000
0010
0000
0001
1000
,
0000
0001
0100
0001
1000
0100
1000
0010
,
0001
0010
1000
0100
,
0001
0100
1000
0001
,
1000
0000
0010
0000
1000
0000
0010
0100
,
0000
0110
0000
1100
0000
0101
0000
0110
,
0000
1001
1100
0010
,
0001
0000
0100
0000
0010
0010
1000
0000
,
0001
0100
1010
0000
,
0101
0011
1100
1001
,
0220
0000
0000
0330
,
0002
0003
0000
0000
,
2000
0000
0000
0000
3200
0000
0300
1000
,
0000
0010
0000
0100
0000
0000
0001
0100
,
0001
1000
0100
1000
0000
0001
0100
0001
,
0000
1000
0100
0010
0000
0001
0100
0010
,
2000
0000
0100
0000
0100
0000
3010
0001
,
0000
0100
0000
1000
0100
0000
0000
0000
,
1001
0010
1001
0100
,
0010
1000
0010
1000
,
0001
0010
0010
0010
,
0001
0000
0100
0000
0010
0000
1000
0100
,
1000
0000
0100
0010
0000
0000
0001
0010
,
0001
0000
0010
0100
0000
0000
1000
0100
,
1000
0000
0001
0100
0000
1000
0000
0010
,
0000
0101
0000
1100
0000
1001
0000
0000
,
0000
1001
0010
0010
,
1100
0101
1100
0101
,
1000
0010
0010
0010
,
0100
0001
1000
0010
,
0100
0000
0100
0000
0001
1000
0001
0000
,
0100
0000
0010
1000
0000
1000
0001
0000
,
0010
0010
0001
0100
,
0110
0011
1010
1001
,
0100
0010
0000
0010
,
1000
0000
0100
0010
0000
0001
0000
0001
,
0100
0000
0010
1000
0000
0100
0000
1000
,
1001
0000
0000
0000
0000
1000
0001
1000
,
0000
0010
1000
0000
1000
0010
1000
0000
,
0001
0100
0001
0010
0001
0000
0110
0000
,
1000
0000
0010
0100
0000
0001
0000
0001
,
1000
0000
0100
0010
0000
1000
0000
1000
,
0001
0000
0000
0010
0000
0100
1000
0100
,
0000
0100
0010
0001
0000
0010
0100
1000
,
0100
0000
0001
0010
0000
0100
0000
0100
,
1000
0000
0010
0100
0000
0001
0000
0001
,
1000
0000
0000
1010
0000
0000
0100
0010
,
0000
1000
0000
0001
0000
0010
0001
0100
,
0010
0010
1000
0100
,
0010
0010
0100
1000
,
0010
0010
1000
0100
,
0001
1001
0011
1100
,
1001
0100
1010
0101
,
0001
0010
0100
1000
,
0010
0000
0001
0000
0100
0000
1000
0001
,
0000
1000
0010
1000
0001
0010
0001
0100
,
1000
0100
0001
0010
,
1000
0010
0001
1000
,
0001
0000
1100
0000
0011
0000
0100
0010
,
0000
0110
0000
0011
0000
1010
0000
0110
,
0000
1001
0011
0100
,
1000
0000
0010
0000
0100
0100
0001
0000
,
1000
0010
0101
0000
,
1010
1100
0011
1001
,
0220
0000
0000
0330
,
2000
3000
0000
0000
,
0002
0000
0000
0000
0023
0000
0030
0001
,
0000
0100
0000
0010
0000
0000
1000
0010
,
1000
0001
0010
0001
0000
1000
0010
1000
,
0000
0001
0010
0100
0000
1000
0010
0100
,
0002
0000
0010
0000
0010
0000
0103
1000
,
0000
0010
0000
0001
0010
0000
0000
0000
,
1001
0100
1001
0010
,
0100
0001
0101
0001
,
1000
0101
1100
0110
,
1000
0000
0010
0000
0100
0000
0001
0010
,
0001
0000
0010
0100
0000
0000
1000
0100
,
1000
0000
0100
0010
0000
0000
0001
0010
,
0001
0000
1000
0010
0000
0001
0000
0100
,
0000
1010
0000
0011
0000
1001
0000
0000
,
0000
1001
0100
0100
,
0011
1010
0011
1010
,
0001
0110
1100
0101
,
0010
1000
0001
0100
,
0010
0000
0010
0000
1000
0001
1000
0000
,
0010
0000
0100
0001
0000
0001
1000
0000
,
0100
0100
1000
0010
,
0110
1100
0101
1001
,
0010
0100
0000
0100
,
0001
0000
0010
0100
0000
1000
0000
1000
,
0010
0000
0100
0001
0000
0010
0000
0001
,
1001
0000
0000
0000
0000
0001
1000
0001
,
0000
0100
0001
0000
0001
0100
0001
0000
,
1000
0010
1000
0100
1000
0000
0110
0000
,
0001
0100
0001
0100
1000
0100
1000
0100
,
0001
0010
0100
1000
0100
0010
0001
0000
,
1000
0100
0010
0001
0100
0010
1000
0001
,
0010
0100
0001
1000
0010
0100
0100
0000
,
0010
1000
0100
1000
0000
0100
1000
0010
,
0000
0001
0100
0001
0000
1000
0100
0010
,
0001
0100
0001
0100
0010
0100
0010
0100
,
0001
1000
0001
1000
0100
1000
0010
0001
,
0210
0000
0000
1000
0000
0000
1300
0000
,
0002
0000
0103
0000
0010
0000
0001
0001
,
2000
0000
0000
0100
3200
0000
1300
1000
,
0000
0010
0000
0100
0000
0000
0001
0100
,
0001
1000
0100
1000
0000
0001
0100
0001
,
0000
1000
0100
0010
0000
0001
0100
0010
,
2000
0000
0100
0000
0100
0000
3010
0001
,
0000
0100
0000
1000
0100
0000
0000
0000
,
1001
0010
1001
0100
,
0010
1001
0010
1001
,
0001
1001
1100
1010
,
0001
0000
0100
0000
0010
0000
1000
0100
,
1000
0000
0100
0010
0000
0000
0001
0010
,
0001
0000
0010
0100
0000
0000
1000
0100
,
1000
0000
0001
0100
0000
1000
0000
0010
,
0000
0101
0000
1100
0000
1001
0000
0000
,
0000
1001
1010
0011
,
1001
0101
1100
0101
,
1000
0010
1001
0010
,
0100
0001
1000
0010
,
0100
0000
0100
0000
0001
1000
0001
0000
,
0100
0000
0010
1000
0000
1000
0001
0000
,
0010
0010
0001
0100
,
0110
0011
1010
1001
,
0100
0010
0000
0010
,
1000
0000
0100
0010
0000
0001
0000
0001
,
0100
0000
0010
1000
0000
0100
0000
1000
,
1001
0000
0000
0000
0000
1000
0001
1000
,
0000
0010
1000
0000
1000
0010
1000
0000
,
0001
0100
0001
0010
0001
0000
0110
0000
,
1000
0001
0000
0000
0100
0010
0000
1000
,
0100
1000
0000
0001
0100
0001
0000
0011
,
0000
0110
0000
0000
0000
0000
0000
0000
;
