#TITLE:Super Mario hardcore remix;
#SUBTITLE:;
#ARTIST:Firestorm;
#TITLETRANSLIT:;
#SUBTITLETRANSLIT:;
#ARTISTTRANSLIT:;
#CREDIT:;
#BANNER:Super mario banner.png;
#BACKGROUND:Mario breakdance 2.jpg;
#LYRICSPATH:;
#CDTITLE:;
#MUSIC:Super Mario hardcore remix.mp3;
#OFFSET:0.000;
#SAMPLESTART:28.705;
#SAMPLELENGTH:12.000;
#SELECTABLE:YES;
#BPMS:0.000=209.020;
#STOPS:;
#BGCHANGES:8.000=mario.avi=1.000=0=0=1,
22.000=Mario.png=1.000=0=0=1,
24.000=Mario.avi=1.000=0=0=1,
47.500=Mario Breakdance.jpg=1.000=0=0=1,
85.000=Mario.avi=1.000=0=0=1,
99.500=Mario.png=1.000=0=0=1,
101.500=Mario.avi=1.000=0=0=1,
139.500=Mario.png=1.000=0=0=1,
141.500=Mario.avi=1.000=0=0=1,
165.500=Mario breakdance 2.jpg=1.000=0=0=1,
99999=-nosongbg-=1.000=0=0=0 // don't automatically add -songbackground-
;
// cache tags:
#FIRSTBEAT:0.000;
#LASTBEAT:169.500;
#SONGFILENAME:Songs/new cedric/Super Mario hardcore remix/Super Mario hardcore remix.sm;
#HASMUSIC:1;
#HASBANNER:1;
#MUSICLENGTH:49.771;
// end cache tags

//---------------dance-single - ----------------
#NOTES:
     dance-single:
     :
     Hard:
     12:
     1.000,1.000,1.000,0.100,0.000,292.000,57.000,5.000,0.000,0.000:
0100
0010
0100
0010
0010
0100
0010
0100
,
1000
0100
0010
0001
0100
0000
1001
0000
,
0101
0010
1100
0001
0110
1000
0011
0100
,
1001
1000
0100
0010
0001
0000
0101
1010
,
0101
0010
0101
1000
0011
0100
1001
0010
,
1000
0100
0010
0001
0000
0110
0110
0000
,
1010
0100
0101
0010
1010
0100
0101
0010
,
1010
0100
0101
1010
0101
1000
0100
0010
,
0010
0100
0010
0100
0000
1000
0100
0010
,
0010
0100
0010
0100
0000
1000
0100
0010
,
0010
0100
0010
0100
0000
1000
0100
0010
,
1001
0000
0000
0000
0020
0130
0010
0001
,
0100
0010
1000
0100
0010
0001
0000
0001
,
0100
0010
1000
0100
0010
0001
0000
0001
,
0100
0010
1000
0100
0010
0001
0000
0001
,
0100
0010
1000
0010
0010
0010
0100
0000
,
1001
0000
1000
0100
0010
0001
0000
0001
,
0100
0010
1000
0100
0010
0001
0000
0001
,
0100
0010
1000
0100
0010
0001
0000
0001
,
0100
0010
1000
0100
1000
0100
0010
0100
,
0010
0100
0010
0001
0010
0001
1000
0001
,
1000
0001
1000
0010
0101
1000
0011
0100
,
1010
0001
0110
1000
0100
0010
0001
0010
,
1100
0010
0101
1010
0101
0100
1010
0001
,
0110
0001
1000
0100
0010
0001
0000
0000
,
0110
0110
0000
0100
1010
0001
1100
0010
,
0101
1000
0011
1000
0100
0010
0001
0001
,
0100
0010
1000
0100
0010
0001
0000
0001
,
0100
0010
1000
0100
0010
0001
0000
0001
,
0100
0010
1000
0100
0010
0001
0000
0001
,
0100
0010
1001
0000
0000
0200
0300
0010
,
0100
0000
1001
0010
1100
0001
1010
0100
,
0011
1000
0101
1000
0100
0010
0001
0100
,
1010
0100
1001
0010
0101
1000
0110
0001
,
1100
0010
1001
1000
0100
0010
0001
0000
,
0010
0100
0000
0010
1001
0100
1010
0001
,
1100
0010
0001
0010
0100
1000
0000
1000
,
0010
0100
0001
0010
0100
1000
0000
1000
,
0010
0100
0001
0010
0100
1000
0000
1000
,
0010
0100
0001
0010
0100
1000
0000
1000
,
0010
0100
1001
0000
0000
0000
0200
0300
,
0010
0100
0000
2002
0000
0000
0000
0000
,
0000
0000
0000
3003
0000
0000
0000
0000
;

//---------------dance-single - ----------------
#NOTES:
     dance-single:
     :
     Challenge:
     14:
     1.000,1.000,1.000,0.141,0.000,292.000,191.000,7.000,0.000,0.000:
0100
0010
0100
0010
0010
0100
0010
0100
,
1000
0100
0010
0001
0100
0000
1001
0000
,
0101
1010
0101
1001
0110
1001
0101
1010
,
1001
1010
0101
1010
0101
1001
0101
1010
,
0101
0000
0101
1010
0011
0101
1001
0011
,
1010
0101
1010
0101
0000
0110
0110
0000
,
1010
0101
0011
0110
1010
0110
1001
0101
,
0110
0101
0101
1010
0101
1001
0110
1001
,
0010
0100
0010
0100
0000
1001
0110
1001
,
0010
0100
0010
0100
0000
1001
0110
1001
,
0010
0100
0010
0100
0000
1001
0110
1001
,
0110
0000
0000
0000
0120
0130
0110
0001
,
0100
0010
1001
0110
1001
0110
0000
0001
,
0100
0010
1001
0110
1001
0110
0000
0001
,
0100
0010
1001
0110
1001
0110
0000
0001
,
0100
0010
1000
0010
0010
0010
0100
0000
,
1001
0000
1001
0110
1001
0110
0000
0001
,
0100
0010
1001
0110
1001
0110
0000
0001
,
0100
0010
1001
0110
1001
0110
0000
0001
,
0100
0010
1000
0100
1000
0100
0010
0100
,
0010
0100
0010
0001
0010
0001
1000
0001
,
1000
0001
1001
1010
0011
0011
1001
0101
,
1010
0011
0110
1010
0101
1010
0101
1010
,
1100
0110
0101
1010
0101
1001
1010
1001
,
0110
1001
1010
0101
1010
0101
0000
0000
,
0110
0110
0000
0101
1010
0011
1010
0110
,
1001
1100
0101
1001
0100
0010
0001
0001
,
0100
0010
1010
0101
1010
0101
0000
0001
,
0100
0010
1010
0101
1010
0101
0000
0001
,
0100
0010
1010
0101
1010
0101
0000
0001
,
0010
0000
0100
0000
2002
3003
0000
0000
0000
0000
0210
0000
0300
0000
0110
0000
,
0110
0000
1001
1010
1100
0101
0011
0110
,
0011
1001
0101
1010
0101
1010
0101
0110
,
1010
1001
1010
0011
0101
0110
0011
1001
,
1001
1010
0011
1010
0101
1010
0101
0000
,
0010
0100
0000
1010
1001
0101
1100
1001
,
1100
0010
0101
1010
0101
1010
0000
1000
,
0010
0100
0101
1010
0101
1010
0000
1000
,
0010
0100
0101
1010
0101
1010
0000
1000
,
0010
0100
0101
1010
0101
1010
0000
1000
,
0010
0100
1001
0000
0000
0000
0200
0300
,
0010
0100
0000
2002
0000
0000
0000
0000
,
0000
0000
0000
3003
0000
0000
0000
0000
;
