#TITLE:PheartheMonkey;
#SUBTITLE:;
#ARTIST:Prozax, Scott Peeples;
#TITLETRANSLIT:;
#SUBTITLETRANSLIT:;
#ARTISTTRANSLIT:;
#CREDIT:Arch0wl;
#BANNER:phearthemonkey-bn.png;
#BACKGROUND:phearthemonkey-bg.png;
#LYRICSPATH:;
#CDTITLE:!Arch0wlTitle.png;
#MUSIC:phearthemonkey.ogg;
#OFFSET:-0.873;
#SAMPLESTART:46.426;
#SAMPLELENGTH:29.321;
#SELECTABLE:YES;
#BPMS:0.000=266.000;
#STOPS:;
#BGCHANGES:0.000=phearthemonkey-bg.png=1.000=0=0=1,
99999=-nosongbg-=1.000=0=0=0 // don't automatically add -songbackground-
;
// cache tags:
#FIRSTBEAT:45.000;
#LASTBEAT:832.000;
#SONGFILENAME:Songs/Archmage and Dark0wl Hammer of Thor UltraHyperMegaPack/PheartheMonkey/phearthemonkey.sm;
#HASMUSIC:1;
#HASBANNER:1;
#MUSICLENGTH:105.000;
// end cache tags

//---------------dance-single - Arch0wl----------------
#NOTES:
     dance-single:
     Arch0wl:
     Hard:
     12:
     1.000,1.000,0.743,0.133,0.000,1111.000,78.000,14.000,0.000,8.000:
0000
0000
0000
0000
,
0000
0000
0000
0000
,
0000
0000
0000
0000
,
0000
0000
0000
0000
,
0000
0000
0000
0000
,
0000
0000
0000
0000
,
0000
0000
0000
0000
,
0000
0000
0000
0000
,
0000
0000
0000
0000
,
0000
0000
0000
0000
,
0000
0000
0000
0000
,
0000
0000
1100
0000
0000
0110
0000
0000
,
1100
0000
0000
0011
,
0000
0000
0101
0000
0000
0110
0000
0000
,
0101
0000
0000
1010
,
0000
0000
0110
0000
0000
1001
0000
0000
,
0110
0000
0000
1001
,
0000
0000
0011
0000
0000
1010
0000
0000
,
0011
0000
0000
0000
0000
1100
0000
0000
,
0100
0000
0010
0000
0001
0010
1000
0010
,
0001
0000
0100
0000
0100
1000
0100
0000
,
0001
0000
0010
0000
0001
0100
1000
0100
,
0001
0000
0001
0000
1000
0010
1000
0000
,
0100
0000
0010
0000
0010
0100
1000
0100
,
0010
0000
0001
0000
0001
0100
0001
0000
,
0100
0000
0010
0000
0010
1000
0100
1000
,
0010
0000
0100
0000
0100
0001
0100
0000
,
0110
0000
0101
0000
0001
0010
1000
0010
,
0001
0000
0101
0000
0100
1000
0100
0000
,
0101
0000
0011
0000
0001
0100
1000
0100
,
0001
0000
1001
0000
1000
0010
1000
0000
,
1100
0000
0110
0000
0010
0100
1000
0100
,
0010
0000
0011
0000
0001
0100
0001
0000
,
0101
0000
0110
0000
0010
1000
0100
1000
,
0010
0000
0110
0000
0100
0001
0100
0000
,
0100
0001
0010
0100
1000
0100
0001
0100
,
1000
0000
1001
0000
0001
1000
0001
0000
,
0100
0001
0010
0100
1000
0010
0001
0010
,
1000
0000
1001
0000
1000
0010
1000
0000
,
1000
0100
0010
0001
1000
0100
0010
0100
,
1000
0000
1001
0000
0001
0100
0001
0000
,
0001
0100
0010
1000
0001
0010
0100
0010
,
0001
0000
0101
0000
0100
0010
0100
0000
,
2020
0000
0000
0100
0000
0000
3130
0000
,
0000
1010
1100
0110
,
0022
0000
0000
0100
0000
0000
0133
0000
,
0000
0011
0101
0110
,
2020
0000
0000
0100
0000
0000
3130
0000
,
0000
0101
0011
0110
,
0022
0000
0000
0100
0000
0000
0133
0000
,
0000
1000
1100
1010
,
1000
0010
0100
0001
0010
0100
0010
0001
,
0100
0010
0110
0000
1010
0000
1010
0000
,
1000
0100
0010
0001
0100
0010
0100
0001
,
1000
0100
0010
0000
0011
0000
0101
0000
,
1000
0100
0010
0001
1000
0100
1000
0001
,
0100
0010
1010
0000
0110
0000
0110
0000
,
1000
0010
0100
0001
1000
0100
1000
0001
,
0010
0100
1000
0000
1001
0000
0101
0000
,
0001
0010
0100
1000
0010
0100
0010
1000
,
0100
0010
0110
0000
0011
0000
0011
0000
,
0100
0010
0001
1000
0010
0100
0010
1000
,
0100
0010
0001
0000
1001
0000
0101
0000
,
0100
0010
1000
0001
0010
0100
0010
0001
,
0100
0010
1010
0000
0110
0000
0110
0000
,
0101
0000
0001
0100
0101
0000
0001
0101
,
0000
0100
0101
0000
0101
0000
1010
0000
,
1000
0000
0100
1000
0000
0100
1000
0000
,
0000
0100
1000
0001
0010
0100
1000
0010
,
0100
0000
0010
0100
0000
0010
0100
0000
,
0000
0010
0100
0001
1000
0010
0100
0001
,
0010
0000
0001
0010
0000
0001
0010
0000
,
0000
0001
0010
0100
1000
0010
0100
0001
,
1000
0000
0001
1000
0000
0001
1000
0000
,
0000
0001
1000
0100
0010
0001
0100
0010
,
1000
0100
0100
1000
0100
0100
1000
0100
,
0100
0100
1000
0001
0010
0100
1000
0010
,
0100
0010
0010
0100
0010
0010
0100
0010
,
0010
0010
0100
0001
1000
0010
0100
0001
,
0010
0001
0001
0010
0001
0001
0010
0001
,
0001
0001
0010
0100
1000
0010
0100
0001
,
1000
0001
0001
1000
0001
0001
1000
0001
,
0001
0001
1000
0100
0010
0001
0100
0010
,
1000
0000
1000
0000
0010
0000
0100
0001
,
1000
0100
0010
0100
1000
0010
0100
0010
,
1000
0000
1000
0000
0001
0000
0010
0100
,
1000
0001
0010
0001
1000
0010
0100
0010
,
1000
0000
1000
0000
0100
0000
0010
0001
,
1000
0001
0010
0100
1000
0100
0010
0001
,
0100
0000
0100
0000
0010
0000
0100
0001
,
0010
0001
1000
0100
0010
0100
1000
0010
,
1010
0000
1000
0000
0010
0000
0100
0001
,
1000
0100
0010
0100
1000
0010
0100
0010
,
1010
0000
1000
0000
0001
0000
0010
0100
,
1000
0001
0010
0001
1001
0010
0100
0010
,
1010
0000
1000
0000
0100
0000
0010
0001
,
1000
0001
0010
0100
1000
0100
0010
0001
,
0100
0000
0100
0000
0010
0000
0100
0001
,
0010
0001
1000
0100
0010
0100
1000
0010
,
0100
0000
0100
0000
0001
0000
1000
0010
,
0001
0010
1000
0010
0001
0000
0010
0000
,
1000
0000
1000
0000
0010
0000
1000
0100
,
0001
0100
1000
0100
0001
0000
0100
0000
,
1000
0000
1000
0000
0001
0000
1000
0010
,
0001
0010
1000
0010
0001
0000
0010
0000
,
0100
0000
0001
0000
0100
0000
0001
0100
,
0001
0100
0010
1000
0001
0100
0010
1000
,
0001
0000
0001
0000
1000
0010
0100
0010
,
1000
0100
0010
0001
1000
0010
0100
0001
,
1000
0000
1000
0000
0100
0000
0010
0001
,
0010
0100
0010
0001
0010
0100
0010
0001
,
0010
0100
1000
0010
0100
0000
0001
0010
,
0100
1000
0010
0100
0001
0100
0010
1000
,
0100
0000
0100
0000
1000
0000
0001
0100
,
0001
0010
0001
0100
0001
0010
0001
0100
,
0001
1000
0100
0010
0001
0000
1000
0010
,
0100
0010
1000
0100
0010
0001
0100
0010
,
1000
0000
1000
0000
0100
0000
0010
0100
,
0010
1000
0010
0100
0010
1000
0010
0100
,
0010
0001
0100
0010
1000
0000
0001
0100
,
0010
1000
0100
1000
0010
0100
0001
0010
,
0100
0000
0100
0000
1000
0100
0010
0100
,
1000
0010
1000
0100
1000
0010
1000
0100
,
1001
0000
0000
0000
0000
0010
0000
0000
,
0000
0000
0000
0000
0000
0101
0000
0000
,
0000
0000
0000
0010
0000
1000
0000
0000
,
0000
0000
0000
0100
,
0000
0000
0000
0010
0000
0000
0001
0000
,
0000
0010
0000
0000
0000
0100
0000
0000
,
0010
0000
0000
0001
,
0100
0000
0000
0010
0000
0000
0100
0000
,
0001
0000
0001
0000
0010
0000
0100
0001
,
0100
0000
0010
0000
0100
0001
2000
0000
,
3010
0000
0010
0000
0001
0000
0100
1000
,
0100
0000
0010
0000
0100
1000
0002
0000
,
0013
0000
0010
0000
1000
0000
0100
0001
,
0100
0000
0010
0000
0100
0001
2000
0000
,
3010
0000
0010
0000
0001
0000
0100
1000
,
0100
0000
0001
0000
0100
1000
0002
0000
,
0013
1000
0010
0100
0010
1000
0100
0010
,
0001
0000
0100
0000
0001
0000
0100
0010
,
0001
0000
0010
0000
1000
0000
0001
0010
,
0100
0010
0001
0000
1000
0000
0010
0100
,
0001
0010
0001
0100
0001
0010
0100
1000
,
0001
0000
0100
0000
0001
0000
1000
0100
,
0010
0000
0001
0000
0010
0000
0100
1000
,
0010
1000
0100
0000
0010
0000
0001
1000
,
0100
0010
0100
1000
0100
0010
0001
1000
,
0100
0000
0010
0000
0100
0000
0001
1000
,
0100
0000
1000
0000
0010
0000
0001
0100
,
0010
0100
0001
0000
0010
0000
0001
0010
,
0100
1000
0100
0010
0100
1000
0001
0010
,
0100
0000
1000
0000
0010
0000
0001
0010
,
0100
0000
0010
0000
1000
0000
0001
0010
,
0100
0010
0001
0000
1000
0000
0010
0100
,
0001
0010
0001
0000
0001
0010
0000
0010
,
0000
0100
0010
0000
0100
0010
0100
0000
,
1000
0100
1000
0000
1000
0100
0000
0100
,
0000
0010
0100
0000
0010
0100
0010
0000
,
0001
0100
0001
0000
0001
0100
0000
0100
,
0000
0010
0100
0000
0010
0100
0010
0000
,
1000
0100
1000
0000
0100
1000
0000
1000
,
0000
1000
0010
0000
0010
0100
0010
0000
,
1000
0001
0100
0001
1000
0010
1000
0100
,
0010
0100
1000
0010
0100
0001
0010
0100
,
1000
0001
0100
0001
0010
0100
0010
0001
,
0100
0001
1000
0100
0010
0001
1000
0010
,
0100
0001
0010
0001
1000
0100
1000
0001
,
0100
0001
0010
0100
1000
0010
0100
0001
,
1000
0001
0100
0001
1000
0010
1000
0100
,
0010
0100
1000
0010
1000
0100
0010
0100
,
1000
0001
0100
0001
1000
0010
1000
0100
,
0010
0100
1000
0010
0100
0001
0010
0100
,
1000
0001
0100
0001
0010
0100
0010
0001
,
0100
0001
1000
0100
0010
0001
1000
0010
,
0100
0001
0010
0001
1000
0100
1000
0001
,
0100
0001
0010
0100
1000
0010
0100
0001
,
1000
0001
0100
0001
1000
0010
1000
0100
,
0010
0100
1000
0010
1000
0100
0010
0100
,
1000
0000
0100
0000
0010
0100
0010
0000
,
0100
1000
0010
0100
0010
1000
0100
0010
,
0001
0000
0010
0000
0100
1000
0100
0000
,
0010
0001
0100
0010
0100
0001
0010
0100
,
1000
0000
0010
0000
0100
0001
0100
0000
,
0001
0100
0010
1000
0010
0100
0001
1000
,
0100
0000
0010
0000
0100
1000
0100
0000
,
0010
0001
1000
0010
1000
0001
0100
0010
,
1000
0000
0001
0000
0100
0010
0100
0000
,
0001
0000
1000
0010
1000
0001
1000
0100
,
1000
0000
0010
0000
0100
0010
0100
0000
,
0001
0000
0100
0001
0100
1000
0100
0010
,
0100
0000
0001
0000
1000
0010
1000
0000
,
0001
0000
0010
0100
0010
1000
0010
0001
,
0010
0000
0001
0000
0010
0100
0010
0000
,
0001
0000
1000
0010
1000
0001
1000
0100
,
1000
0010
1000
0100
,
0010
0001
0010
0100
,
1000
0100
1000
0001
,
0100
0010
0100
0001
,
0010
1000
0010
0001
,
0100
1000
0100
0001
,
1000
0010
0100
0001
,
1000
0100
0010
0001
,
2002
0000
0000
0000
,
0000
0000
0000
0000
,
0000
0000
0000
0000
,
0000
0000
0000
0000
,
0000
0000
0000
0000
,
3003
0000
0000
0000
;
