#TITLE:The Duck Song 3;
#SUBTITLE:;
#ARTIST:Bryant Oden;
#TITLETRANSLIT:;
#SUBTITLETRANSLIT:;
#ARTISTTRANSLIT:;
#CREDIT:owenviau1;
#BANNER:../Banner.png;
#BACKGROUND:BG.PNG;
#LYRICSPATH:;
#CDTITLE:../CDTitleOV1.png;
#MUSIC:The Duck Song 3.ogg;
#OFFSET:-4.075;
#SAMPLESTART:80.728;
#SAMPLELENGTH:29.999;
#SELECTABLE:YES;
#DISPLAYBPM:200.000;
#BPMS:0.000=197.007,1.000=197.022,2.000=196.992,3.000=197.007,4.000=196.992,5.000=197.007,6.000=196.992,7.000=197.007,8.000=196.992,9.000=197.007,10.000=193.012,11.000=192.998,12.000=193.012,13.000=192.998,16.000=200.000,27.000=202.000,32.000=190.004,35.000=189.991,36.000=200.000,46.000=197.007,48.000=196.992,49.000=197.007,50.000=196.992,51.000=197.007,52.000=196.992,53.000=197.007,54.000=196.992,55.000=197.007,56.000=196.992,57.000=197.007,58.000=196.992,59.000=197.007,60.000=196.992,61.000=197.007,62.000=205.005,64.000=204.989,65.000=205.005,68.000=204.989,69.000=205.005,71.000=204.989,72.000=205.005,74.000=204.989,75.000=205.005,77.000=204.989,78.000=205.005,80.000=204.989,81.000=205.005,83.000=204.989,84.000=205.005,86.000=204.989,87.000=205.005,90.000=192.003,93.000=191.990,94.000=192.003,97.000=191.990,98.000=198.009,99.000=197.995,100.000=198.009,101.000=197.995,103.000=198.009,104.000=197.995,106.000=198.009,107.000=197.995,109.000=198.009,110.000=197.995,111.000=198.009,112.000=197.995,114.000=198.009,115.000=197.995,117.000=198.009,118.000=197.995,120.000=198.009,121.000=197.995,122.000=198.009,123.000=197.995,125.000=198.009,126.000=197.995,128.000=198.009,129.000=197.995,131.000=198.009,132.000=197.995,133.000=198.009,134.000=197.995,136.000=198.009,137.000=197.995,138.000=200.000,168.000=198.009,169.000=197.995,171.000=198.009,172.000=197.995,173.000=198.009,174.000=197.995,176.000=198.009,177.000=197.995,179.000=198.009,180.000=197.995,182.000=198.009,183.000=203.008,184.000=202.992,185.000=203.008,186.000=202.992,187.000=203.008,188.000=202.992,189.000=203.008,191.000=202.992,192.000=203.008,193.000=202.992,194.000=203.008,195.000=202.992,196.000=203.008,197.000=202.992,198.000=203.008,199.000=202.992,200.000=203.008,201.000=202.992,202.000=203.008,203.000=202.992,204.000=203.008,205.000=202.992,206.000=203.008,207.000=202.992,208.000=203.008,209.000=202.992,210.000=203.008,211.000=202.992,212.000=203.008,213.000=200.000,288.000=198.009,289.000=197.995,291.000=198.009,292.000=197.995,293.000=198.009,294.000=197.995,296.000=198.009,297.000=197.995,299.000=198.009,300.000=197.995,302.000=198.009,303.000=197.995,304.000=202.000,317.000=203.008,318.000=202.992,319.000=203.008,320.000=202.992,321.000=203.008,322.000=202.992,323.000=203.008,324.000=202.992,325.000=203.008,326.000=202.992,327.000=203.008,328.000=202.992,329.000=203.008,330.000=202.992,331.000=203.008,333.000=202.992,334.000=203.008,335.000=201.003,339.000=200.987,340.000=201.003,344.000=200.987,345.000=201.003,349.000=199.007,350.000=198.992,351.000=199.007,352.000=198.992,353.000=199.007,354.000=198.992,355.000=199.007,356.000=198.992,357.000=199.007,358.000=198.992,359.000=199.007,360.000=198.992,361.000=199.007,362.000=198.992,363.000=199.007,365.000=198.992,366.000=201.003,370.000=200.987,371.000=201.003,375.000=205.005,377.000=204.989,378.000=205.005,380.000=204.989,381.000=205.005,383.000=204.989,384.000=205.005,386.000=204.989,387.000=205.005,389.000=204.989,390.000=205.005,393.000=204.989,394.000=205.005,396.000=204.989,397.000=205.005,399.000=204.989,400.000=205.005,402.000=204.989,403.000=205.005,405.000=204.989,406.000=205.005,408.000=204.989,409.000=205.005,410.000=210.000,424.000=205.005,426.000=204.989,427.000=205.005,429.000=204.989,430.000=205.005,432.000=204.989,433.000=205.005,435.000=204.989,436.000=205.005,438.000=204.989,439.000=205.005,442.000=204.989,443.000=205.005,445.000=204.989,446.000=205.005,448.000=204.989,449.000=205.005,451.000=204.989,452.000=205.005,454.000=204.989,455.000=205.005,457.000=204.989,458.000=205.005,461.000=204.989,462.000=205.005,464.000=204.989,465.000=205.005,467.000=204.989,468.000=205.005,470.000=204.989,471.000=205.005,473.000=204.989,474.000=205.005,476.000=204.989,477.000=205.005,479.000=204.989,480.000=205.005,482.000=204.989,483.000=205.005,486.000=204.989,487.000=205.005,489.000=204.989,490.000=205.005,492.000=204.989,493.000=205.005,495.000=204.989,496.000=205.005,498.000=204.989,499.000=205.005,502.000=204.989,503.000=205.005,504.000=204.989,505.000=205.005,508.000=204.989,509.000=205.005,511.000=204.989,512.000=205.005,513.000=202.000,517.000=200.000,532.000=197.007,533.000=196.992,534.000=197.007,535.000=196.992,536.000=197.007,537.000=196.992,538.000=197.007,539.000=196.992,540.000=197.007,542.000=196.992,543.000=197.007,544.000=196.992,545.000=197.007,546.000=196.992,547.000=197.007,548.000=194.002,552.000=193.988,553.000=194.002,557.000=193.988,558.000=194.002,563.000=193.988,564.000=194.002,565.000=205.005,567.000=204.989,568.000=205.005,570.000=204.989,571.000=205.005,573.000=204.989,574.000=205.005,576.000=204.989,577.000=205.005,578.000=202.000,587.000=199.007,588.000=198.992,589.000=199.007,590.000=198.992,591.000=199.007,592.000=198.992,593.000=199.007,594.000=198.992,595.000=199.007,596.000=198.992,597.000=199.007,598.000=198.992,599.000=199.007,600.000=198.992,601.000=199.007,603.000=198.992,604.000=197.007,605.000=196.992,606.000=197.007,607.000=196.992,608.000=197.007,609.000=196.992,610.000=197.007,611.000=196.992,612.000=197.007,614.000=196.992,615.000=197.007,616.000=196.992,617.000=197.007,618.000=170.008,619.000=169.997,620.000=195.003,622.000=194.989,623.000=195.003,626.000=194.989,627.000=195.003,630.000=194.989,631.000=195.003,635.000=194.989,636.000=195.003,639.000=194.989,640.000=195.003,643.000=194.989,644.000=195.003,648.000=194.989,649.000=195.003,652.000=199.007,653.000=198.992,654.000=199.007,655.000=198.992,656.000=199.007,657.000=198.992,658.000=199.007,659.000=198.992,660.000=199.007,661.000=198.992,662.000=199.007,663.000=198.992,664.000=199.007,665.000=198.992,666.000=199.007,667.000=198.992,668.000=199.007,669.000=198.992,670.000=199.007,671.000=198.992,672.000=199.007,673.000=198.992,674.000=199.007,675.000=197.007,676.000=196.992,677.000=199.007,678.000=198.992,679.000=199.007,680.000=198.992,681.000=199.007,682.000=198.992,683.000=199.007,684.000=198.992,685.000=199.007,686.000=205.005,687.000=204.989,688.000=205.005,690.000=204.989,691.000=200.000;
#STOPS:;
#BGCHANGES:;
// cache tags:
#FIRSTBEAT:0.000;
#LASTBEAT:695.000;
#SONGFILENAME:Songs/owenviau1 Simfiles 7/The Duck Song 3 - [owenviau1] v1.0.4/The Duck Song 3.sm;
#HASMUSIC:1;
#HASBANNER:1;
#MUSICLENGTH:215.170;
// end cache tags

//---------------dance-single - ----------------
#NOTES:
     dance-single:
     :
     Hard:
     1:
     0.016,0.012,0.000,0.000,0.005,24.000,0.000,0.000,0.000,0.000:
1000
0000
0100
0010
0001
0000
0100
0000
,
0010
0000
0000
0000
1000
0000
0000
0001
0000
0000
0010
0000
0100
0000
1000
0000
,
0001
0000
0100
0010
1000
0000
0001
0100
,
0010
0000
0000
0000
0000
0000
1000
0000
0000
0000
0100
0000
0000
0000
0000
0010
0000
0000
0001
0000
0000
1000
0000
0000
,
0010
0000
0000
0000
,
0000
0000
0000
0000
,
0000
0000
0000
0000
,
0000
0000
0000
0000
,
0000
0000
0000
0000
,
0000
0000
0000
0000
,
0000
0000
0000
0000
,
0000
0000
0000
0000
,
0000
0000
0000
0000
,
0000
0000
0000
0000
,
0000
0000
0000
0000
,
0000
0000
0000
0000
,
0000
0000
0000
0000
,
0000
0000
0000
0000
,
0000
0000
0000
0000
,
0000
0000
0000
0000
,
0000
0000
0000
0000
,
0000
0000
0000
0000
,
0000
0000
0000
0000
,
0000
0000
0000
0000
,
0000
0000
0000
0000
,
0000
0000
0000
0000
,
0000
0000
0000
0000
,
0000
0000
0000
0000
,
0000
0000
0000
0000
,
0000
0000
0000
0000
,
0000
0000
0000
0000
,
0000
0000
0000
0000
,
0000
0000
0000
0000
,
0000
0000
0000
0000
,
0000
0000
0000
0000
,
0000
0000
0000
0000
,
0000
0000
0000
0000
,
0000
0000
0000
0000
,
0000
0000
0000
0000
,
0000
0000
0000
0000
,
0000
0000
0000
0000
,
0000
0000
0000
0000
,
0000
0000
0000
0000
,
0000
0000
0000
0000
,
0000
0000
0000
0000
,
0000
0000
0000
0000
,
0000
0000
0000
0000
,
0000
0000
0000
0000
,
0000
0000
0000
0000
,
0000
0000
0000
0000
,
0000
0000
0000
0000
,
0000
0000
0000
0000
,
0000
0000
0000
0000
,
0000
0000
0000
0000
,
0000
0000
0000
0000
,
0000
0000
0000
0000
,
0000
0000
0000
0000
,
0000
0000
0000
0000
,
0000
0000
0000
0000
,
0000
0000
0000
0000
,
0000
0000
0000
0000
,
0000
0000
0000
0000
,
0000
0000
0000
0000
,
0000
0000
0000
0000
,
0000
0000
0000
0000
,
0000
0000
0000
0000
,
0000
0000
0000
0000
,
0000
0000
0000
0000
,
0000
0000
0000
0000
,
0000
0000
0000
0000
,
0000
0000
0000
0000
,
0000
0000
0000
0000
,
0000
0000
0000
0000
,
0000
0000
0000
0000
,
0000
0000
0000
0000
,
0000
0000
0000
0000
,
0000
0000
0000
0000
,
0000
0000
0000
0000
,
0000
0000
0000
0000
,
0000
0000
0000
0000
,
0000
0000
0000
0000
,
0000
0000
0000
0000
,
0000
0000
0000
0000
,
0000
0000
0000
0000
,
0000
0000
0000
0000
,
0000
0000
0000
0000
,
0000
0000
0000
0000
,
0000
0000
0000
0000
,
0000
0000
0000
0000
,
0000
0000
0000
0000
,
0000
0000
0000
0000
,
0000
0000
0000
0000
,
0000
0000
0000
0000
,
0000
0000
0000
0000
,
0000
0000
0000
0000
,
0000
0000
0000
0000
,
0000
0000
0000
0000
,
0000
0000
0000
0000
,
0000
0000
0000
0000
,
0000
0000
0000
0000
,
0000
0000
0000
0000
,
0000
0000
0000
0000
,
0000
0000
0000
0000
,
0000
0000
0000
0000
,
0000
0000
0000
0000
,
0000
0000
0000
0000
,
0000
0000
0000
0000
,
0000
0000
0000
0000
,
0000
0000
0000
0000
,
0000
0000
0000
0000
,
0000
0000
0000
0000
,
0000
0000
0000
0000
,
0000
0000
0000
0000
,
0000
0000
0000
0000
,
0000
0000
0000
0000
,
0000
0000
0000
0000
,
0000
0000
0000
0000
,
0000
0000
0000
0000
,
0000
0000
0000
0000
,
0000
0000
0000
0000
,
0000
0000
0000
0000
,
0000
0000
0000
0000
,
0000
0000
0000
0000
,
0000
0000
0000
0000
,
0000
0000
0000
0000
,
0000
0000
0000
0000
,
0000
0000
0000
0000
,
0000
0000
0000
0000
,
0000
0000
0000
0000
,
0000
0000
0000
0000
,
0000
0000
0000
0000
,
0000
0000
0000
0000
,
0000
0000
0000
0000
,
0000
0000
0000
0000
,
0000
0000
0000
0000
,
0000
0000
0000
0000
,
0000
0000
0000
0000
,
0000
0000
0000
0000
,
0000
0000
0000
0000
,
0000
0000
0000
0000
,
0000
0000
0000
0000
,
0000
0000
0000
0000
,
0000
0000
0000
0000
,
0000
0000
0000
0000
,
0000
0000
0000
0000
,
0000
0000
0000
0000
,
0000
0000
0000
0000
,
0000
0000
0000
0000
,
0000
0000
0000
0000
,
0000
0000
0000
0000
,
0000
0000
0000
0000
,
0000
0000
0000
0000
,
0000
0000
0000
0000
,
0000
0000
0000
0000
,
0000
0000
0000
0000
,
0000
0000
0000
0000
,
0000
0000
0000
0000
,
0000
0000
0000
0000
,
0000
0000
0000
0000
,
0000
0000
0000
0000
,
0000
0000
0000
0000
,
0000
0000
0000
0000
,
0000
0000
0000
0000
,
0000
0000
0000
0000
,
0000
0000
0000
0000
,
0000
0000
0000
0000
,
0000
0000
0000
0000
,
0000
0000
0000
0000
,
0000
0000
0000
0000
,
0000
0000
0000
0000
,
0000
0000
0000
0000
,
0000
0000
0000
0000
,
0000
0000
0000
0000
,
0000
0000
0000
0000
,
0000
0000
0000
0000
,
0000
0000
0000
0000
,
0000
0000
0000
0000
;

//---------------dance-single - 18.27 (18) (owenviau----------------
#NOTES:
     dance-single:
     18.27 (18) (owenviau:
     Challenge:
     18:
     1.000,1.000,0.000,0.014,1.000,2744.000,0.000,3.000,0.000,0.000:
1000
0100
0010
0001
0100
0010
0100
0001
1000
0100
1000
0010
0100
0001
1000
0100
,
0010
0001
1000
0010
1000
0001
0100
0001
0010
0100
1000
0010
0100
0001
1000
0100
,
0010
0001
1000
0100
1000
0010
0100
0010
1000
0001
0100
0001
0010
0100
1000
0010
,
0100
0010
1000
0001
0100
0001
0010
0100
1000
0010
0100
0010
1000
0001
1000
0100
,
0010
0001
1000
0010
1000
0100
0010
0001
0100
0001
1000
0100
1000
0010
0100
0001
,
0010
0001
1000
0100
0010
0001
1000
0100
1000
0010
0100
0010
1000
0001
0100
0001
,
0010
0100
1000
0001
0010
0001
1000
0100
0010
0001
0100
0010
0100
0001
1000
0100
,
1000
0010
0100
0001
1000
0100
0010
0001
0100
0010
1000
0001
0010
0100
1000
0001
,
1000
0010
0100
0010
1000
0001
0100
0001
0010
0100
1000
0010
0100
0010
1000
0100
,
0010
0001
0100
0010
1000
0001
0010
0100
1000
0001
0010
0001
0100
0010
1000
0001
,
0100
0001
1000
0010
1000
0001
0010
0100
1000
0010
0100
0001
1000
0100
1000
0010
,
0100
0010
1000
0001
0100
0001
0010
0100
1000
0010
0100
0010
1000
0001
0100
0001
,
0010
0100
1000
0010
0100
0001
1000
0100
0010
0001
0100
0010
1000
0100
0010
0001
,
0100
0010
0100
0001
1000
0100
1000
0010
0100
0001
1000
0100
0010
0001
1000
0010
,
1000
0001
0100
0001
0010
0100
1000
0010
0100
0001
1000
0100
0010
0001
1000
0100
,
1000
0010
0100
0010
1000
0001
0100
0001
0010
0100
1000
0010
0100
0010
1000
0001
,
0100
0001
0010
0100
1000
0010
0100
0010
1000
0001
1000
0100
0010
0001
1000
0010
,
1000
0100
0010
0001
0100
0001
1000
0100
1000
0010
0100
0001
0010
0001
1000
0100
,
0010
0001
1000
0100
1000
0010
0100
0010
1000
0001
0100
0001
0010
0100
1000
0001
,
0010
0001
1000
0100
0010
0001
0100
0010
0100
0001
1000
0100
1000
0010
0100
0001
,
1000
0100
0010
0001
0100
0010
1000
0001
0010
0100
1000
0001
1000
0010
0100
0010
,
1000
0001
0100
0001
0010
0100
1000
0010
0100
0010
1000
0100
0010
0001
0100
0010
,
1000
0001
0010
0100
1000
0001
0010
0001
0100
0010
1000
0001
0100
0001
1000
0010
,
1000
0001
0010
0100
1000
0010
0100
0001
1000
0100
1000
0010
0100
0010
1000
0001
,
0100
0001
0010
0100
1000
0010
0100
0010
1000
0001
0100
0001
0010
0100
1000
0010
,
0100
0001
1000
0100
0010
0001
0100
0010
1000
0100
0010
0001
0100
0010
0100
0001
,
1000
0100
1000
0010
0100
0001
1000
0100
0010
0001
1000
0010
1000
0001
0100
0001
,
0010
0100
1000
0010
0100
0001
1000
0100
0010
0001
1000
0100
1000
0010
0100
0010
,
1000
0001
0100
0001
0010
0100
1000
0010
0100
0010
1000
0001
0100
0001
0010
0100
,
1000
0010
0100
0010
1000
0001
1000
0100
0010
0001
1000
0010
1000
0100
0010
0001
,
0100
0001
1000
0100
1000
0010
0100
0001
0010
0001
1000
0100
0010
0001
1000
0100
,
1000
0010
0100
0010
1000
0001
0100
0001
0010
0100
1000
0001
0010
0001
1000
0100
,
0010
0001
0100
0010
0100
0001
1000
0100
1000
0010
0100
0001
1000
0100
0010
0001
,
0100
0010
1000
0001
0010
0100
1000
0001
1000
0010
0100
0010
1000
0001
0100
0001
,
0010
0100
1000
0010
0100
0010
1000
0100
0010
0001
0100
0010
1000
0001
0010
0100
,
1000
0001
0010
0001
0100
0010
1000
0001
0100
0001
1000
0010
1000
0001
0010
0100
,
1000
0010
0100
0001
1000
0100
1000
0010
0100
0010
1000
0001
0100
0001
0010
0100
,
1000
0010
0100
0010
1000
0001
0100
0001
0010
0100
1000
0010
0100
0001
1000
0100
,
0010
0001
0100
0010
1000
0100
0010
0001
0100
0010
0100
0001
1000
0100
1000
0010
,
0100
0001
1000
0100
0010
0001
1000
0010
1000
0001
0100
0001
0010
0100
1000
0010
,
0100
0001
1000
0100
0010
0001
1000
0100
1000
0010
0100
0010
1000
0001
0100
0001
,
0010
0100
1000
0010
0100
0010
1000
0001
0100
0001
0010
0100
1000
0010
0100
0010
,
1000
0001
1000
0100
0010
0001
1000
0010
1000
0100
0010
0001
0100
0001
1000
0100
,
1000
0010
0100
0001
0010
0001
1000
0100
0010
0001
1000
0100
1000
0010
0100
0010
,
1000
0001
0100
0001
0010
0100
1000
0001
0010
0001
1000
0100
0010
0001
0100
0010
,
0100
0001
1000
0100
1000
0010
0100
0001
1000
0100
0010
0001
0100
0010
1000
0001
,
0010
0100
1000
0001
1000
0010
0100
0010
1000
0001
0100
0001
0010
0100
1000
0010
,
0100
0010
1000
0100
0010
0001
0100
0010
1000
0001
0010
0100
1000
0001
0010
0001
,
0100
0010
1000
0001
0100
0001
1000
0010
1000
0001
0010
0100
1000
0010
0100
0001
,
1000
0100
1000
0010
0100
0010
1000
0001
0100
0001
0010
0100
1000
0010
0100
0010
,
1000
0001
0100
0001
0010
0100
1000
0010
0100
0001
1000
0100
0010
0001
0100
0010
,
1000
0100
0010
0001
0100
0010
0100
0001
1000
0100
1000
0010
0100
0001
1000
0100
,
0010
0001
1000
0010
1000
0001
0100
0001
0010
0100
1000
0010
0100
0001
1000
0100
,
0010
0001
1000
0100
1000
0010
0100
0010
1000
0001
0100
0001
0010
0100
1000
0010
,
0100
0010
1000
0001
0100
0001
0010
0100
1000
0010
0100
0010
1000
0001
1000
0100
,
0010
0001
1000
0010
1000
0100
0010
0001
0100
0001
1000
0100
1000
0010
0100
0001
,
0010
0001
1000
0100
0010
0001
1000
0100
1000
0010
0100
0010
1000
0001
0100
0001
,
0010
0100
1000
0001
0010
0001
1000
0100
0010
0001
0100
0010
0100
0001
1000
0100
,
1000
0010
0100
0001
1000
0100
0010
0001
0100
0010
1000
0001
0010
0100
1000
0001
,
1000
0010
0100
0010
1000
0001
0100
0001
0010
0100
1000
0010
0100
0010
1000
0100
,
0010
0001
0100
0010
1000
0001
0010
0100
1000
0001
0010
0001
0100
0010
1000
0001
,
0100
0001
1000
0010
1000
0001
0010
0100
1000
0010
0100
0001
1000
0100
1000
0010
,
0100
0010
1000
0001
0100
0001
0010
0100
1000
0010
0100
0010
1000
0001
0100
0001
,
0010
0100
1000
0010
0100
0001
1000
0100
0010
0001
0100
0010
1000
0100
0010
0001
,
0100
0010
0100
0001
1000
0100
1000
0010
0100
0001
1000
0100
0010
0001
1000
0010
,
1000
0001
0100
0001
0010
0100
1000
0010
0100
0001
1000
0100
0010
0001
1000
0100
,
1000
0010
0100
0010
1000
0001
0100
0001
0010
0100
1000
0010
0100
0010
1000
0001
,
0100
0001
0010
0100
1000
0010
0100
0010
1000
0001
1000
0100
0010
0001
1000
0010
,
1000
0100
0010
0001
0100
0001
1000
0100
1000
0010
0100
0001
0010
0001
1000
0100
,
0010
0001
1000
0100
1000
0010
0100
0010
1000
0001
0100
0001
0010
0100
1000
0001
,
0010
0001
1000
0100
0010
0001
0100
0010
0100
0001
1000
0100
1000
0010
0100
0001
,
1000
0100
0010
0001
0100
0010
1000
0001
0010
0100
1000
0001
1000
0010
0100
0010
,
1000
0001
0100
0001
0010
0100
1000
0010
0100
0010
1000
0100
0010
0001
0100
0010
,
1000
0001
0010
0100
1000
0001
0010
0001
0100
0010
1000
0001
0100
0001
1000
0010
,
1000
0001
0010
0100
1000
0010
0100
0001
1000
0100
1000
0010
0100
0010
1000
0001
,
0100
0001
0010
0100
1000
0010
0100
0010
1000
0001
0100
0001
0010
0100
1000
0010
,
0100
0001
1000
0100
0010
0001
0100
0001
1000
0100
0010
0001
0100
0010
0100
0001
,
1000
0100
1000
0010
0100
0001
1000
0100
0010
0001
1000
0010
1000
0001
0100
0001
,
0010
0100
1000
0010
0100
0001
1000
0100
0010
0001
1000
0100
1000
0010
0100
0010
,
1000
0001
0100
0001
0010
0100
1000
0010
0100
0010
1000
0001
0100
0001
0010
0100
,
1000
0010
0100
0010
1000
0001
1000
0100
0010
0001
1000
0010
1000
0100
0010
0001
,
0100
0001
1000
0100
1000
0010
0100
0001
0010
0001
1000
0100
0010
0001
1000
0100
,
1000
0010
0100
0010
1000
0001
0100
0001
0010
0100
1000
0001
0010
0001
1000
0100
,
0010
0001
0100
0010
0100
0001
1000
0100
1000
0010
0100
0001
1000
0100
0010
0001
,
0100
0010
1000
0001
0010
0100
1000
0001
1000
0010
0100
0010
1000
0001
0100
0001
,
0010
0100
1000
0010
0100
0010
1000
0100
0010
0001
0100
0010
1000
0001
0010
0100
,
1000
0001
0010
0001
0100
0010
1000
0001
0100
0001
1000
0010
1000
0001
0010
0100
,
1000
0010
0100
0001
1000
0100
1000
0010
0100
0010
1000
0001
0100
0001
0010
0100
,
1000
0010
0100
0010
1000
0001
0100
0001
0010
0100
1000
0010
0100
0001
1000
0100
,
0010
0001
0100
0010
1000
0100
0010
0001
0100
0010
0100
0001
1000
0100
1000
0010
,
0100
0001
1000
0100
0010
0001
1000
0010
1000
0001
0100
0001
0010
0100
1000
0010
,
0100
0001
1000
0100
0010
0001
1000
0100
1000
0010
0100
0010
1000
0001
0100
0001
,
0010
0100
1000
0010
0100
0010
1000
0001
0100
0001
0010
0100
1000
0010
0100
0010
,
1000
0001
1000
0100
0010
0001
1000
0010
1000
0100
0010
0001
0100
0001
1000
0100
,
1000
0010
0100
0001
0010
0001
1000
0100
0010
0001
1000
0100
1000
0010
0100
0010
,
1000
0001
0100
0001
0010
0100
1000
0001
0010
0001
1000
0100
0010
0001
0100
0010
,
0100
0001
1000
0100
1000
0010
0100
0001
1000
0100
0010
0001
0100
0010
1000
0001
,
0010
0100
1000
0001
1000
0010
0100
0010
1000
0001
0100
0001
0010
0100
1000
0010
,
0100
0010
1000
0100
0010
0001
0100
0010
1000
0001
0010
0100
1000
0001
0010
0001
,
0100
0010
1000
0001
0100
0001
1000
0010
1000
0001
0010
0100
1000
0010
0100
0001
,
1000
0100
1000
0010
0100
0010
1000
0001
0100
0001
0010
0100
1000
0010
0100
0010
,
1000
0001
0100
0001
0010
0100
1000
0010
0100
0001
1000
0100
0010
0001
0100
0010
,
1000
0100
0010
0001
0100
0010
0100
0001
1000
0100
1000
0010
0100
0001
1000
0100
,
0010
0001
1000
0010
1000
0001
0100
0001
0010
0100
1000
0010
0100
0001
1000
0100
,
0010
0001
1000
0100
1000
0010
0100
0010
1000
0001
0100
0001
0010
0100
1000
0010
,
0100
0010
1000
0001
0100
0001
0010
0100
1000
0010
0100
0010
1000
0001
1000
0100
,
0010
0001
1000
0010
1000
0100
0010
0001
0100
0001
1000
0100
1000
0010
0100
0001
,
0010
0001
1000
0100
0010
0001
1000
0100
1000
0010
0100
0010
1000
0001
0100
0001
,
0010
0100
1000
0001
0010
0001
1000
0100
0010
0001
0100
0010
0100
0001
1000
0100
,
1000
0010
0100
0001
1000
0100
0010
0001
0100
0010
1000
0001
0010
0100
1000
0001
,
1000
0010
0100
0010
1000
0001
0100
0001
0010
0100
1000
0010
0100
0010
1000
0100
,
0010
0001
0100
0010
1000
0001
0010
0100
1000
0001
0010
0001
0100
0010
1000
0001
,
0100
0001
1000
0010
1000
0001
0010
0100
1000
0010
0100
0001
1000
0100
1000
0010
,
0100
0010
1000
0001
0100
0001
0010
0100
1000
0010
0100
0010
1000
0001
0100
0001
,
0010
0100
1000
0010
0100
0001
1000
0100
0010
0001
0100
0010
1000
0100
0010
0001
,
0100
0010
0100
0001
1000
0100
1000
0010
0100
0001
1000
0100
0010
0001
1000
0010
,
1000
0001
0100
0001
0010
0100
1000
0010
0100
0001
1000
0100
0010
0001
1000
0100
,
1000
0010
0100
0010
1000
0001
0100
0001
0010
0100
1000
0010
0100
0010
1000
0001
,
0100
0001
0010
0100
1000
0010
0100
0010
1000
0001
1000
0100
0010
0001
1000
0010
,
1000
0100
0010
0001
0100
0001
1000
0100
1000
0010
0100
0001
0010
0001
1000
0100
,
0010
0001
1000
0100
1000
0010
0100
0010
1000
0001
0100
0001
0010
0100
1000
0001
,
0010
0001
1000
0100
0010
0001
0100
0010
0100
0001
1000
0100
1000
0010
0100
0001
,
1000
0100
0010
0001
0100
0010
1000
0001
0010
0100
1000
0001
1000
0010
0100
0010
,
1000
0001
0100
0001
0010
0100
1000
0010
0100
0010
1000
0100
0010
0001
0100
0010
,
1000
0001
0010
0100
1000
0001
0010
0001
0100
0010
1000
0001
0100
0001
1000
0010
,
1000
0001
0010
0100
1000
0010
0100
0001
1000
0100
1000
0010
0100
0010
1000
0001
,
0100
0001
0010
0100
1000
0010
0100
0010
1000
0001
0100
0001
0010
0100
1000
0010
,
0100
0001
1000
0100
0010
0001
0100
0010
1000
0100
0010
0001
0100
0010
0100
0001
,
1000
0100
1000
0010
0100
0001
1000
0100
0010
0001
1000
0010
1000
0001
0100
0001
,
0010
0100
1000
0010
0100
0001
1000
0100
0010
0001
1000
0100
1000
0010
0100
0010
,
1000
0001
0100
0001
0010
0100
1000
0010
0100
0010
1000
0001
0100
0001
0010
0100
,
1000
0010
0100
0010
1000
0001
1000
0100
0010
0001
1000
0010
1000
0100
0010
0001
,
0100
0001
1000
0100
1000
0010
0100
0001
0010
0001
1000
0100
0010
0001
1000
0100
,
1000
0010
0100
0010
1000
0001
0100
0001
0010
0100
1000
0001
0010
0001
1000
0100
,
0010
0001
0100
0010
0100
0001
1000
0100
1000
0010
0100
0001
1000
0100
0010
0001
,
0100
0010
1000
0001
0010
0100
1000
0001
1000
0010
0100
0010
1000
0001
0100
0001
,
0010
0100
1000
0010
0100
0010
1000
0100
0010
0001
0100
0010
1000
0001
0010
0100
,
1000
0001
0010
0001
0100
0010
1000
0001
0100
0001
1000
0010
1000
0001
0010
0100
,
1000
0010
0100
0001
1000
0100
1000
0010
0100
0010
1000
0001
0100
0001
0010
0100
,
1000
0010
0100
0010
1000
0001
0100
0001
0010
0100
1000
0010
0100
0001
1000
0100
,
0010
0001
0100
0010
1000
0100
0010
0001
0100
0010
0100
0001
1000
0100
1000
0010
,
0100
0001
1000
0100
0010
0001
1000
0010
1000
0001
0100
0001
0010
0100
1000
0010
,
0100
0001
1000
0100
0010
0001
1000
0100
1000
0010
0100
0010
1000
0001
0100
0001
,
0010
0100
1000
0010
0100
0010
1000
0001
0100
0001
0010
0100
1000
0010
0100
0010
,
1000
0001
1000
0100
0010
0001
1000
0010
1000
0100
0010
0001
0100
0001
1000
0100
,
1000
0010
0100
0001
0010
0001
1000
0100
0010
0001
1000
0100
1000
0010
0100
0010
,
1000
0001
0100
0001
0010
0100
1000
0001
0010
0001
1000
0100
0010
0001
0100
0010
,
0100
0001
1000
0100
1000
0010
0100
0001
1000
0100
0010
0001
0100
0010
1000
0001
,
0010
0100
1000
0001
1000
0010
0100
0010
1000
0001
0100
0001
0010
0100
1000
0010
,
0100
0010
1000
0100
0010
0001
0100
0010
1000
0001
0010
0100
1000
0001
0010
0001
,
0100
0010
1000
0001
0100
0001
1000
0010
1000
0001
0010
0100
1000
0010
0100
0001
,
1000
0100
1000
0010
0100
0010
1000
0001
0100
0001
0010
0100
1000
0010
0100
0010
,
1000
0001
0100
0001
0010
0100
1000
0010
0100
0001
1000
0100
0010
0001
0100
0010
,
1000
0001
0100
0010
0100
0001
1000
0100
0010
0001
0100
0010
1000
0001
0010
0100
,
1000
0010
0100
0001
0100
0010
1000
0001
2000
0000
0000
0000
0000
0000
0000
0000
,
3001
0000
0010
0200
0000
0000
0000
0000
1300
0010
1000
0001
0100
0010
0100
0001
,
1000
0100
1000
0010
0100
0001
1000
0100
0010
0001
1000
0010
1000
0001
0100
0001
,
0010
0100
1000
0010
0100
0001
1000
0100
0010
0001
1000
0100
1000
0010
0100
0010
,
1000
0001
0100
0001
0010
0100
1000
0010
0100
0010
1000
0001
0100
0001
0010
0100
,
1000
0010
0100
0010
1000
0001
1000
0100
0010
0001
1000
0010
1000
0100
0010
0001
,
0100
0001
1000
0100
1000
0010
0100
0001
0010
0001
1000
0100
0010
0001
1000
0100
,
1000
0010
0100
0010
1000
0001
0100
0001
0010
0100
1000
0001
0010
0001
1000
0100
,
0010
0001
0100
0010
0100
0001
1000
0100
1000
0010
0100
0001
1000
0100
0010
0001
,
0100
0010
1000
0001
0010
0100
1000
0001
1000
0010
0100
0010
1000
0001
0100
0001
,
0010
0100
1000
0010
0100
0010
1000
0100
0010
0001
0100
0010
1000
0001
0010
0100
,
1000
0001
0010
0001
0100
0010
1000
0001
0100
0001
1000
0010
1000
0001
0010
0100
,
1000
0010
0100
0001
1000
0100
1000
0010
0100
0010
1000
0001
0100
0001
0010
0100
,
1000
0010
0100
0010
1000
0001
0100
0001
0010
0100
1000
0010
0100
0001
1000
0100
,
0010
0001
0100
0010
1000
0100
0010
0001
0100
0010
0100
0001
1000
0100
1000
0010
,
0100
0001
1000
0100
0010
0001
1000
0010
1000
0001
0100
0001
0010
0100
1000
0010
,
0100
0001
1000
0100
0010
0001
1000
0100
1000
0010
0100
0010
1000
0001
0100
0001
,
0010
0100
1000
0010
0100
0010
1000
0001
0010
0000
0100
0000
0000
0000
1000
0000
,
0000
0001
0100
0000
0010
0000
0100
0001
,
1000
0100
1000
0020
0000
0000
0030
0000
,
0000
0000
0000
0000
,
0000
0000
0000
0000
,
0000
0000
0000
0000
;
