#TITLE:Get Love Power;
#SUBTITLE:Conboku_mahjong OP theme;
#ARTIST:Sakakibara Yui;
#TITLETRANSLIT:;
#SUBTITLETRANSLIT:;
#ARTISTTRANSLIT:;
#CREDIT:ALICE_;
#BANNER:Get Love Power.png;
#BACKGROUND:Get Love Power.jpg;
#LYRICSPATH:;
#CDTITLE:cdtitle.png;
#MUSIC:Get Love Power.mp3;
#OFFSET:1.075;
#SAMPLESTART:56.560;
#SAMPLELENGTH:18.240;
#SELECTABLE:YES;
#BPMS:0.000=137.000;
#STOPS:;
#BGCHANGES:2.500=Get Love Power.avi=1.000=1=0=1,
99999=-nosongbg-=1.000=0=0=0 // don't automatically add -songbackground-
;
// cache tags:
#FIRSTBEAT:4.000;
#LASTBEAT:250.063;
#SONGFILENAME:Songs/alice 4th complete step/Get Love Power/Get Love Power.sm;
#HASMUSIC:1;
#HASBANNER:1;
#MUSICLENGTH:112.307;
// end cache tags

//---------------dance-single - ----------------
#NOTES:
     dance-single:
     :
     Hard:
     6:
     0.546,0.473,0.134,0.134,0.027,399.000,15.000,15.000,0.000,0.000:
0000
0000
0000
0000
,
1000
0100
1000
0100
1000
0100
1000
0000
,
0001
0100
0001
0100
0001
0100
0001
0000
,
1000
0100
1000
0100
1000
0100
1000
0000
,
0001
0100
0001
0100
0001
0100
0001
0000
,
1000
0001
1000
0100
1000
0001
1000
0100
,
1000
0001
0100
0001
1000
0001
0100
0001
,
1000
0001
1000
0100
1000
0001
1000
0100
,
2000
3020
0230
0302
,
1003
0100
0010
0001
1000
0100
0010
0000
,
0001
0100
0010
1000
0001
0100
0010
0000
,
1000
0010
0100
0001
1000
0010
0100
0000
,
0001
0010
0100
1000
0001
0010
0100
0000
,
1000
0001
0100
0001
0010
0100
1000
0000
,
0001
1000
0100
1000
0010
0100
0001
0000
,
1000
0000
0010
0000
0001
0000
0010
0000
0100
0000
0000
0001
0000
0000
1000
0000
,
0000
0000
0101
0000
0000
1100
0000
0000
2002
0000
0000
0000
3003
0000
0000
0000
,
1000
0100
1000
0010
0100
0000
0100
0000
,
0001
0100
0001
0010
0100
0000
0100
0000
,
1000
0010
0100
0001
0010
0000
1000
0100
,
0000
0001
0100
0001
1000
1000
1100
0000
,
0001
0100
0001
0010
0100
0000
1000
0010
,
0000
0100
0001
1000
0002
0000
0103
0000
,
1000
0010
1000
0100
1000
0000
0010
0100
,
0000
0001
0010
0001
2000
0000
3100
1000
,
0020
0100
1000
0100
,
0001
0000
1000
0000
0100
0000
1030
0001
,
0000
1000
0100
0010
0001
1000
1000
0010
,
0000
1000
0100
0010
0001
1000
1000
0000
,
0201
1000
0010
1000
,
0001
0000
1000
0000
0010
0000
0301
1000
,
0000
0001
0010
0100
0000
0100
1000
0010
,
0000
0100
0100
0000
0001
0000
1000
0000
,
0001
0100
0001
0010
0001
0100
0001
0010
,
0100
1000
0010
1000
0100
1000
0010
0100
,
0001
0001
1000
0100
0001
1000
0100
1000
,
0010
0000
0100
0000
0000
1001
1001
0000
,
1000
0010
1000
0100
1000
0010
1000
0100
,
0010
0001
0100
0001
0010
0001
0100
0000
,
0010
1000
0001
0100
1000
0100
0001
0010
,
0100
0100
1000
0001
0200
0000
0301
0000
,
1000
0010
0100
0010
1000
0010
0100
0001
,
0010
0100
0010
0001
0010
0100
1000
0010
,
0100
0100
0001
1000
0010
0001
0010
1000
,
0100
0000
0110
0000
0000
1001
1001
0000
,
0001
0100
0001
0100
0010
1000
0001
1000
,
0100
0010
0100
1000
0001
0100
0010
0000
,
1000
0010
1000
0001
0100
0010
1000
0100
,
0010
0001
0100
1000
0020
0000
0130
0000
,
2001
0100
0010
0100
,
3002
0000
0100
0000
0013
0000
1000
0010
,
0200
0000
0001
0000
1000
0000
0010
0300
,
1000
0001
0100
0001
0010
0000
1100
0000
,
0001
0100
0001
0100
0001
0100
0010
0000
,
1000
0100
1000
0100
1000
0100
0010
0000
,
0001
1000
0100
1000
0010
0100
0010
0000
,
1000
0001
0100
0010
1000
0100
1000
0010
,
0100
0001
1000
0001
0010
0100
1000
0000
,
0001
0100
0001
1000
0010
0100
0001
0000
,
1000
0000
0100
0000
0010
0000
0100
0000
1000
0000
0000
0010
0000
0000
1000
0000
,
0001
0000
0100
0000
0010
0000
0100
0000
0001
0000
0000
0010
0000
0000
0001
0000
,
1000
0000
0100
0000
0001
0000
0100
0000
1000
0000
0000
0001
0000
0000
0100
0000
,
0000
0000
0110
0000
0000
0110
0000
0000
1001
0000
0000
0000
0000
0000
0000
0000
;

//---------------dance-single - ----------------
#NOTES:
     dance-single:
     :
     Challenge:
     14:
     1.000,1.000,1.000,0.374,0.971,616.000,181.000,42.000,0.000,11.000:
0000
0000
0000
0000
,
1000
0000
0001
0000
0010
0000
0100
0000
0010
0001
0000
0100
0000
0100
0000
0100
,
0000
0000
1000
0000
0010
0000
1000
0000
0010
0001
0000
0100
0000
0100
0000
0100
,
0010
0000
0001
0000
0010
0000
1000
0000
0100
0010
0000
0100
0000
0100
0000
0100
,
0000
0000
1000
0000
0001
0000
1000
0000
0010
0001
0000
0100
0000
0100
0000
0100
,
1010
0000
0001
0000
1100
0010
1000
0001
0100
0010
1000
0001
0100
0010
1000
0001
,
0010
0000
1000
0000
0101
1000
0010
0100
0001
1000
0010
0100
0001
1000
0010
0100
,
1000
0000
0001
0000
1010
0001
0100
0010
1000
0001
0100
0010
1000
0001
0100
0010
,
2100
0000
0000
0000
0000
0000
0001
0000
0000
0000
0000
0000
0001
0000
0000
0100
0000
0000
0000
0000
0000
0010
0000
0000
3001
0000
0000
0000
0000
0000
1000
0000
0010
0000
0100
0000
0001
0000
0000
0000
0000
0000
1001
0000
0000
0000
0000
0000
,
1100
0000
0001
0000
1010
0000
0100
0000
1010
0001
0000
0010
0100
0001
1000
0010
,
1100
0000
0010
0000
1001
0000
0100
0000
1001
0010
0000
0010
1000
0100
0010
0001
,
1100
0000
0001
0000
1010
0000
0100
0000
0011
0100
0000
0100
1000
0001
0100
0010
,
1100
0000
0010
0000
0101
0000
0010
0000
1001
0100
0000
1000
0001
0010
0100
1000
,
1010
0000
0101
0000
1010
0000
1100
0000
0110
1001
0000
0220
0000
0000
0330
0000
,
0101
0000
1010
0000
0011
0000
1100
0000
1001
0110
0000
0202
0000
0000
0313
0000
,
1100
0000
1010
0000
0110
0000
0101
0000
1010
1010
0000
0022
0000
0000
0133
0000
,
0000
0000
1001
0000
0000
0110
0000
0000
1002
0000
0103
0010
1000
0001
0100
0000
,
1000
0000
0010
0000
0001
0000
1000
0000
0010
0001
0000
0100
0000
0000
0010
0000
,
0000
0000
1000
0000
0100
0000
1000
0000
0010
0001
0000
0100
0000
0000
0000
0000
,
0010
0000
1000
0000
0100
0000
1000
0000
0010
0001
0000
0100
0000
0000
0010
0000
,
0000
0000
1000
0000
0001
0000
1000
0000
0010
0100
0001
0010
0002
0000
0103
0010
,
1100
0000
1000
0000
0101
0000
1000
0000
0110
0001
0000
0110
0000
0000
1001
0000
,
0000
0000
1010
0000
0101
0000
1010
0000
0100
0001
0000
0010
0000
0000
0000
0000
,
1000
0000
0110
0000
0001
0000
0110
0000
1000
0001
0000
0100
0000
0000
0011
0000
,
0000
0000
0001
0000
1010
0000
0100
0000
1000
0010
0000
0100
0001
0000
0101
0000
,
1001
0000
0100
0000
0010
0001
0000
0100
0000
0000
0000
0000
0000
0000
0000
0000
,
1001
0000
0100
0000
0010
0001
0000
1000
0000
0000
0000
0000
0000
0000
0010
0000
,
0000
0000
0010
0000
0100
0001
1000
0000
0100
0000
1001
0000
1001
0000
0010
0000
,
0000
0000
0010
0000
0100
1000
0001
0000
0100
0000
1001
0000
1001
0000
0110
0000
,
1010
0000
0100
0000
0010
0001
0000
0100
0001
1000
0010
0100
1001
0000
0010
0000
,
0101
0000
1000
0000
0110
0001
0000
1000
0010
0001
0010
0100
1001
0000
0010
0000
,
0000
0000
0100
1000
0010
1000
0001
0000
0000
0000
1000
0001
0100
0001
0020
0000
,
0030
0000
0000
0000
0000
0000
0000
0000
1001
0000
0000
0000
0000
0000
0000
0000
2002
3003
0000
0000
0000
0000
0000
0000
0000
0000
0000
0000
0000
0000
0000
0000
0010
0000
0000
0000
0100
0000
0000
0000
0010
0000
0000
0000
0100
0000
0000
0000
0001
0000
0000
0000
1000
0000
0000
0000
0001
0000
0000
0000
1000
0000
0000
0000
,
0101
0000
0001
0000
1010
0000
1000
0000
0110
0001
0000
0010
0100
0001
1000
0100
,
1010
0000
1000
0000
0101
0000
0010
0000
1100
0001
0000
1000
0001
0010
0001
0100
,
1010
0000
1000
0000
0011
0100
0001
0010
1100
0000
1000
0000
0011
0100
0001
0010
,
2000
0000
3100
0000
0110
1000
0001
0010
0000
0000
1001
0000
0110
0000
1000
1000
,
0101
0000
0001
0000
1010
0000
1000
0001
0110
0001
0000
0010
1000
0001
0010
0100
,
1001
0000
1000
0000
0110
0000
0001
0100
1010
0001
0000
0100
1000
0001
0010
0001
,
1100
0000
1000
0000
0110
0000
1000
0000
0101
0010
0000
0010
1100
0001
0010
0001
,
0100
0000
0010
0000
1001
0110
0000
0100
1001
0000
0010
0010
1001
0000
0010
0000
,
1100
0000
0001
0000
0101
0000
1001
0000
0210
0001
0300
0001
0010
1000
0100
1000
,
0011
0000
1000
0000
1010
0000
1001
0000
0120
1000
0030
1000
0100
1000
0001
0010
,
0101
0000
0001
0000
1010
0100
0010
1000
0011
0000
0001
0000
1010
0100
0010
1000
,
1001
0000
0010
0000
0110
0001
1000
0000
0100
0000
1100
0000
0011
0000
0100
0100
,
1100
0000
0001
0000
0101
0000
0010
0001
2100
0010
3000
0100
0001
0010
1000
0100
,
0011
0000
1000
0000
1010
0000
0001
1000
0012
0100
0003
0100
1000
0010
0001
0010
,
0101
0000
1001
0000
1010
0000
0100
0000
0101
0010
1000
0100
0001
0010
1000
0010
,
1100
0000
0101
0000
1001
0010
0001
0010
0101
0000
0100
0100
1010
0000
0010
0100
,
2001
0000
0100
0000
0010
0000
0100
0000
0010
0001
3000
0100
1000
0010
0100
0001
,
0012
0000
1000
0000
0100
0000
1000
0000
0100
0010
0003
0100
0001
0100
0010
1000
,
0120
0000
0001
0000
1000
0000
0100
0000
1000
0001
0000
0100
0000
0100
0000
0130
,
1000
0001
0010
0001
1000
0100
0001
0100
2002
0000
0000
0000
3223
0000
0000
0330
,
1100
0000
0011
0000
1010
0000
0101
0000
0110
1001
0000
0220
1000
0000
0331
0001
,
1100
0000
0110
0000
0101
0000
1010
0000
1001
0110
0000
2002
0100
0000
3013
0010
,
1100
0000
0011
0000
1001
0000
0110
0000
1010
0101
0000
2020
0100
0000
3031
0001
,
0110
0000
1100
0000
0110
0000
0101
0000
0011
1100
0000
2020
0000
3030
0101
0010
,
1001
0000
1100
0000
1010
0100
0001
0010
1100
0001
0010
0001
1000
0010
0100
0001
,
1001
0000
0101
0000
1010
0100
0001
1000
0110
0001
1000
0100
0001
0010
0100
0001
,
2001
0000
3020
0000
0230
0000
0302
0000
1103
1000
0000
0101
0000
0000
1010
0000
,
2000
0000
3002
0000
0203
0000
0320
0000
1031
0001
0000
1010
0000
0000
0101
0000
,
0110
0000
1001
0001
0100
0010
1000
0100
0001
0001
1000
0100
1000
0010
0100
0001
,
0000
0000
0000
0000
0000
0000
0000
0000
1001
0000
0000
0000
0000
0000
0000
0000
0000
0000
0000
0000
1001
0000
0000
0000
0000
0000
0000
0000
0000
0000
0000
0000
2002
3003
0000
0000
0000
0000
0000
0000
0000
0000
0000
0000
0000
0000
0000
0000
0000
0000
0000
0000
0000
0000
0000
0000
0000
0000
0000
0000
0000
0000
0000
0000
;

//---------------dance-single - ----------------
#NOTES:
     dance-single:
     :
     Medium:
     5:
     0.410,0.445,0.249,0.027,0.000,291.000,28.000,3.000,0.000,0.000:
0000
0000
0000
0000
,
1000
1000
1000
1000
,
0000
0001
0001
0001
,
1000
1000
1000
1000
,
0000
0001
0001
0001
,
0100
0010
1000
0010
,
0001
0100
0001
0010
,
1000
0100
1000
0001
,
0020
0000
0000
0130
,
1001
0000
1100
0000
0001
0100
0001
0000
,
1100
0000
1001
0000
0100
0001
0100
0000
,
1001
0000
0011
0000
1000
0010
1000
0000
,
0011
0000
1001
0000
0010
1000
0010
0100
,
0001
0000
1100
0000
0010
0001
0100
0000
,
0001
0000
1010
0000
0100
1000
0010
0000
,
0100
0001
0100
0001
1000
0100
0010
0000
,
0001
1000
1001
0000
,
1000
0000
1000
0100
1000
0000
1000
0000
,
0010
0000
0010
0100
0010
0000
0010
0000
,
1000
0000
1000
0001
1000
0000
0100
0000
,
0001
0010
0001
0010
0001
0000
0100
0000
,
1001
0000
0001
0100
0001
0000
0001
0000
,
0010
0000
0010
0100
0010
0000
0010
0000
,
1000
0000
1000
0001
1000
0000
0010
0000
,
1000
0100
1000
0100
1000
0000
0010
0100
,
0001
1000
0100
0010
,
0001
1000
0100
0010
,
1001
0000
0101
0000
1000
0100
0100
0000
,
1001
0000
1100
0000
0001
0100
0100
0000
,
1000
0001
0100
0010
,
1000
0001
0100
0010
,
1000
0100
0001
0100
,
1000
0001
1000
0000
1001
0000
1001
0000
,
0010
0100
0001
0001
,
0010
0100
1000
1000
,
0001
0010
0001
0000
1000
0010
1000
0000
,
0100
0000
0100
0000
0000
0010
1001
0000
,
1000
0001
0100
0100
,
0001
1000
0010
0010
,
1000
0100
1000
0000
0010
0100
0010
0000
,
1000
0001
0100
0001
1000
0000
1010
0000
,
0001
1000
0010
0010
,
0100
0001
1000
1000
,
0010
0100
0010
0000
1000
0001
1000
0000
,
0010
0000
0010
0000
0000
1000
0101
0000
,
0001
1000
0010
0010
,
1000
0001
0100
0100
,
0001
0010
0001
0000
0100
0010
0100
0000
,
0001
1000
0001
1000
0100
0000
0100
0000
,
1002
0010
0013
0010
,
2000
0010
3010
0001
,
1000
0100
0010
0100
,
1000
1001
0101
0011
,
0100
1000
0100
1000
0100
0000
0100
0000
,
1000
0010
1000
0010
1000
0000
1000
0000
,
0001
0100
0001
0100
0001
0000
0001
0000
,
0010
0001
0010
0001
0010
0000
0010
0000
,
0100
0000
1000
0000
0001
1000
0100
0000
,
0010
0000
0001
0000
1000
0001
0010
0000
,
1000
0100
0010
0000
1000
0000
1000
0000
,
0001
0100
0010
0000
0001
0000
0001
0000
,
1000
0100
0010
0000
1000
0000
1000
0000
,
0101
1100
0110
0000
;

//---------------dance-single - Copied from----------------
#NOTES:
     dance-single:
     Copied from:
     Easy:
     2:
     0.214,0.250,0.089,0.009,0.000,157.000,10.000,1.000,0.000,0.000:
0000
0000
0000
0000
,
1000
0000
1000
0000
,
0001
0000
0001
0000
,
1000
0000
1000
0000
,
0001
0000
0001
0000
,
0100
0000
1000
0000
,
0001
0000
1000
0000
,
0010
0000
0100
0000
,
0002
0000
0000
0003
,
1001
1000
0001
0000
,
1000
0001
0100
0000
,
0001
0001
1000
0000
,
0010
0001
0010
0100
,
0001
0000
1000
0000
,
0100
0000
0010
0000
,
1000
0001
0010
0100
,
0010
0000
0000
0000
,
1000
1000
1000
0000
,
0100
0100
0100
0000
,
0001
0001
0001
0000
,
0010
0010
0010
0000
,
0001
1000
0001
0000
,
0100
0010
0100
0000
,
1000
0100
1000
0000
,
0010
0100
0010
0100
,
0001
0000
1000
0000
,
1000
0000
0001
0000
,
0100
0001
0100
0000
,
1000
0100
1000
0000
,
0001
0000
1000
0000
,
1000
0000
0010
0000
,
0100
0000
0000
0000
,
1000
0000
1000
1001
,
0010
0000
0100
0000
,
0001
0000
0010
0000
,
1000
0100
1000
0001
,
0100
0100
0000
0000
,
0001
0000
1000
0000
,
0100
0000
0010
0000
,
0001
0100
0001
0100
,
0010
0100
0010
0000
,
1000
0000
0100
0000
,
0001
0000
0100
0000
,
1000
0010
0001
0010
,
1000
1000
0000
0000
,
0001
0000
1000
0000
,
0001
0000
0100
0000
,
0001
0100
1000
0100
,
0001
1000
0001
0000
,
1100
0000
0000
0000
,
0101
0000
0000
0000
,
1001
0000
0000
0000
,
0100
0010
0100
0010
,
1000
1000
1000
0000
,
0001
0001
0001
0000
,
1000
1000
1000
0000
,
0010
0010
0010
0000
,
0100
0000
1001
0000
,
0001
0000
1010
0000
,
1000
0000
0101
1000
,
0001
0000
1100
0001
,
0010
0000
0110
0001
,
1000
1000
1000
0000
;
