#TITLE:disillusion;
#SUBTITLE:(Fate/stay night Opening Theme);
#ARTIST:Sachi Tainaka;
#TITLETRANSLIT:;
#SUBTITLETRANSLIT:;
#ARTISTTRANSLIT:;
#CREDIT:;
#BANNER:disillusion banner.png;
#BACKGROUND:disillusion-bg.png;
#LYRICSPATH:;
#CDTITLE:KOA_cdtitle.png;
#MUSIC:Disillusion_TV_Size.mp3;
#OFFSET:-0.660;
#SAMPLESTART:59.930;
#SAMPLELENGTH:21.500;
#SELECTABLE:YES;
#BPMS:0.000=168.020;
#STOPS:;
#BGCHANGES:2.000=disillusion.avi=1.000=1=0=0,
236.000=disillusion-bg.png=1.000=1=0=0,
99999=-nosongbg-=1.000=0=0=0 // don't automatically add -songbackground-
;
// cache tags:
#FIRSTBEAT:21.500;
#LASTBEAT:252.000;
#SONGFILENAME:Songs/toune/disillusion (Fate-stay night)/disillusion.sm;
#HASMUSIC:1;
#HASBANNER:1;
#MUSICLENGTH:94.098;
// end cache tags

//---------------dance-single - ----------------
#NOTES:
     dance-single:
     :
     Hard:
     9:
     0.679,0.703,0.117,0.191,0.053,418.000,11.000,18.000,0.000,0.000:
0000
0000
0000
0000
,
0000
0000
0000
0000
,
0000
0000
0000
0000
,
0000
0000
0000
0000
,
0000
0000
0000
0000
,
0000
0000
0000
1000
0010
0100
0001
1000
,
0100
2000
0000
3001
0010
0100
1000
0100
,
0010
0001
0100
0010
1000
0001
0100
0010
,
0100
0002
0000
0013
0100
0010
0001
0100
,
1000
0100
0001
0010
1000
0010
0001
0100
,
0010
2000
0000
3010
0100
0001
1000
0100
,
0001
0200
0000
1300
0001
1000
0020
0000
,
0100
0130
0000
0010
1000
0001
1000
0100
,
0001
0100
1000
0010
0001
0010
1000
0100
,
0010
0002
0000
0013
0100
1000
0001
0100
,
1000
0100
0001
1000
0100
0001
0100
1000
,
0001
2000
0000
3001
0010
0100
1000
0010
,
0001
0010
1000
0001
0010
1000
0010
0001
,
0100
0020
0000
0130
0001
0010
0100
0010
,
0001
2000
0000
3001
0010
0100
1000
0000
,
1000
0010
0000
0010
0100
0000
0100
0001
,
0000
1000
0100
0010
0001
0100
0101
0000
,
0100
0110
0000
0010
1010
0000
1000
1001
,
0000
0000
0001
0010
0001
0000
0010
0000
0100
0000
1000
0000
0010
0000
1000
0000
,
0010
1000
0100
1000
0010
0100
0001
0010
,
0001
0100
0010
0100
0001
0010
0100
1000
,
0100
0001
0100
0001
0100
1000
0001
0100
,
0010
2000
0000
0000
3001
0000
0001
0100
,
0010
0100
0001
0010
0001
0010
0100
1000
,
0010
0100
0010
1000
0100
0010
0001
0010
,
0100
1000
0010
0100
0001
1000
1100
0000
,
1001
0000
0101
0000
1001
0000
1000
0010
,
0010
1000
0100
0100
1000
0010
0100
0001
,
0001
0100
1000
1000
0100
0001
1000
0100
,
0100
0001
0100
0100
1000
0001
0100
0010
,
1000
0002
0000
0000
1003
0000
0001
0100
,
0100
0001
0010
0010
0100
0010
1000
0100
,
0100
1000
0010
0010
1000
0001
1000
0000
,
1000
0010
0000
1000
0001
1000
0010
0100
,
0010
1000
0100
0010
0100
0010
0001
1000
,
1001
0000
0000
0000
0001
0000
1001
0000
0000
0000
1000
0000
0001
0010
0001
0000
,
1000
0100
1000
0000
0001
0100
0001
0000
1000
0010
1000
0000
0001
0000
0100
0000
,
1000
0100
0001
0100
1000
0100
0001
0010
,
0100
0010
0001
0100
0010
1000
0100
0010
,
0100
1000
0010
0100
0010
1000
0100
0001
,
0100
1000
0001
0100
1000
0100
0001
0010
,
0100
0010
0001
0100
0010
0100
0001
0010
,
0100
1000
0010
0100
0001
0010
0001
0100
,
0010
1000
0100
0010
0001
1000
0010
0010
,
1000
0000
0100
0000
1000
0001
1000
0000
0001
1000
0001
0000
1000
0000
0100
0000
,
0001
0100
1000
0100
0001
0100
1000
0010
,
0100
0001
1000
0100
0010
0001
0100
0010
,
0100
0001
0010
0100
0010
0001
0100
1000
,
0100
0001
1000
0100
0001
0100
1000
0001
,
0010
0001
0100
0001
0010
0100
2000
3000
,
0200
0300
0020
0030
0002
0003
1000
0010
,
1000
0001
0100
0001
1000
0100
0000
0010
,
0100
1000
0010
0100
0001
1000
0001
0010
,
0001
1000
0100
1000
0001
0100
0000
0010
,
0100
0001
0000
0000
0001
1000
0000
0000
1000
0001
0000
0000
0020
0000
0000
0000
,
0100
0130
0000
0010
0001
1000
0010
0100
,
0001
1000
0100
0010
0001
0022
0000
0000
,
0000
0000
0000
0000
,
0033
0000
0000
0000
;

//---------------dance-single - ----------------
#NOTES:
     dance-single:
     :
     Medium:
     6:
     0.404,0.536,0.106,0.308,0.005,227.000,10.000,29.000,0.000,0.000:
0000
0000
0000
0000
,
0000
0000
0000
0000
,
0000
0000
0000
0000
,
0000
0000
0000
0000
,
0000
0000
0000
0000
,
0000
0000
0000
1000
0010
1000
0100
1000
,
0001
1000
0000
0100
0010
0001
0100
0000
,
0010
0000
1000
0001
0010
0001
0100
0001
,
1000
0001
0000
0010
0100
1000
0010
0000
,
0100
0001
1000
0002
,
0000
1000
0000
0000
1003
0000
2000
0000
,
0000
0001
0000
0000
3001
0000
0200
0000
,
0010
0310
0000
1000
0100
0010
0001
0010
,
0100
1000
0010
0100
0001
1000
0001
0100
,
0010
1000
0000
0001
0100
0001
1000
0000
,
0100
0000
0010
0100
1000
0001
0100
0010
,
0100
0001
0000
1000
0100
1000
0001
0000
,
0010
0100
1000
0002
,
0000
1000
0000
0000
1003
0000
2000
0000
,
0000
0002
3003
1000
,
1000
0010
0000
0010
0100
0000
0100
0001
,
0000
0010
0100
0010
0001
0000
0011
0000
,
0010
0110
0000
0100
1100
0000
1000
1001
,
0000
1000
0100
0001
0100
1000
0002
0000
,
0000
0100
0000
0000
0103
0000
0200
0000
,
0000
0010
0000
0000
0310
0000
0020
0000
,
0000
1000
0000
0000
1030
0000
2000
0000
,
0000
0000
3000
0020
,
0000
0100
0000
0000
0130
0000
0200
0000
,
0000
0001
0000
0000
0301
0000
0002
0000
,
0000
1000
0000
0000
1003
0000
1100
0000
,
0100
0110
0010
0012
,
0000
0010
0000
0000
0013
0000
0020
0000
,
0000
0100
0000
0000
0130
0000
0200
0000
,
0000
1000
0000
0000
1300
0000
2000
0000
,
0000
0000
3000
0002
,
0000
1000
0000
0000
1003
0000
2000
0000
,
0000
0001
0000
0000
3001
0000
1000
0000
,
0010
0100
0000
0000
0010
0000
1000
0000
,
0100
0010
0001
0100
,
0010
0000
0000
0010
0000
0000
0100
0000
,
0001
1000
0001
0020
,
0100
0000
0130
0000
0010
0001
0000
0000
,
0100
0000
0000
0000
0010
0000
0000
0000
1000
0000
0000
0000
0001
0000
0000
2000
,
0000
0000
3000
0010
,
0100
0001
1000
0200
,
0010
0000
0310
0000
0100
1000
0000
0000
,
0001
0000
0010
0000
0100
1000
0000
0002
,
0000
0000
0000
0000
1003
0000
0100
0010
,
0100
0010
0000
0000
0001
0000
2000
0000
,
0001
0000
3001
0000
1000
0010
0000
0000
,
0100
0001
0100
0000
0001
0010
0000
0200
,
0000
0000
0300
0000
0010
0001
0000
2000
,
0000
3000
0001
0020
,
0100
0130
0010
0001
,
0100
0010
1000
0001
,
0001
0000
0010
0000
0000
0011
0000
0000
,
0001
0010
0100
1000
,
1000
0000
0100
0000
0000
1100
0000
0000
,
0010
0010
0010
0001
,
0000
1000
0000
0000
0001
0000
0010
0000
,
0100
0000
0010
0000
0000
0220
0000
0000
,
0000
0000
0000
0000
,
0330
0000
0000
0000
;

//---------------dance-single - ----------------
#NOTES:
     dance-single:
     :
     Easy:
     3:
     0.247,0.301,0.128,0.319,0.000,121.000,12.000,30.000,0.000,0.000:
0000
0000
0000
0000
,
0000
0000
0000
0000
,
0000
0000
0000
0000
,
0000
0000
0000
0000
,
0000
0000
0000
0000
,
0000
0000
0000
1010
,
0000
0000
0000
1000
,
0010
0100
0001
0101
,
0000
0000
0000
0001
,
0010
0100
1000
2200
,
0000
0000
3300
0022
,
0000
0000
0033
0200
,
0000
0310
0000
0000
0000
0000
1000
0000
,
0100
0010
0001
1001
,
0000
0000
0000
1000
,
0010
0100
0010
0110
,
0000
0000
0000
0010
,
0100
0001
1000
2002
,
0000
0000
3003
0220
,
0000
0000
0330
2002
,
0000
0000
0000
0000
,
0000
0000
3003
1000
,
0000
0010
0000
0000
0100
0000
0000
0001
,
0000
1000
1000
0002
,
0000
0000
0003
0200
,
0000
0000
0300
0020
,
0000
0000
0030
2000
,
0000
0000
3000
0200
,
0000
0000
0300
0020
,
0000
0000
0030
0002
,
0000
0000
0003
1000
,
0000
0001
0000
2000
,
0000
0000
3000
0020
,
0000
0000
0030
0200
,
0000
0000
0300
0002
,
0000
0000
0003
0020
,
0000
0000
0030
0200
,
0000
0000
0300
2000
,
0000
0000
3001
0100
,
1000
0100
0001
1000
,
1001
0000
0000
1001
0000
0000
1000
0000
,
0100
0010
0001
1000
,
0000
0001
0000
1000
,
0010
0100
0010
0100
,
0000
0100
0000
0010
,
0100
0001
1000
0001
,
0000
1000
0000
0001
,
0100
0010
0100
0010
,
0000
0010
0000
0100
,
0001
1000
0100
0010
,
0000
0100
0000
0010
,
0001
0100
0010
1000
,
0000
1000
0000
0001
,
1000
0100
0010
0100
,
0000
0010
0000
0100
,
1000
0010
0100
0001
,
0001
0000
0001
0000
0000
0020
0000
0000
,
0000
0000
0030
0100
,
0100
0000
0100
0000
0000
2000
0000
0000
,
0000
0000
3000
0002
,
0000
0003
0100
0010
,
1000
0000
0001
0000
0000
2002
0000
0000
,
0000
0000
0000
0000
,
3003
0000
0000
0000
;
