#TITLE:butterfly;
#SUBTITLE:;
#ARTIST:SMiLE.dk;
#TITLETRANSLIT:;
#SUBTITLETRANSLIT:;
#ARTISTTRANSLIT:;
#CREDIT:;
#BANNER:b_fly.png;
#BACKGROUND:b_fly-bg.png;
#LYRICSPATH:;
#CDTITLE:;
#MUSIC:Butterfly.ogg;
#OFFSET:-1.750;
#SAMPLESTART:57.375;
#SAMPLELENGTH:12.000;
#SELECTABLE:YES;
#BPMS:0.000=137.997;
#STOPS:;
#BGCHANGES:;
// cache tags:
#FIRSTBEAT:0.000;
#LASTBEAT:270.000;
#SONGFILENAME:Songs/IzzySM Keyboard Mega Pack/ButterFly 2/butterfly.sm;
#HASMUSIC:1;
#HASBANNER:1;
#MUSICLENGTH:123.480;
// end cache tags

//---------------dance-single - MANIAC----------------
#NOTES:
     dance-single:
     MANIAC:
     Hard:
     7:
     0.479,0.519,0.235,0.016,0.126,383.000,29.000,2.000,0.000,0.000:

0000
0000
0000
0000
,
0000
0000
0000
0000
,
0000
0000
0000
0000
,
0000
0000
0000
0000
,
1000
0100
1000
0100
0000
0000
0000
0000
,
0001
0100
0001
0100
0000
0000
0000
0000
,
1000
0100
1000
0100
0000
0000
0000
0000
,
1001
0100
1001
0000
0000
0000
0000
0000
,
1000
0000
0000
0100
0000
0000
1000
0000
0001
0000
0100
0000
0001
0000
0000
0000
,
1000
0000
0000
0010
0000
0000
1000
0000
0001
0000
0010
0000
0001
0000
0000
0000
,
1000
0000
0000
0100
0000
0000
0010
0000
0001
0000
0100
0000
0010
0000
0000
0000
,
1010
0011
1001
0000
,
1001
0100
0001
0100
0000
0000
0000
0000
,
1001
0100
1000
0100
0000
0000
0000
0000
,
1001
1000
0001
1001
0000
0000
0000
0000
,
2000
0000
0100
3000
0002
0000
0003
0000
,
1000
0000
0000
0010
0000
0000
0100
0000
0001
0000
0100
0000
0101
0000
0000
0000
,
0001
0000
0000
0010
0000
0000
0100
0000
1000
0000
0100
0000
1100
0000
0000
0000
,
1000
0000
0000
0010
0000
0000
0100
0000
0001
0000
0100
0000
0101
0000
0000
0000
,
0001
0100
1000
0100
0001
0000
0000
0000
,
0001
0000
0000
0010
0000
0000
0100
0000
1000
0000
0100
0000
1100
0000
0000
0000
,
1000
0000
0000
0010
0000
0000
0100
0000
0001
0000
0100
0000
0101
0000
0000
0000
,
0001
0000
0000
0010
0000
0000
0100
0000
1000
0000
0100
0000
1100
0000
0000
0000
,
1000
0100
0001
0100
1000
0000
0000
0000
,
0100
0001
0100
0000
0100
1000
0100
1000
,
0100
0001
0100
0000
0100
1000
0100
1000
,
0100
0001
0100
0000
0100
1000
0100
1000
,
0100
0001
0100
0000
0100
1000
0100
1000
,
0100
0001
0100
0000
0100
1000
0100
1000
,
0100
0001
0100
0000
0100
1000
0100
1000
,
0100
0001
0100
0000
0100
1000
0100
1000
,
0100
0000
0001
0000
1000
0000
0000
0001
0000
0000
0000
0000
0000
0000
0000
0000
,
1000
0000
0000
0010
0000
0000
0100
0000
0001
0000
0100
0000
0101
0000
0000
0000
,
0001
0000
0000
0010
0000
0000
0100
0000
1000
0000
0100
0000
1100
0000
0000
0000
,
1000
0000
0000
0010
0000
0000
0100
0000
0001
0000
0100
0000
0101
0000
0000
0000
,
0001
0100
1000
0100
0001
0000
0000
0000
,
0001
0000
0000
0010
0000
0000
0100
0000
1000
0000
0100
0000
1100
0000
0000
0000
,
1000
0000
0000
0010
0000
0000
0100
0000
0001
0000
0100
0000
0101
0000
0000
0000
,
0001
0000
0000
0010
0000
0000
0100
0000
1000
0000
0100
0000
1100
0000
0000
0000
,
1000
0100
0001
0100
1000
0000
0000
0000
,
1000
0000
0100
0000
1000
0000
0100
1000
0000
0100
1000
0000
0100
0000
1000
0000
,
0001
0000
0100
0000
0001
0000
0100
0001
0000
0100
0001
0000
0100
0000
0001
0000
,
1000
0000
0010
0000
1000
0000
0010
1000
0000
0010
1000
0000
0010
0000
1000
0000
,
0001
0000
0010
0000
0001
0000
0010
0001
0000
0010
0001
0000
0010
0000
0001
0000
,
0010
0001
0010
0000
0010
1000
0010
1000
,
0010
0001
0010
0000
0010
1000
0010
1000
,
0010
0001
0010
0000
0010
1000
0010
1000
,
0010
0001
0010
0000
0010
1000
0010
1000
,
0010
0001
0010
0000
0010
1000
0010
1000
,
0010
0001
0010
0000
0010
1000
0010
1000
,
0010
0001
0010
0000
0010
1000
0010
1000
,
0010
0000
0001
0000
1000
0000
0000
0001
0000
0000
0000
0000
0000
0000
0000
0000
,
1000
0000
0000
0100
0000
0000
0010
0000
0001
0000
0010
0000
0011
0000
0000
0000
,
0001
0000
0000
0100
0000
0000
0010
0000
1000
0000
0010
0000
1010
0000
0000
0000
,
1000
0000
0000
0100
0000
0000
0010
0000
0001
0000
0010
0000
0011
0000
0000
0000
,
0001
0010
1000
0010
0001
0000
0000
0000
,
0001
0000
0000
0100
0000
0000
0010
0000
1000
0000
0010
0000
1010
0000
0000
0000
,
1000
0000
0000
0100
0000
0000
0010
0000
0001
0000
0010
0000
0011
0000
0000
0000
,
0001
0000
0000
0100
0000
0000
0010
0000
1000
0000
0010
0000
1010
0000
0000
0000
,
1000
0010
0001
0010
1000
0000
0000
0000
,
1000
0001
0100
0010
1000
0100
0010
0000
,
0001
0100
0010
1000
0100
0001
0100
0000
,
0010
0001
0010
1000
0010
0001
0100
0000
,
1000
0001
1000
0001
1001
0000
0000
0000
,
0001
1000
0100
0010
0001
0100
0010
0000
,
1000
0100
0010
0001
0100
1000
0100
0000
,
0010
1000
0010
0001
0010
1000
0100
0000
,
0001
1000
0001
1000
1001
0000
0000
0000
,;

//---------------dance-single - SMANIAC----------------
#NOTES:
     dance-single:
     SMANIAC:
     Challenge:
     10:
     1.000,1.000,0.875,0.867,1.000,653.000,108.000,107.000,0.000,1.000:
1000
0100
0010
0000
0110
0000
0100
0001
1000
0100
0010
0000
0110
0000
0010
1000
,
0001
0010
0100
0000
1001
0000
0100
0010
0001
1000
0100
0000
0011
0000
0010
0100
,
0001
0010
1000
0000
0110
0000
0100
0010
1000
0100
0001
0010
0100
0000
0000
0000
,
1100
0110
0011
1100
0011
0000
0000
0000
,
1000
0001
0100
0001
1000
0001
0110
0000
0000
0000
0000
0000
0000
0000
0000
0000
,
0001
1000
0100
1000
0001
1000
0110
0000
0000
0000
0000
0000
0000
0000
0000
0000
,
1000
0001
0100
0001
1000
0001
0220
0000
0000
0000
0000
0000
0000
0000
0000
0000
,
1331
0110
1001
0000
0000
0000
0000
0000
,
1000
0000
0000
0100
0000
0000
1000
0100
0001
0010
0100
0010
0001
0000
0000
0000
,
1000
0000
0000
0010
0000
0000
1000
0100
0001
1000
0010
0100
0001
0000
0000
0000
,
1000
0000
0000
0100
0000
0000
0100
0001
1000
0100
0001
1000
0100
0000
0000
0000
,
1010
1010
0011
0011
1001
0000
0000
0000
,
1001
0110
0001
1100
0000
0000
0000
0000
,
1001
0101
1000
0110
0000
0000
0000
0000
,
1001
1010
0101
1001
0000
0000
0000
0000
,
2000
0000
0000
3000
0210
0000
0000
0300
0002
0000
0000
0000
0003
0000
0000
0000
,
1000
0000
0000
0010
0000
0000
0110
0000
0101
0000
1100
0000
0101
0000
0000
0000
,
0001
0000
0000
0010
0000
0000
0110
0000
1001
0000
0110
0000
1100
0000
0000
0000
,
1000
0000
0000
0010
0000
0000
1100
0000
0011
0000
1100
0000
0101
0000
0000
0000
,
0011
1100
1001
0110
0011
0000
0000
0000
,
0001
0000
0000
0010
0000
0000
0100
0001
1000
0001
0100
1000
1100
0000
0000
0000
,
1000
0000
0000
0010
0000
0000
0100
1000
0001
1000
0100
0001
0101
0000
0000
0000
,
0001
0000
0000
0010
0000
0000
0100
1000
1000
0100
0100
1000
1100
0000
0000
0000
,
1000
0010
0100
0010
0001
0010
0100
0010
1000
0000
0000
0000
0000
0000
0000
0000
,
0100
1000
0001
1000
0100
0000
0000
0000
0100
0001
1000
0001
0100
0001
1000
0001
,
0100
1000
0001
1000
0100
0000
0000
0000
0100
0001
1000
0001
0100
0001
1000
0001
,
0100
1000
0001
1000
0100
0000
0000
0000
0100
0001
1000
0001
0100
0001
1000
0001
,
0100
1000
0001
1000
0100
0000
0000
0000
0100
0001
1000
0001
0100
0001
1000
0001
,
0100
1000
0001
1000
0100
0000
0000
0000
0100
0001
1000
0001
0100
0001
1000
0001
,
0100
1000
0001
1000
0100
0000
0000
0000
0100
0001
1000
0001
0100
0001
1000
0001
,
0100
1000
0001
1000
0100
0000
0000
0000
0100
0001
1000
0001
0100
0001
1000
0001
,
0100
0000
0011
0000
1100
0000
0000
1001
0000
0000
0000
0000
0000
0000
0000
0000
,
1000
0000
0000
0010
0000
0000
0100
0100
0001
0001
0100
0100
0101
0000
0000
0000
,
0001
0000
0000
0010
0000
0000
0100
0100
1000
1000
0100
0100
1100
0000
0000
0000
,
1000
0000
0000
0010
0000
0000
0100
0100
0001
0001
0100
0100
0101
0000
0000
0000
,
0011
0110
1100
0110
0011
0000
0000
0000
,
0001
0000
0000
0010
0000
0000
0101
0001
1010
0010
0110
0100
1100
0000
0000
0000
,
1000
0000
0000
0010
0000
0000
0110
0010
0011
0010
0110
0100
0101
0000
0000
0000
,
0001
0000
0000
0010
0000
0000
1100
0100
1100
1000
1100
0100
1100
0000
0000
0000
,
1100
0100
0110
0100
0101
0100
0110
0100
1100
0000
0000
0000
0000
0000
0000
0000
,
1000
0000
0100
0000
1000
0000
0100
1000
0000
0100
1000
0000
0100
0000
1000
0000
,
0001
0000
0100
0000
0001
0000
0100
0001
0000
0100
0001
0000
0100
0000
0001
0000
,
1000
0000
0010
0000
1000
0000
0010
1000
0000
0010
1000
0000
0010
0000
1000
0000
,
0001
0000
0010
0000
0001
0000
0010
0001
0000
0010
0001
0000
0010
0000
0001
0000
,
0010
0000
0001
0000
0010
0000
0000
0000
0020
0230
2300
3200
0320
0230
2300
3200
,
0320
2030
3002
2003
3020
2030
3002
0203
0320
0032
2003
3002
0023
0230
2300
3200
,
0320
0230
0302
2003
3020
0230
2300
3200
0320
0032
0023
2030
3020
0230
2300
3200
,
0320
0032
0023
0230
0320
0032
0023
0032
0023
0230
2300
3200
0320
0230
2300
3200
,
0320
0032
0023
0200
0330
1010
0101
0101
0020
0230
2300
3200
0320
0230
2300
3200
,
0320
0032
0023
0230
0320
0230
0320
0230
2300
3020
2030
3002
0023
0230
2300
3020
,
0032
0023
0032
0023
0230
2300
3200
0320
0230
2300
3200
0320
0230
2300
3200
0320
,
0032
0020
0033
1100
1100
0000
0000
0011
0000
0000
0000
0000
0000
0000
0000
0000
,
1000
0000
0000
0100
0000
0000
0010
0100
0001
0100
0010
0100
0011
0000
0000
0000
,
0001
0000
0000
0100
0000
0000
0010
0100
1000
0100
0010
0100
1010
0000
0000
0000
,
1000
0000
0000
0100
0000
0000
0010
0100
0010
0100
0010
0100
0110
0000
0000
0000
,
0110
0110
0110
0110
0110
0000
0000
0000
,
0001
0000
0000
0100
0000
0000
0010
0001
1000
0100
0010
0100
1010
0000
0000
0000
,
1000
0000
0000
0100
0000
0000
0010
0100
0001
0001
0010
0100
0011
0000
0000
0000
,
0001
0000
0000
0100
0000
0000
0010
0001
1000
0001
0010
0100
1010
0000
0000
0000
,
1000
0100
0010
0001
0010
0100
1000
0100
0011
0000
0000
0000
0000
0000
0000
0000
,
1000
0100
0001
0010
0100
1000
0010
0001
0010
0100
1000
0100
0010
0001
0010
0001
,
0010
0100
1000
0100
0010
0001
0010
0100
1000
0010
0100
1000
0010
0001
0010
1000
,
0100
0001
0010
0100
0010
1000
0100
0010
0001
0100
0010
0001
0100
1000
0000
0000
,
1000
0001
1000
0001
1001
0000
0000
0000
,
0001
0010
1000
0010
0100
1000
0010
0100
0001
0010
0100
1000
0010
0100
0010
0001
,
1000
0010
0100
1000
0010
0100
0001
0010
0100
0010
1000
0001
0100
0010
0100
1000
,
0010
0100
1000
0001
0010
0100
0001
1000
0010
0001
1000
0010
0100
0000
0000
0000
,
1001
1001
1001
1001
1001
1001
1001
1001
1001
0000
0000
0000
0000
0000
0000
0000
;
