#TITLE:Symbolism;
#SUBTITLE:;
#ARTIST:Electro-Light;
#TITLETRANSLIT:;
#SUBTITLETRANSLIT:;
#ARTISTTRANSLIT:;
#CREDIT:owenviau1;
#BANNER:;
#BACKGROUND:;
#LYRICSPATH:;
#CDTITLE:;
#MUSIC:Electro-Light - Symbolism.mp3;
#OFFSET:-0.363;
#SAMPLESTART:95.647;
#SAMPLELENGTH:29.999;
#SELECTABLE:YES;
#BPMS:0.000=170.000;
#STOPS:;
#BGCHANGES:;
// cache tags:
#FIRSTBEAT:13.000;
#LASTBEAT:822.000;
#SONGFILENAME:Songs/owenviau1 Simfiles 7/Symbolism - [owenviau1] v1.0.0/Symbolism.sm;
#HASMUSIC:1;
#HASBANNER:0;
#MUSICLENGTH:293.352;
// end cache tags

//---------------dance-single - 15.58 (15+) (owenvia----------------
#NOTES:
     dance-single:
     15.58 (15+) (owenvia:
     Challenge:
     15:
     1.000,1.000,0.290,1.000,1.000,2351.000,85.000,342.000,126.000,15.000:

0000
0000
0000
0000
,
0000
0000
0000
0000
,
0000
0000
0000
0000
,
0000
0000
0000
0000
0000
0000
1000
0100
0010
0001
0100
0010
2M0M
0000
0000
0000
0000
0000
3000
0000
0000
0000
0000
0000
,
0110
0000
0200
0000
0302
0003
0000
0000
0000
0000
0000
0000
2000
3000
0000
0000
,
0110
0000
0000
0000
0020
0000
0030
0000
0004
0000
0000
0003
0000
0000
0000
0000
2M1M
0000
0000
0000
0040
0000
0000
0000
3430
0000
0000
0000
0304
0000
0000
0000
,
0013
0000
0000
0100
0000
0000
1000
0000
0000
0001
0000
0000
0100
0000
0000
0000
0000
0000
0020
0000
0000
0030
0000
0000
1000
0000
0000
0100
0000
0000
0010
0000
0000
0001
0000
0000
0200
0000
0010
0300
1000
0000
0001
0000
0010
0000
0100
0000
,
2000
0000
0000
0000
3020
0030
0000
0000
M1M2
0000
0000
0000
2003
3000
0000
0000
,
0110
0000
0020
0000
2030
0000
3002
0000
0003
0000
0000
0000
0020
0030
0000
0000
,
1100
0000
2000
3000
0000
0000
0000
0000
1MM2
0000
0000
0000
4003
0000
3400
0000
,
0320
0000
0000
0031
0000
0000
2000
0000
0000
3010
0000
0000
0400
0000
0000
0300
0000
0000
0002
0000
0000
0003
0000
0000
2000
0000
0000
3100
0000
0000
0020
0000
0000
0031
0000
0000
0200
0000
0001
0300
1000
0000
0010
0000
0100
0000
0001
0000
,
2000
0000
0000
0000
3020
0030
0200
0300
1002
0000
0000
0000
0003
0000
0000
0000
,
0110
0000
0200
0000
0302
0003
0000
0000
0000
0000
0000
0000
2000
3000
0000
0000
,
0110
0000
0000
0000
0020
0000
0030
0000
0004
0000
0000
0003
0000
0000
0000
0000
2M1M
0000
0000
0000
0040
0000
0000
0000
3430
0000
0000
0000
0304
0000
0000
0000
,
0013
0000
0000
0100
0000
0000
1000
0000
0000
0001
0000
0000
0100
0000
0000
0000
0000
0000
0020
0000
0000
0030
0000
0000
1000
0000
0000
0100
0000
0000
0010
0000
0000
0001
0000
0000
0200
0000
0010
0300
1000
0000
0001
0000
0010
0000
0100
0000
,
2000
0000
0000
0000
3020
0030
0000
0000
M1M2
0000
0000
0000
2003
3000
0000
0000
,
0110
0000
0020
0000
2030
0000
3002
0000
0003
0000
0000
0000
0020
0030
0000
0000
,
1100
0000
2000
3000
0000
0000
0000
0000
1MM2
0000
0000
0000
4003
0000
3400
0000
,
0320
0000
0000
0031
0000
0000
2000
0000
0000
3010
0000
0000
0400
0000
0000
0300
0000
0000
0002
0000
0000
0003
0000
0000
2000
0000
0000
3100
0000
0000
0020
0000
0000
0031
0000
0000
0200
0000
0001
0300
1000
0000
0010
0000
0100
0000
0001
0000
,
2000
0000
0000
0000
3020
0030
0200
0300
M0M1
0000
1000
0100
0010
0001
0100
0010
,
1000
0000
0000
0000
0000
0000
0002
0000
0000
0000
0000
0000
0023
0000
0000
0030
0000
0000
0100
0000
1000
0000
0100
0000
0010
0000
0001
0000
1000
0000
0010
0000
0100
0000
0001
0000
2000
0000
0000
0000
0000
0000
0010
0000
0000
0000
0000
0000
,
3010
0000
0000
0000
0000
0000
0200
0000
0000
0300
0000
0000
0004
0000
0000
0000
0003
0000
1000
0000
0000
0100
0000
0000
M020
0000
0000
0000
0000
0000
0031
0000
0000
0000
0000
0000
0400
0000
0000
0000
0000
0000
0340
0000
0000
0000
0000
0000
,
2030
0000
0000
3000
0000
0000
0001
0000
0000
0010
0000
0000
0100
0000
0000
1000
0000
0000
0020
0000
0000
0130
0000
0000
0001
0000
0000
1000
0000
0000
0100
0000
0000
1000
0000
0000
0020
0000
0100
0030
0001
0000
1000
0000
0100
0000
0010
0000
,
0002
0000
0000
0000
0000
0000
1000
0000
0000
0000
0000
0000
2003
0000
0100
3000
0010
0000
0001
0000
0100
0000
0010
0000
2000
0000
0000
0000
0000
0000
0001
0000
0000
0000
0000
0000
3002
0000
0000
0003
0000
0000
0100
0000
0000
0000
0000
0000
,
0010
0000
2000
0000
3200
0000
0320
0031
1000
0010
0100
0001
2000
0000
0010
0000
,
3010
0000
0200
0300
0000
0000
0001
0000
2000
0000
3100
0010
0004
0000
0403
0310
,
2000
0000
0000
0000
0000
0000
3002
0000
0000
0000
0000
0000
0043
0000
0000
0000
0000
0000
0230
0000
1000
0300
0001
0000
2000
0000
0010
3000
0100
0000
0002
0000
1000
0003
0100
0000
0020
0000
0001
0030
0100
0000
0010
0000
1000
0000
0001
0000
,
0200
0000
0010
0000
0320
0030
2000
3000
0MM1
0000
1000
0100
0010
0001
0100
0010
,
1000
0000
0000
0000
0000
0000
0002
0000
0000
0000
0000
0000
0023
0000
0000
0030
0000
0000
0100
0000
1000
0000
0100
0000
0010
0000
0001
0000
1000
0000
0010
0000
0100
0000
0001
0000
2000
0000
0000
0000
0000
0000
0010
0000
0000
0000
0000
0000
,
3010
0000
0000
0000
0000
0000
0200
0000
0000
0300
0000
0000
0004
0000
0000
0000
0003
0000
1000
0000
0000
0100
0000
0000
M020
0000
0000
0000
0000
0000
0031
0000
0000
0000
0000
0000
0400
0000
0000
0000
0000
0000
0340
0000
0000
0000
0000
0000
,
2030
0000
0000
3000
0000
0000
0001
0000
0000
0010
0000
0000
0100
0000
0000
1000
0000
0000
0020
0000
0000
0130
0000
0000
0001
0000
0000
1000
0000
0000
0100
0000
0000
1000
0000
0000
0020
0000
0100
0030
0001
0000
1000
0000
0100
0000
0010
0000
,
0002
0000
0000
0000
0000
0000
1000
0000
0000
0000
0000
0000
2003
0000
0100
3000
0010
0000
0001
0000
0100
0000
0010
0000
2000
0000
0000
0000
0000
0000
0001
0000
0000
0000
0000
0000
3002
0000
0000
0003
0000
0000
0100
0000
0000
0000
0000
0000
,
0010
0000
2000
0000
3200
0000
0320
0031
1000
0010
0100
0001
2000
0000
0010
0000
,
3010
0000
0200
0300
0000
0000
0001
0000
2000
0000
3100
0010
0004
0000
0403
0310
,
2000
0000
0000
0000
0000
0000
3002
0000
0000
0000
0000
0000
0043
0000
0000
0000
0000
0000
0230
0000
1000
0300
0001
0000
2000
0000
0010
3000
0100
0000
0002
0000
1000
0003
0100
0000
0020
0000
0001
0030
0100
0000
0010
0000
1000
0000
0001
0000
,
0200
0000
0000
0000
0000
0000
0010
0000
0000
0000
0000
0000
0320
0000
0000
0030
0000
0000
2000
0000
0000
3000
0000
0000
0001
0000
0000
0000
0010
0000
0000
0000
0100
0000
0000
0000
1000
0000
0000
0000
0010
0000
0000
0000
0100
0000
0000
0000
,
0001
1000
0100
1000
0010
0100
0001
1000
0100
0010
0001
0100
,
0010
1000
0001
0010
0100
1000
0010
0100
0001
1000
0100
1000
,
0010
0100
0001
0010
0100
1000
0001
0010
0001
1000
0100
0010
,
0001
0000
0100
0000
0010
0000
1000
0000
0001
0000
0000
0000
0100
0000
0000
0010
0000
0000
1000
0000
0000
0001
0000
0000
,
0010
0001
1000
0100
0010
0001
0100
0010
,
1000
0001
0100
0010
0100
0001
1000
0010
,
0100
0010
1000
0001
1000
0100
0010
0001
,
0100
0001
0010
0100
1000
0010
1000
0001
,
0010
0001
0100
0010
1000
0001
0010
0100
,
1000
0001
0010
0001
1000
0100
0010
0001
,
1000
0010
1000
0001
0100
0010
1000
0100
,
0010
0001
1000
0100
1000
0010
0100
0001
,
0010
0100
1000
0001
0010
0001
1000
0100
,
1000
0010
0100
0001
1000
0100
1000
0001
,
0100
0010
1000
0100
0010
0001
1000
0010
,
1000
0000
0001
0000
0010
0000
0100
0000
1M0M
0010
0100
0001
1000
0100
0010
0001
,
0100
0000
0000
0010
0000
0000
1000
0000
0001
0000
0010
0000
0100
0000
0000
1000
0000
0000
0010
0000
0000
0100
0000
0000
0001
0000
0000
1000
0000
0000
0100
0000
0000
1000
0000
0000
0010
0000
0000
0100
0000
0000
0001
0000
0000
0010
0000
0000
,
0100
0000
0000
1000
0000
0000
0010
0000
0100
0000
0001
0000
1000
0000
0000
0100
0000
0000
0010
0000
0000
0001
0000
0000
1M0M
0000
0000
0010
0000
0000
1000
0000
0000
0001
0000
0000
0010
0000
0000
0100
0000
0000
1000
0000
0000
0010
0000
0000
,
0100
0000
0000
0001
0000
0000
1000
0000
0100
0000
0010
0000
0001
0000
0000
0100
0000
0000
0010
0000
0000
0100
0000
0000
0001
0000
0000
1000
0000
0000
0100
0000
0000
1000
0000
0000
0010
0000
0000
0100
0000
0000
0001
0000
0000
1000
0000
0000
,
0100
0000
0000
0010
0000
0000
0001
0000
0100
0000
0010
0000
1000
0000
0000
0001
0000
0000
0010
0000
0000
0100
0000
0000
1M0M
0000
0000
0010
0000
0000
0100
0000
0000
0001
0000
0000
1000
0000
0000
0100
0000
0000
0010
0000
0000
0001
0000
0000
,
0100
0000
0000
0010
0000
0000
1000
0000
0001
0000
0010
0000
0100
0000
0000
1000
0000
0000
0010
0000
0000
0100
0000
0000
0MM1
0000
0000
1000
0000
0000
0100
0000
0000
1000
0000
0000
0010
0000
0000
0100
0000
0000
0001
0000
0000
0010
0000
0000
,
0100
0000
0000
1000
0000
0000
0010
0000
0100
0000
0001
0000
1000
0000
0000
0100
0000
0000
0010
0000
0000
0001
0000
0000
M10M
0000
0000
0010
0000
0000
1000
0000
0000
0001
0000
0000
0010
0000
0000
0100
0000
0000
1000
0000
0000
0010
0000
0000
,
0100
0000
0000
0001
0000
0000
1000
0000
0100
0000
0010
0000
0001
0000
0000
1000
0000
0000
0010
0000
0000
0100
0000
0000
0MM1
0000
0000
1000
0000
0000
0100
0000
0000
1000
0000
0000
0010
0000
0000
0100
0000
0000
0001
0000
0000
1000
0000
0000
,
0100
0000
0000
0010
0000
0000
0001
0000
0100
0000
0010
0000
1000
0000
0000
0001
0000
0000
0010
0000
0000
0100
0000
0000
1M0M
0000
0000
0010
0000
0000
0100
0000
0000
0001
0000
0000
1000
0000
0000
0100
0000
0000
0010
0000
0000
0001
0000
0000
,
M10M
0000
0000
0010
0000
0000
1000
0000
0001
0000
0010
0000
0100
0000
0000
1000
0000
0000
0010
0000
0000
0100
0000
0000
0MM1
0000
0000
1000
0000
0000
0100
0000
0000
1000
0000
0000
0010
0000
0000
0100
0000
0000
0001
0000
0000
0010
0000
0000
,
01MM
0000
0000
1000
0000
0000
0010
0000
0100
0000
0001
0000
1000
0000
0000
0100
0000
0000
0010
0000
0000
0001
0000
0000
1M0M
0000
0000
0010
0000
0000
1000
0000
0000
0001
0000
0000
0010
0000
0000
0100
0000
0000
1000
0000
0000
0010
0000
0000
,
M1M0
0000
0000
0001
0000
0000
1000
0000
0100
0000
0010
0000
0001
0000
0000
0100
0000
0000
0010
0000
0000
0100
0000
0000
0MM1
0000
0000
1000
0000
0000
0100
0000
0000
1000
0000
0000
0010
0000
0000
0100
0000
0000
0001
0000
0000
1000
0000
0000
,
M10M
0000
0000
0010
0000
0000
0001
0000
0100
0000
0010
0000
1000
0000
0000
0001
0000
0000
0010
0000
0000
0100
0000
0000
1M0M
0000
0000
0010
0000
0000
0100
0000
0000
0001
0000
0000
10MM
0000
0000
0100
0000
0000
0010
0000
0000
0001
0000
0000
,
M10M
0000
0000
0010
0000
0000
1000
0000
0001
0000
0100
0000
M01M
0000
0000
0100
0000
0000
0001
0000
0000
1000
0000
0000
MM01
0000
0000
0010
0000
0000
0100
0000
0000
1000
0000
0000
M01M
0000
0000
0100
0000
0000
0001
0000
0000
0010
0000
0000
,
01MM
0000
0000
1000
0000
0000
0010
0000
0100
0000
0001
0000
1MM0
0000
0000
0001
0000
0000
0100
0000
0000
0010
0000
0000
1M00
0000
0000
0001
0000
0000
01M0
0000
0000
0001
0000
0000
M010
0000
0000
0100
0000
0000
100M
0000
0000
0010
0000
0000
,
M100
0001
0M10
0001
1M00
0010
M100
0001
20M0
3000
0002
0003
0020
0030
0000
0000
,
0200
0000
0000
0000
0000
0000
1300
0010
0100
0001
0100
0010
1000
0001
0010
0100
1000
0010
0100
0001
1000
0100
1000
0010
,
0100
0000
0000
0001
0000
0000
1000
0000
0000
0100
0000
0000
1000
0000
0000
0010
0000
0000
0100
0000
0001
0000
1000
0000
0100
0000
0010
0000
0001
0000
0100
0000
0010
0000
1000
0000
0001
0000
0010
0000
0100
0000
1000
0000
0010
0000
0100
0000
,
0001
0000
0000
0000
0000
0000
2000
0000
0000
0000
0000
0000
3020
0000
0000
0000
0000
0000
0130
0000
0000
0001
0000
0000
1000
0000
0100
0000
0010
0000
0001
0000
0100
0000
0010
0000
1000
0000
0010
0000
0100
0000
0001
0000
0010
0000
0100
0000
,
1000
0000
0000
0000
0000
0000
0010
0000
0000
0000
0000
0000
0200
0000
0000
0000
0000
0000
0301
0000
0000
1000
0000
0000
0010
0000
0000
0100
0000
0000
0001
0000
0000
1000
0000
0000
0100
0000
0010
0000
0001
0000
0100
0000
0010
0000
1000
0000
,
0001
0000
0000
0010
0000
0000
0100
1000
0001
0100
0010
0100
0001
1000
0100
0010
0001
0100
0010
1000
0001
0010
0100
1000
,
0010
0000
0000
0100
0000
0000
0001
0000
0000
1000
0000
0000
0100
0000
0000
0000
0000
0000
0010
0000
0000
0001
0000
0000
0100
0000
0000
0010
0000
0000
1000
0000
0000
0001
0000
0000
0010
0000
0100
0000
1000
0000
0001
0000
0100
0000
0010
0000
,
1000
0000
0000
0000
0000
0000
0001
0000
0000
0000
0000
0000
0010
0000
0000
0000
0000
0000
0100
0000
0000
1000
0000
0000
0001
0000
0100
0000
0010
0000
0100
0000
0001
0000
1000
0000
0100
0000
0010
0000
0001
0000
0100
0000
0010
0000
1000
0000
,
0001
0000
0000
0100
0000
0000
0010
0000
0000
1000
0100
0010
0001
1000
0010
0100
0010
1000
0001
0010
0100
1000
0010
0100
,
0002
0000
0000
0003
0000
0000
4000
0000
0000
3000
0000
0000
0200
0000
0000
0000
0000
0000
0310
0000
0000
0001
0000
0000
1000
0000
0001
0000
0010
0000
0100
0000
1000
0000
0010
0000
0100
0000
0001
0000
1000
0000
0100
0000
1000
0000
0010
0000
,
0100
0000
0000
0001
0000
0000
1000
0000
0000
0100
0000
0000
1000
0000
0000
0010
0000
0000
0100
0000
0001
0000
1000
0000
0100
0000
0010
0000
0001
0000
0100
0000
0010
0000
1000
0000
0001
0000
0010
0000
0100
0000
1000
0000
0010
0000
0100
0000
,
0001
0000
0000
0000
0000
0000
2000
0000
0000
0000
0000
0000
3020
0000
0000
0000
0000
0000
0130
0000
0000
0001
0000
0000
1000
0000
0100
0000
0010
0000
0001
0000
0100
0000
0010
0000
1000
0000
0010
0000
0100
0000
0001
0000
0010
0000
0100
0000
,
1000
0000
0000
0000
0000
0000
0010
0000
0000
0000
0000
0000
0200
0000
0000
0000
0000
0000
0301
0000
0000
1000
0000
0000
0010
0000
0000
0100
0000
0000
0001
0000
0000
1000
0000
0000
0100
0000
0010
0000
0001
0000
0100
0000
0010
0000
1000
0000
,
0001
0000
0000
0010
0000
0000
0100
1000
0001
0100
0010
0100
0001
1000
0100
0010
0001
0100
0010
1000
0001
0010
0100
1000
,
0010
0000
0000
0100
0000
0000
0001
0000
0000
1000
0000
0000
0100
0000
0000
0000
0000
0000
0010
0000
0000
0001
0000
0000
0100
0000
0000
0010
0000
0000
1000
0000
0000
0001
0000
0000
0010
0000
0100
0000
1000
0000
0001
0000
0100
0000
0010
0000
,
1000
0000
0000
0000
0000
0000
0001
0000
0000
0000
0000
0000
0010
0000
0000
0000
0000
0000
0100
0000
0000
1000
0000
0000
0001
0000
0100
0000
0010
0000
0100
0000
0001
0000
1000
0000
0100
0000
0010
0000
0001
0000
0100
0000
0010
0000
1000
0000
,
0001
0000
0000
0100
0000
0000
0010
0000
0000
1000
0100
0010
0001
1000
0010
0100
0010
1000
0001
0010
0100
1000
0010
0100
,
0002
0000
0000
0003
0000
0000
4000
0000
0000
3000
0000
0000
0100
0000
0010
0000
0001
0000
0100
0000
0010
0000
1000
0000
0001
0000
0000
0010
0000
0000
0100
0000
0000
1000
0000
0000
0010
0000
0000
0100
0000
0000
0001
0000
0000
1000
0000
0000
,
0100
1000
0020
0130
0002
0013
0100
1000
0001
0010
0001
1000
0200
0310
0001
0100
,
0010
0000
1000
0000
0001
0000
0200
0000
0000
0300
0000
0000
0010
0000
0000
0000
0000
0000
1000
0000
0100
0000
0010
0000
0001
0000
1000
0000
0010
0000
0100
0000
0010
0000
1000
0000
0001
0000
0010
0000
0100
0000
1000
0000
0010
0000
0100
0000
,
0002
0000
0000
0003
0000
0000
1000
0000
0000
0000
0000
0000
0100
0000
0000
0000
0000
0000
0020
0000
0000
0031
0000
0000
0100
0000
0000
0000
0000
0000
0010
0000
0000
1000
0000
0000
0001
0000
0010
0000
0100
0000
1000
0000
0010
0000
0100
0000
,
0002
0000
0000
0000
0000
0000
1003
0000
0000
0000
0000
0000
0020
0000
0000
0130
0000
0000
0001
0000
0000
1000
0000
0000
0100
0000
0010
0000
0001
0000
1000
0000
0100
0000
1000
0000
0001
0000
0010
0000
0100
0000
1000
0000
0010
0000
0100
0000
,
0001
0000
0000
0000
0000
0000
2000
0000
0000
0000
0000
0000
3010
0000
0100
0000
0010
0000
1000
0000
0001
0000
0010
0000
0100
0000
0000
0000
0000
0000
1000
0000
0000
0010
0000
0000
0100
0000
0001
0000
1000
0000
0100
0000
0010
0000
0001
0000
,
0100
0000
0000
0000
0000
0000
0020
0000
0000
0030
0000
0000
1000
0000
0000
0000
0000
0000
0100
0000
0000
0010
0000
0000
0001
0000
1000
0000
0010
0000
0100
0000
0010
0000
1000
0000
0001
0000
0010
0000
0100
0000
1000
0000
0010
0000
0100
0000
,
0002
0000
0000
0000
0000
0000
2003
0000
0000
3000
0000
0000
0400
0000
0000
0000
0000
0000
0320
0000
0000
0000
0000
0000
0032
0000
0000
0000
0000
0000
0203
0000
0000
0310
0000
0000
2000
0000
0001
3000
0010
0000
0100
0000
1000
0000
0010
0000
,
0200
0000
0000
0000
0000
0000
0301
0000
0000
0000
0000
0000
2000
0000
0000
3000
0000
0000
0010
0000
0100
0000
0001
0000
1000
0000
0100
0000
0010
0000
0001
0000
0100
0000
0010
0000
1000
0000
0001
0000
0010
0000
0001
0000
0100
0000
0010
0000
,
1000
0000
0000
0000
0000
0000
0020
0000
0000
0000
0000
0000
0230
0000
0000
0000
0000
0000
0301
0000
0000
0000
0000
0000
1000
0000
0000
0000
0000
0000
0100
0000
0000
0010
0000
0000
0002
0000
1000
0003
0010
0000
0100
0000
0010
0000
1000
0000
,
0001
0000
0000
0000
0000
0000
0020
0000
0000
0030
0000
0000
0100
0000
0000
0000
0000
0000
1000
0000
0010
0000
0100
0000
0001
0000
1000
0000
0100
0000
1000
0000
0010
0000
0100
0000
0010
0000
1000
0000
0001
0000
0010
0000
0100
0000
1000
0000
,
0002
0000
0000
0003
0000
0000
0100
0000
0000
0000
0000
0000
0010
0000
0000
0000
0000
0000
0200
0000
0000
0301
0000
0000
1000
0000
0000
0000
0000
0000
0100
0000
0000
0000
0000
0000
0010
0000
0001
0000
0100
0000
0010
0000
1000
0000
0001
0000
,
0020
0000
0000
0000
0000
0000
0130
0000
0000
0000
0000
0000
1000
0000
0000
0010
0000
0000
0100
0000
0000
0001
0000
0000
1000
0000
0100
0000
0010
0000
0001
0000
1000
0000
0010
0000
0100
0000
0010
0000
1000
0000
0001
0000
0010
0000
0100
0000
,
1000
0000
0000
0020
0000
0000
0130
0001
1000
0100
0010
0001
1000
0000
0000
0010
0000
0000
0100
0001
1000
0100
0010
0001
,
0100
0000
0000
0000
0000
0000
0020
0000
0000
0030
0000
0000
1000
0000
0000
0000
0000
0000
0001
0000
0000
0100
0000
0000
0010
0000
1000
0000
0100
0000
1000
0000
0001
0000
0010
0000
0100
0000
1000
0000
0010
0000
0100
0000
0001
0000
1000
0000
,
0200
0000
0000
0000
0000
0000
0320
0000
0000
0000
0000
0000
0034
0000
0000
0000
0000
0000
0203
0000
0000
0000
0000
0000
0320
0000
0000
0000
0000
0000
1030
0000
0000
0001
0000
0000
0010
0000
0100
0000
1000
0000
0001
0000
0100
0000
0010
0000
,
2000
0000
0000
0000
0000
0000
3001
0000
0000
0000
0000
0000
0020
0000
0000
0030
0000
0000
0200
0000
1000
0300
0001
0000
1000
0000
0000
0000
0100
0000
0000
0000
0010
0000
0000
0000
0001
0000
0000
0000
0100
0000
0000
0000
0010
0000
0000
0000
,
1000
0001
0010
0001
1000
0100
0010
0001
0100
0010
1000
0001
,
0010
0100
1000
0010
0100
0010
1000
0001
0100
0001
1000
0100
,
0010
0001
1000
0010
1000
0100
0010
0001
0100
0010
1000
0001
,
0020
0000
0230
0000
0300
2002
0000
0000
,
3003
0220
0000
0000
0330
2020
0000
0000
,
3032
0000
0203
0000
0300
0022
0000
0000
,
0033
0220
0000
0000
1330
2002
0000
0000
,
3003
0000
2000
3200
0320
0000
0032
0000
,
0003
2200
0000
0000
3301
0202
0000
0000
,
2303
0000
3020
0000
0030
2200
0000
0000
,
3300
0220
0000
0000
0330
0022
0000
0000
,
0233
0000
2300
0000
3000
0220
0000
0000
,
0330
0202
0000
0000
0303
2020
0000
0000
,
3032
0000
0023
0000
0030
2200
0000
0000
,
3300
2002
0000
0000
3013
0220
0000
0000
,
0330
0202
0000
0000
1303
0010
0100
0001
,
0010
0001
1000
0100
0010
0001
1000
0010
,
1000
0001
0010
0001
0100
0010
1000
0001
,
0010
0100
1000
0001
0010
0001
1000
0100
,
1000
0010
0100
0001
1000
0100
0010
0001
,
1000
0010
1000
0001
0100
0010
0100
0001
,
1000
0100
1000
0010
0100
0001
1000
0100
,
0010
0001
1000
0010
1000
0001
0010
0001
,
0100
0010
1000
0001
0010
0100
1000
0010
,
0100
0001
1000
0100
1000
0010
0100
0001
,
1000
0100
0010
0001
1000
0010
1000
0001
,
0100
0010
0100
0001
1000
0100
1000
0010
,
0100
0001
1000
0100
0010
0001
0100
0010
,
1000
0001
0010
0001
1000
0100
1000
0010
,
0100
0001
1000
0100
0010
0001
0100
0010
,
1000
0001
0010
0001
1000
0010
0100
0010
,
1000
0000
0001
0000
0010
0000
0100
0000
1M0M
0010
0100
0001
1000
0100
0010
0001
,
0100
0000
0000
0010
0000
0000
1000
0000
0001
0000
0010
0000
0100
0000
0000
1000
0000
0000
0010
0000
0000
0100
0000
0000
0001
0000
0000
1000
0000
0000
0100
0000
0000
1000
0000
0000
0010
0000
0000
0100
0000
0000
0001
0000
0000
0010
0000
0000
,
0100
0000
0000
1000
0000
0000
0010
0000
0100
0000
0001
0000
1000
0000
0000
0100
0000
0000
0010
0000
0000
0001
0000
0000
1M0M
0000
0000
0010
0000
0000
1000
0000
0000
0001
0000
0000
0010
0000
0000
0100
0000
0000
1000
0000
0000
0010
0000
0000
,
0100
0000
0000
0001
0000
0000
1000
0000
0100
0000
0010
0000
0001
0000
0000
0100
0000
0000
0010
0000
0000
0100
0000
0000
0001
0000
0000
1000
0000
0000
0100
0000
0000
1000
0000
0000
0010
0000
0000
0100
0000
0000
0001
0000
0000
1000
0000
0000
,
0100
0000
0000
0010
0000
0000
0001
0000
0100
0000
0010
0000
1000
0000
0000
0001
0000
0000
0010
0000
0000
0100
0000
0000
1M0M
0000
0000
0010
0000
0000
0100
0000
0000
0001
0000
0000
1000
0000
0000
0100
0000
0000
0010
0000
0000
0001
0000
0000
,
0100
0000
0000
0010
0000
0000
1000
0000
0001
0000
0010
0000
0100
0000
0000
1000
0000
0000
0010
0000
0000
0100
0000
0000
0MM1
0000
0000
1000
0000
0000
0100
0000
0000
1000
0000
0000
0010
0000
0000
0100
0000
0000
0001
0000
0000
0010
0000
0000
,
0100
0000
0000
1000
0000
0000
0010
0000
0100
0000
0001
0000
1000
0000
0000
0100
0000
0000
0010
0000
0000
0001
0000
0000
M10M
0000
0000
0010
0000
0000
1000
0000
0000
0001
0000
0000
0010
0000
0000
0100
0000
0000
1000
0000
0000
0010
0000
0000
,
0100
0000
0000
0001
0000
0000
1000
0000
0100
0000
0010
0000
0001
0000
0000
1000
0000
0000
0010
0000
0000
0100
0000
0000
0MM1
0000
0000
1000
0000
0000
0100
0000
0000
1000
0000
0000
0010
0000
0000
0100
0000
0000
0001
0000
0000
1000
0000
0000
,
0100
0000
0000
0010
0000
0000
0001
0000
0100
0000
0010
0000
1000
0000
0000
0001
0000
0000
0010
0000
0000
0100
0000
0000
1M0M
0000
0000
0010
0000
0000
0100
0000
0000
0001
0000
0000
1000
0000
0000
0100
0000
0000
0010
0000
0000
0001
0000
0000
,
M10M
0000
0000
0010
0000
0000
1000
0000
0001
0000
0010
0000
0100
0000
0000
1000
0000
0000
0010
0000
0000
0100
0000
0000
0MM1
0000
0000
1000
0000
0000
0100
0000
0000
1000
0000
0000
0010
0000
0000
0100
0000
0000
0001
0000
0000
0010
0000
0000
,
01MM
0000
0000
1000
0000
0000
0010
0000
0100
0000
0001
0000
1000
0000
0000
0100
0000
0000
0010
0000
0000
0001
0000
0000
1M0M
0000
0000
0010
0000
0000
1000
0000
0000
0001
0000
0000
0010
0000
0000
0100
0000
0000
1000
0000
0000
0010
0000
0000
,
M1M0
0000
0000
0001
0000
0000
1000
0000
0100
0000
0010
0000
0001
0000
0000
0100
0000
0000
0010
0000
0000
0100
0000
0000
0MM1
0000
0000
1000
0000
0000
0100
0000
0000
1000
0000
0000
0010
0000
0000
0100
0000
0000
0001
0000
0000
1000
0000
0000
,
M10M
0000
0000
0010
0000
0000
0001
0000
0100
0000
0010
0000
1000
0000
0000
0001
0000
0000
0010
0000
0000
0100
0000
0000
1M0M
0000
0000
0010
0000
0000
0100
0000
0000
0001
0000
0000
10MM
0000
0000
0100
0000
0000
0010
0000
0000
0001
0000
0000
,
M10M
0000
0000
0010
0000
0000
1000
0000
0001
0000
0100
0000
M01M
0000
0000
0100
0000
0000
0001
0000
0000
1000
0000
0000
MM01
0000
0000
0010
0000
0000
0100
0000
0000
1000
0000
0000
M01M
0000
0000
0100
0000
0000
0001
0000
0000
0010
0000
0000
,
01MM
0000
0000
1000
0000
0000
0010
0000
0100
0000
0001
0000
1MM0
0000
0000
0001
0000
0000
0100
0000
0000
0010
0000
0000
1M00
0000
0000
0001
0000
0000
01M0
0000
0000
0001
0000
0000
M010
0000
0000
0100
0000
0000
100M
0000
0000
0010
0000
0000
,
M100
0001
0M10
0001
1M00
0010
M100
0001
20M0
3000
0002
0003
0020
0030
0000
0000
,
0200
0000
0000
0000
0000
0000
1300
0010
0100
0001
0100
0010
1000
0001
0010
0100
1000
0010
0100
0001
1000
0100
1000
0010
,
0100
0000
0000
0001
0000
0000
1000
0000
0000
0100
0000
0000
1000
0000
0000
0010
0000
0000
0100
0000
0001
0000
1000
0000
0100
0000
0010
0000
0001
0000
0100
0000
0010
0000
1000
0000
0001
0000
0010
0000
0100
0000
1000
0000
0010
0000
0100
0000
,
0001
0000
0000
0000
0000
0000
2000
0000
0000
0000
0000
0000
3020
0000
0000
0000
0000
0000
0130
0000
0000
0001
0000
0000
1000
0000
0100
0000
0010
0000
0001
0000
0100
0000
0010
0000
1000
0000
0010
0000
0100
0000
0001
0000
0010
0000
0100
0000
,
1000
0000
0000
0000
0000
0000
0010
0000
0000
0000
0000
0000
0200
0000
0000
0000
0000
0000
0301
0000
0000
1000
0000
0000
0010
0000
0000
0100
0000
0000
0001
0000
0000
1000
0000
0000
0100
0000
0010
0000
0001
0000
0100
0000
0010
0000
1000
0000
,
0001
0000
0000
0010
0000
0000
0100
1000
0001
0100
0010
0100
0001
1000
0100
0010
0001
0100
0010
1000
0001
0010
0100
1000
,
0010
0000
0000
0100
0000
0000
0001
0000
0000
1000
0000
0000
0100
0000
0000
0000
0000
0000
0010
0000
0000
0001
0000
0000
0100
0000
0000
0010
0000
0000
1000
0000
0000
0001
0000
0000
0010
0000
0100
0000
1000
0000
0001
0000
0100
0000
0010
0000
,
1000
0000
0000
0000
0000
0000
0001
0000
0000
0000
0000
0000
0010
0000
0000
0000
0000
0000
0100
0000
0000
1000
0000
0000
0001
0000
0100
0000
0010
0000
0100
0000
0001
0000
1000
0000
0100
0000
0010
0000
0001
0000
0100
0000
0010
0000
1000
0000
,
0001
0000
0000
0100
0000
0000
0010
0000
0000
1000
0100
0010
0001
1000
0010
0100
0010
1000
0001
0010
0100
1000
0010
0100
,
0002
0000
0000
0003
0000
0000
4000
0000
0000
3000
0000
0000
0200
0000
0000
0000
0000
0000
0310
0000
0000
0001
0000
0000
1000
0000
0001
0000
0010
0000
0100
0000
1000
0000
0010
0000
0100
0000
0001
0000
1000
0000
0100
0000
1000
0000
0010
0000
,
0100
0000
0000
0001
0000
0000
1000
0000
0000
0100
0000
0000
1000
0000
0000
0010
0000
0000
0100
0000
0001
0000
1000
0000
0100
0000
0010
0000
0001
0000
0100
0000
0010
0000
1000
0000
0001
0000
0010
0000
0100
0000
1000
0000
0010
0000
0100
0000
,
0001
0000
0000
0000
0000
0000
2000
0000
0000
0000
0000
0000
3020
0000
0000
0000
0000
0000
0130
0000
0000
0001
0000
0000
1000
0000
0100
0000
0010
0000
0001
0000
0100
0000
0010
0000
1000
0000
0010
0000
0100
0000
0001
0000
0010
0000
0100
0000
,
1000
0000
0000
0000
0000
0000
0010
0000
0000
0000
0000
0000
0200
0000
0000
0000
0000
0000
0301
0000
0000
1000
0000
0000
0010
0000
0000
0100
0000
0000
0001
0000
0000
1000
0000
0000
0100
0000
0010
0000
0001
0000
0100
0000
0010
0000
1000
0000
,
0001
0000
0000
0010
0000
0000
0100
1000
0001
0100
0010
0100
0001
1000
0100
0010
0001
0100
0010
1000
0001
0010
0100
1000
,
0010
0000
0000
0100
0000
0000
0001
0000
0000
1000
0000
0000
0100
0000
0000
0000
0000
0000
0010
0000
0000
0001
0000
0000
0100
0000
0000
0010
0000
0000
1000
0000
0000
0001
0000
0000
0010
0000
0100
0000
1000
0000
0001
0000
0100
0000
0010
0000
,
1000
0000
0000
0000
0000
0000
0001
0000
0000
0000
0000
0000
0010
0000
0000
0000
0000
0000
0100
0000
0000
1000
0000
0000
0001
0000
0100
0000
0010
0000
0100
0000
0001
0000
1000
0000
0100
0000
0010
0000
0001
0000
0100
0000
0010
0000
1000
0000
,
0001
0000
0000
0100
0000
0000
0010
0000
0000
1000
0100
0010
0001
1000
0010
0100
0010
1000
0001
0010
0100
1000
0010
0100
,
0002
0000
0000
0003
0000
0000
4000
0000
0000
3000
0000
0000
0100
0000
0010
0000
0001
0000
0100
0000
0010
0000
1000
0000
0001
0000
0000
0010
0000
0000
0100
0000
0000
1000
0000
0000
0010
0000
0000
0100
0000
0000
0001
0000
0000
1000
0000
0000
,
0100
1000
0020
0130
0002
0013
0100
1000
0001
0010
0001
1000
0200
0310
0001
0100
,
0010
0000
1000
0000
0001
0000
0200
0000
0000
0300
0000
0000
0010
0000
0000
0000
0000
0000
1000
0000
0100
0000
0010
0000
0001
0000
1000
0000
0010
0000
0100
0000
0010
0000
1000
0000
0001
0000
0010
0000
0100
0000
1000
0000
0010
0000
0100
0000
,
0002
0000
0000
0003
0000
0000
1000
0000
0000
0000
0000
0000
0100
0000
0000
0000
0000
0000
0020
0000
0000
0031
0000
0000
0100
0000
0000
0000
0000
0000
0010
0000
0000
1000
0000
0000
0001
0000
0010
0000
0100
0000
1000
0000
0010
0000
0100
0000
,
0002
0000
0000
0000
0000
0000
1003
0000
0000
0000
0000
0000
0020
0000
0000
0130
0000
0000
0001
0000
0000
1000
0000
0000
0100
0000
0010
0000
0001
0000
1000
0000
0100
0000
1000
0000
0001
0000
0010
0000
0100
0000
1000
0000
0010
0000
0100
0000
,
0001
0000
0000
0000
0000
0000
2000
0000
0000
0000
0000
0000
3010
0000
0100
0000
0010
0000
1000
0000
0001
0000
0010
0000
0100
0000
0000
0000
0000
0000
1000
0000
0000
0010
0000
0000
0100
0000
0001
0000
1000
0000
0100
0000
0010
0000
0001
0000
,
0100
0000
0000
0000
0000
0000
0020
0000
0000
0030
0000
0000
1000
0000
0000
0000
0000
0000
0100
0000
0000
0010
0000
0000
0001
0000
1000
0000
0010
0000
0100
0000
0010
0000
1000
0000
0001
0000
0010
0000
0100
0000
1000
0000
0010
0000
0100
0000
,
0002
0000
0000
0000
0000
0000
2003
0000
0000
3000
0000
0000
0400
0000
0000
0000
0000
0000
0320
0000
0000
0000
0000
0000
0032
0000
0000
0000
0000
0000
0203
0000
0000
0310
0000
0000
2000
0000
0001
3000
0010
0000
0100
0000
1000
0000
0010
0000
,
0200
0000
0000
0000
0000
0000
0301
0000
0000
0000
0000
0000
2000
0000
0000
3000
0000
0000
0010
0000
0100
0000
0001
0000
1000
0000
0100
0000
0010
0000
0001
0000
0100
0000
0010
0000
1000
0000
0001
0000
0010
0000
0001
0000
0100
0000
0010
0000
,
1000
0000
0000
0000
0000
0000
0020
0000
0000
0000
0000
0000
0230
0000
0000
0000
0000
0000
0301
0000
0000
0000
0000
0000
1000
0000
0000
0000
0000
0000
0100
0000
0000
0010
0000
0000
0002
0000
1000
0003
0010
0000
0100
0000
0010
0000
1000
0000
,
0001
0000
0000
0000
0000
0000
0020
0000
0000
0030
0000
0000
0100
0000
0000
0000
0000
0000
1000
0000
0010
0000
0100
0000
0001
0000
1000
0000
0100
0000
1000
0000
0010
0000
0100
0000
0010
0000
1000
0000
0001
0000
0010
0000
0100
0000
1000
0000
,
0002
0000
0000
0003
0000
0000
0100
0000
0000
0000
0000
0000
0010
0000
0000
0000
0000
0000
0200
0000
0000
0301
0000
0000
1000
0000
0000
0000
0000
0000
0100
0000
0000
0000
0000
0000
0010
0000
0001
0000
0100
0000
0010
0000
1000
0000
0001
0000
,
0020
0000
0000
0000
0000
0000
0130
0000
0000
0000
0000
0000
1000
0000
0000
0010
0000
0000
0100
0000
0000
0001
0000
0000
1000
0000
0100
0000
0010
0000
0001
0000
1000
0000
0010
0000
0100
0000
0010
0000
1000
0000
0001
0000
0010
0000
0100
0000
,
1000
0000
0000
0020
0000
0000
0130
0001
1000
0100
0010
0001
1000
0000
0000
0010
0000
0000
0100
0001
1000
0100
0010
0001
,
0100
0000
0000
0000
0000
0000
0020
0000
0000
0030
0000
0000
1000
0000
0000
0000
0000
0000
0001
0000
0000
0100
0000
0000
0010
0000
1000
0000
0100
0000
1000
0000
0001
0000
0010
0000
0100
0000
1000
0000
0010
0000
0100
0000
0001
0000
1000
0000
,
0200
0000
0000
0000
0000
0000
0320
0000
0000
0000
0000
0000
0034
0000
0000
0000
0000
0000
0203
0000
0000
0000
0000
0000
0320
0000
0000
0000
0000
0000
1030
0000
0000
0001
0000
0000
0010
0000
0100
0000
1000
0000
0001
0000
0100
0000
0010
0000
,
2000
0000
0000
0000
0000
0000
3001
0000
0000
0000
0000
0000
0020
0000
0000
0030
0000
0000
0200
0000
0000
0300
0000
0000
1000
0000
0000
0000
0100
0000
0000
0000
0010
0000
0000
0000
0001
0000
0000
0000
0100
0000
0000
0000
0010
0000
0000
0000
,
1000
0001
0010
0001
1000
0100
0010
0001
0100
0010
1000
0001
,
0010
0100
1000
0010
0100
0010
1000
0001
0100
0001
1000
0100
,
0010
0001
1000
0010
1000
0100
0010
0001
0100
0010
1000
0001
,
0020
0000
0230
0000
0300
2002
0000
0000
,
3003
0220
0000
0000
0330
2020
0000
0000
,
3032
0000
0203
0000
0300
0022
0000
0000
,
0033
0220
0000
0000
1330
2002
0000
0000
,
3003
0000
2000
3200
0320
0000
0032
0000
,
0003
2200
0000
0000
3301
0202
0000
0000
,
2303
0000
3020
0000
0030
2200
0000
0000
,
3300
0220
0000
0000
0330
0022
0000
0000
,
0233
0000
2300
0000
3000
0220
0000
0000
,
0330
0202
0000
0000
0303
2020
0000
0000
,
3032
0000
0023
0000
0030
2200
0000
0000
,
3300
2002
0000
0000
3013
0220
0000
0000
,
0330
0202
0000
0000
0303
2020
0000
0000
,
3030
2200
0000
0000
3300
0220
0000
0000
,
0330
0022
0000
0000
0033
2020
0000
0000
,
3030
2002
0000
0000
3003
0202
0000
0000
,
0303
2200
0000
0000
3300
2020
0000
0000
,
3030
0220
0000
0000
0330
0202
0000
0000
,
0303
2002
0000
0000
3003
0220
0000
0000
,
0330
2200
0000
0000
3300
0202
0000
0000
,
0303
0220
0000
0000
0330
2002
0000
0000
,
3003
2020
0000
0000
3030
0202
0000
0000
,
0303
2200
0000
0000
3300
0000
0000
0000
;
