#TITLE:Shut Down Everything;
#SUBTITLE:;
#ARTIST:The Quick Brown Fox;
#TITLETRANSLIT:;
#SUBTITLETRANSLIT:;
#ARTISTTRANSLIT:;
#CREDIT:;
#BANNER:SDE-BN.png;
#BACKGROUND:SDE-BG.png;
#LYRICSPATH:;
#CDTITLE:;
#MUSIC:Shut Down Everything.ogg;
#OFFSET:-0.072;
#SAMPLESTART:22.140;
#SAMPLELENGTH:12.000;
#SELECTABLE:YES;
#BPMS:0.000=220.000,57.000=440.000,73.000=220.000,75.000=110.000,76.000=440.000,77.000=1000000000.000,93.000=220.000,238.000=440.000,254.000=220.000,378.000=440.000,394.000=220.000,396.000=110.000,397.000=440.000,398.000=1000000000.000,414.000=220.000,483.000=179.220,483.250=140.820,483.500=94.900,483.750=75.480,484.000=55.000;
#STOPS:57.000=0.034
,57.250=0.034
,57.500=0.068
,58.000=0.068
,58.500=0.034
,58.750=0.034
,59.000=0.068
,59.500=0.068
,60.000=0.068
,60.500=0.068
,61.000=0.034
,61.250=0.034
,61.500=0.068
,62.000=0.068
,62.500=0.034
,62.750=0.034
,63.000=0.068
,63.500=0.068
,64.000=0.068
,64.500=0.068
,65.000=0.034
,65.250=0.034
,65.500=0.034
,65.750=0.034
,66.000=0.034
,66.250=0.034
,66.500=0.034
,66.750=0.034
,67.000=0.034
,67.250=0.034
,67.500=0.034
,67.750=0.034
,68.000=0.034
,68.250=0.034
,68.500=0.034
,68.750=0.034
,69.000=0.034
,69.250=0.034
,69.500=0.034
,69.750=0.034
,70.000=0.034
,70.250=0.034
,70.500=0.034
,70.750=0.034
,71.000=0.034
,71.250=0.034
,71.500=0.034
,71.750=0.034
,72.000=0.034
,72.250=0.034
,72.500=0.034
,72.750=0.034
,77.000=0.136
,85.000=0.273
,93.000=0.273
,238.000=0.034
,238.250=0.034
,238.500=0.068
,239.000=0.068
,239.500=0.034
,239.750=0.034
,240.000=0.068
,240.500=0.068
,241.000=0.068
,241.500=0.068
,242.000=0.034
,242.250=0.034
,242.500=0.068
,243.000=0.068
,243.500=0.034
,243.750=0.034
,244.000=0.068
,244.500=0.068
,245.000=0.068
,245.500=0.068
,246.000=0.034
,246.250=0.034
,246.500=0.034
,246.750=0.034
,247.000=0.034
,247.250=0.034
,247.500=0.034
,247.750=0.034
,248.000=0.034
,248.250=0.034
,248.500=0.034
,248.750=0.034
,249.000=0.034
,249.250=0.034
,249.500=0.034
,249.750=0.034
,250.000=0.034
,250.250=0.034
,250.500=0.034
,250.750=0.034
,251.000=0.034
,251.250=0.034
,251.500=0.034
,251.750=0.034
,252.000=0.034
,252.250=0.034
,252.500=0.034
,252.750=0.034
,253.000=0.034
,253.250=0.034
,253.500=0.034
,253.750=0.034
,378.000=0.034
,378.250=0.034
,378.500=0.068
,379.000=0.068
,379.500=0.034
,379.750=0.034
,380.000=0.068
,380.500=0.068
,381.000=0.068
,381.500=0.068
,382.000=0.034
,382.250=0.034
,382.500=0.068
,383.000=0.068
,383.500=0.034
,383.750=0.034
,384.000=0.068
,384.500=0.068
,385.000=0.068
,385.500=0.068
,386.000=0.034
,386.250=0.034
,386.500=0.034
,386.750=0.034
,387.000=0.034
,387.250=0.034
,387.500=0.034
,387.750=0.034
,388.000=0.034
,388.250=0.034
,388.500=0.034
,388.750=0.034
,389.000=0.034
,389.250=0.034
,389.500=0.034
,389.750=0.034
,390.000=0.034
,390.250=0.034
,390.500=0.034
,390.750=0.034
,391.000=0.034
,391.250=0.034
,391.500=0.034
,391.750=0.034
,392.000=0.034
,392.250=0.034
,392.500=0.034
,392.750=0.034
,393.000=0.034
,393.250=0.034
,393.500=0.034
,393.750=0.034
,398.000=0.136
,406.000=0.273
,414.000=0.273
;
#BGCHANGES:;
// cache tags:
#FIRSTBEAT:1.000;
#LASTBEAT:484.000;
#SONGFILENAME:Songs/SSSC Pack 2/Shut Down Everything [Zarkonis]/Shut Down Everything.sm;
#HASMUSIC:1;
#HASBANNER:1;
#MUSICLENGTH:126.902;
// end cache tags

//---------------dance-single - Zarkonis----------------
#NOTES:
     dance-single:
     Zarkonis:
     Challenge:
     15:
     1.000,1.000,0.465,0.087,1.000,1229.000,59.000,11.000,30.000,0.000:

0000
1MM1
0000
0000
,
0000
0000
0000
0000
,
0000
0000
0000
0000
0001
0100
0010
0000
0100
0000
0001
0100
0010
0000
1000
0000
,
0001
0000
1000
0000
0100
0010
0001
0000
0010
0000
0100
0010
0001
0000
1000
0000
,
0001
0000
1000
0000
0010
0100
0001
0000
0100
0000
0010
0100
0001
0000
0100
0000
,
0010
0000
1000
0000
0100
0000
1000
0100
0000
1000
0100
0000
0010
0000
0001
1000
,
0010
1000
0001
0000
1000
0100
0010
0000
0100
0000
1000
0100
0010
0000
0001
0000
,
1000
0000
0001
0000
1000
0010
0100
0000
0001
0000
1000
0010
0100
0000
0001
0000
,
1000
0000
0001
0000
0010
0100
1000
0000
0100
0000
0010
0100
1000
0000
0010
0000
,
0100
0000
0001
0000
0010
0000
0001
0010
0000
0001
0010
0000
0100
0000
1000
0000
,
0010
0100
0101
0000
0011
0000
0110
0000
,
1100
1001
0101
0000
0110
0000
1010
1000
,
1100
0110
0011
0000
0101
0000
0110
0000
,
1010
0000
1001
0000
0011
0000
0010
0001
0000
0010
0001
0000
0100
0000
0010
0000
,
1010
0000
1001
0000
0001
0100
0010
0000
1000
0000
0100
0010
0001
0000
0100
0000
,
0010
0000
1000
0000
0010
1000
0001
0000
0010
0000
0001
1000
0010
0000
1000
0000
,
0100
0000
0010
0000
0001
0010
0001
0010
0100
0010
0100
1000
0100
1000
0001
1000
,
0001
0100
0001
0100
0010
1000
0001
1000
0100
0010
0001
1000
0001
1000
0010
0100
,
0001
1000
0100
1000
0001
0000
0000
0000
0000
0000
0000
0000
2MMM
0000
0000
0000
,
0000
3000
0000
0000
,
0000
0000
0000
0000
,
0000
000M
0000
0000
,
0000
0000
0000
0000
,
0000
0000
0000
0000
0MMM
0000
0000
0000
1000
0100
1000
0100
0010
0100
0010
0001
,
0010
0001
1000
0001
1000
0000
0001
0000
1000
0010
1000
0010
0100
0010
0100
0001
,
0100
0001
1000
0001
1000
0000
0001
0000
0010
0001
0010
0001
0010
0100
0010
0100
,
1000
0100
1000
0001
1000
0000
0001
0000
0100
0000
0010
1000
0000
0010
1000
0000
,
0100
0000
0010
0001
1000
0010
0100
0001
1000
0010
1000
0010
0100
0010
0100
0001
,
0100
0001
1000
0001
1000
0000
0001
0000
1000
0100
1000
0100
0010
0100
0010
0001
,
0010
0001
1000
0001
1000
0000
0001
0000
0100
0001
0100
0001
0100
0010
0100
0010
,
1000
0010
1000
0001
1000
0000
0001
0000
0010
0000
0100
1000
0000
0100
1000
0000
,
0010
0000
0100
0001
1000
0100
0010
0001
1000
0001
1000
0001
0010
0001
0010
0100
,
0010
0100
1000
0001
1000
0000
0001
0000
1000
0001
1000
0001
0100
0001
0100
0010
,
0100
0010
1000
0001
1000
0000
0001
0000
1000
0001
1000
0001
0010
0001
0010
0100
,
0010
0100
1000
0001
1000
0000
0001
0000
0010
0000
0100
1000
0000
0100
1000
0000
,
0010
0000
0100
0001
1000
0100
0010
0001
1000
0010
0100
0001
1000
0100
0010
0100
,
1000
0001
1000
0001
0010
0000
0100
0000
1000
0100
0010
0001
1000
0010
0100
0010
,
1000
0001
1000
0001
0100
0000
0010
0000
1000
0100
0010
0001
1000
0100
1000
0010
,
0100
0001
0010
0001
1000
0000
0001
0000
0010
0000
0100
1000
0000
0100
1000
0000
,
1001
0000
0000
0000
0000
0000
0000
0000
0001
0100
0001
0100
0001
0000
1000
0100
,
1000
0100
1000
0000
0001
0010
0001
0010
0001
0000
1000
0010
1000
0010
1000
0000
,
0001
0010
0100
1000
0010
0100
0001
1000
0001
0010
0001
0010
0001
0000
1000
0010
,
1000
0010
1000
0000
0001
0100
0001
0100
0001
0000
1000
0000
1000
0000
1000
0000
,
0100
0010
0001
0000
0100
0010
1000
0000
0001
0010
0001
0010
0001
0000
1000
0001
,
1000
0001
1000
0000
0010
1000
0010
1000
0010
0000
0100
0010
0100
0010
0100
0000
,
0001
0010
0100
1000
0010
0100
0001
1000
0001
0100
0001
0100
0001
0000
1000
0001
,
1000
0001
1000
0000
0100
1000
0100
1000
0100
0000
0010
0000
0001
0000
1000
0000
,
0010
0000
0100
0000
0001
0000
0001
0000
1000
0100
1000
0100
1000
0000
0001
0100
,
0001
0100
0001
0000
1000
0010
1000
0010
1000
0000
0001
0010
0001
0010
0001
0000
,
1000
0010
0100
0001
0010
0100
1000
0001
1000
0010
1000
0010
1000
0000
0001
0010
,
0001
0010
0001
0000
1000
0100
1000
0100
1000
0000
0001
0000
0001
0000
0001
0000
,
0100
0010
1000
0000
0100
0010
0001
0000
1000
0010
1000
0010
1000
0000
0001
1000
,
0001
1000
0001
0000
0010
0001
0010
0001
0010
0000
0100
0010
0100
0010
0100
0000
,
1000
0010
0100
0001
0010
0100
1000
0001
1000
0100
1000
0100
1000
0000
0001
1000
,
0001
1000
0001
0000
0100
0001
0100
0001
0100
0000
0010
0000
1000
0000
0001
0000
,
2000
0000
0000
0000
0000
0000
0000
0000
0000
0000
0000
0000
0000
0000
0000
0000
0000
0000
0000
0000
0000
0000
0000
0000
0000
0000
0000
0000
0000
0000
0000
0000
0000
0000
0000
0000
0000
0000
0000
0000
0000
0000
0000
0000
0000
0000
0000
0000
0000
0000
0000
0000
0000
0000
0000
0000
0000
0000
0000
0000
0000
0000
0000
0000
0000
0000
0000
0000
0000
0000
0000
0000
0000
0000
0000
0000
0000
0000
0000
0000
0000
0000
0000
0000
0000
0000
0000
0000
0000
0000
0000
0000
0000
0000
0000
3000
0011
0000
0000
0000
0000
0000
0000
0000
0000
0000
0000
0000
0000
0000
0000
0000
0000
0000
0000
0000
0000
0000
0000
0000
0000
0000
0000
0000
0000
0000
0000
0000
0000
0000
0000
0000
0000
0000
0000
0000
0000
0000
0000
0000
0000
0000
0000
0000
0110
0000
0000
0000
0000
0000
0000
0000
0000
0000
0000
0000
0000
0000
0000
0000
0000
0000
0000
0000
0000
0000
0000
0000
0000
0000
0000
0000
0000
0000
0000
0000
0000
0000
0000
0000
0000
0000
0000
0000
0000
0000
0000
0000
0000
0000
0000
0000
,
1100
0000
1001
0101
0101
0000
0110
0000
,
1010
1000
1001
1001
0011
0000
1001
0000
,
1100
0000
0000
0000
0110
0000
0110
0000
0011
0000
0001
0010
0000
0001
0010
0000
,
0100
0000
1000
0010
0100
0001
1000
0000
0001
0010
0100
0000
1000
0000
0010
0100
,
0001
0000
0010
0000
0100
0000
1000
0000
0100
1000
0001
0000
0100
0000
0001
1000
,
0100
0000
1000
0000
0010
0000
0100
0000
0001
0100
0001
0100
0010
0100
0010
1000
,
0010
1000
0001
1000
0001
0010
0001
0010
0100
1000
0001
1000
0001
0100
0010
1000
,
0001
0010
0001
1000
0010
0100
0001
1000
0002
0000
0003
0000
0000
0000
0000
0000
,
2000
0000
0000
0000
3000
0000
0000
0000
0010
0000
0200
0300
0002
0003
0020
0030
,
0440
0330
0000
0000
4400
3300
0000
0000
4004
3003
0000
0000
0404
0303
0000
0000
0100
0000
0010
0000
1000
0000
0001
0000
1000
0000
0000
0000
0100
0000
0010
0000
,
0001
1000
0001
0000
1000
0010
0100
0001
1000
0000
0001
0010
0100
1000
0001
0000
,
1000
0001
1000
0001
0100
0010
0100
0010
1000
0001
0010
0001
1000
0000
0001
1000
,
0010
1000
0001
0000
1000
0100
0010
0100
1000
0000
0001
0000
0001
0000
0001
0000
,
0100
0010
1000
0000
0001
0010
0100
0000
1000
0010
0100
0010
1000
0000
0001
0010
,
0100
0010
0001
0000
1000
0010
0100
0001
0010
0000
0001
0010
0100
1000
0010
0000
,
0100
0010
0100
0010
1000
0001
1000
0001
0010
0100
1000
0001
0100
0000
0010
0100
,
0001
1000
0100
0000
0010
0100
1000
0001
0100
0001
0010
0001
1000
0001
0010
0001
,
0100
0010
1000
0001
0010
0000
0100
0000
1000
0001
1000
0001
0100
0000
0001
1000
,
0001
1000
0100
0000
0010
0001
0010
0001
1000
0000
0010
1000
0010
1000
0001
0000
,
0010
0100
1000
0001
0100
0010
1000
0100
1000
0001
0100
0001
1000
0000
0001
1000
,
0100
1000
0001
0000
0010
0100
1000
0001
1000
0000
0010
0000
0010
0000
0010
0000
,
0100
0001
1000
0000
0010
1000
0001
0000
1000
0100
1000
0001
0010
0000
0001
0100
,
0001
1000
0010
0000
1000
0100
0010
0001
1000
0000
0001
0100
0010
1000
0001
0000
,
0010
0001
0010
0001
1000
0001
1000
0001
1000
0010
0100
0010
1000
0000
0001
0010
,
0100
0010
0001
0000
1000
0010
0100
0001
1000
0001
1000
0001
0100
0001
0010
0001
,
2000
0000
0000
0000
0000
0000
0000
0000
3001
0000
00M0
0000
0M00
0000
M000
000M
,
M000
0000
00M0
0000
M000
000M
M000
0000
1000
0100
0010
0000
0100
0000
1000
0100
,
0010
0000
0001
0000
1000
0000
0001
0000
0100
0010
1000
0000
0010
0000
0100
0010
,
1000
0000
0001
0000
1000
0000
0001
0000
0010
0100
1000
0000
0100
0000
0010
0100
,
1000
0000
0100
0000
0010
0000
0001
0000
0100
0000
0001
0100
0000
0001
0100
0000
,
0010
0000
1000
0001
0010
0001
1000
0000
0001
0100
0010
0000
0100
0000
0001
0100
,
0010
0000
1000
0000
0001
0000
1000
0000
0001
0010
0100
0000
1000
0000
0001
0010
,
0100
0000
1000
0000
0001
0000
1000
0000
0010
0100
0001
0000
0100
0000
0010
0100
,
0001
0000
0010
0000
0100
0000
1000
0000
0010
0000
1000
0010
0000
1000
0010
0000
,
0100
0001
0010
0100
1100
0000
1010
0000
,
0110
0000
0101
1001
1100
0000
0110
0000
,
0011
0001
0101
0110
1010
0000
1100
0000
,
0110
0000
0000
0000
0011
0000
1001
0000
1010
0000
0010
1000
0000
0010
1000
0000
,
0100
0000
0010
0000
0011
0000
1001
0000
1000
0010
0100
0000
0001
0000
0010
0100
,
1000
0000
0010
0000
0100
0000
0001
0000
1000
0001
0010
0000
0100
0000
1000
0001
,
0100
0000
0001
0000
0010
0000
0100
0000
1000
0100
1000
0100
0010
0100
0010
0001
,
0010
0001
1000
0001
1000
0010
1000
0010
0100
0001
1000
0001
1000
0100
0010
0001
,
1000
0010
1000
0001
0010
0100
1000
0001
1000
0000
0000
0000
0000
0000
0000
0000
,
MMM2
0000
0003
0000
,
0000
0000
0000
0000
,
0000
0000
M000
0000
,
0000
0000
0000
0000
,
0000
0000
0000
0000
0000
0000
0000
0000
MMM0
0000
0000
0000
0001
0010
0001
0010
,
0001
0000
1000
0010
1000
0010
1000
0000
0001
0100
0001
0100
0001
0000
1000
0100
,
1000
0100
1000
0000
0001
0100
0010
1000
0100
0010
0001
1000
0001
0010
0001
0010
,
0001
0000
1000
0010
1000
0010
1000
0000
0001
0100
0001
0100
0001
0000
1000
0000
,
1000
0000
1000
0000
0100
0010
0001
0000
0100
0010
1000
0000
0001
0100
0001
0100
,
0001
0000
1000
0001
1000
0001
1000
0000
0100
1000
0100
1000
0100
0000
0010
0100
,
0010
0100
0010
0000
0001
0100
0010
1000
0100
0010
0001
1000
0001
0010
0001
0010
,
0001
0000
1000
0001
1000
0001
1000
0000
0010
1000
0010
1000
0010
0000
0100
0000
,
0001
0000
1000
0000
0100
0000
0010
0000
0001
0000
0001
0000
1000
0010
1000
0010
,
1000
0000
0001
0010
0001
0010
0001
0000
1000
0100
1000
0100
1000
0000
0001
0100
,
0001
0100
0001
0000
1000
0100
0010
0001
0100
0010
1000
0001
1000
0010
1000
0010
,
1000
0000
0001
0010
0001
0010
0001
0000
1000
0100
1000
0100
1000
0000
0001
0000
,
0001
0000
0001
0000
0100
0010
1000
0000
0100
0010
0001
0000
1000
0010
1000
0010
,
1000
0000
0001
1000
0001
1000
0001
0000
0010
0001
0010
0001
0010
0000
0100
0010
,
0100
0010
0100
0000
1000
0010
0100
0001
0010
0100
1000
0001
1000
0100
1000
0100
,
1000
0000
0001
1000
0001
1000
0001
0000
0100
0001
0100
0001
0100
0000
0010
0000
,
1000
0000
0000
0000
0000
0000
0000
0000
0000
0000
0000
0000
0000
0000
0000
0000
0000
0000
0000
0000
0000
0000
0000
0000
0001
0000
0000
0000
0000
0000
0000
0000
0000
0000
0000
0000
0000
0000
0000
0000
0000
0000
0000
0000
0000
0000
0000
0000
2000
0000
0000
0000
0000
0000
0000
0000
0000
0000
0000
0000
0000
0000
0000
0000
0000
0000
0000
0000
0000
0000
0000
0000
0000
0000
0000
0000
0000
0000
0000
0000
0000
0000
0000
0000
0000
0000
0000
0000
0000
0000
0000
0000
0000
0000
0000
0000
0000
0000
0000
0000
0000
0000
0000
0000
0000
0000
0000
0000
0000
0000
0000
0000
0000
0000
0000
0000
0000
0000
0000
0000
0000
0000
0000
0000
0000
0000
0000
0000
0000
0000
0000
0000
0000
0000
0000
0000
0000
0000
0000
0000
0000
0000
0000
3000
0MM4
0000
0000
0000
0000
0000
0000
0000
0000
0000
0000
0000
0000
0000
0000
0000
0000
0000
0000
0000
0000
0000
0000
0000
0000
0000
0000
0000
0000
0000
0000
0000
0000
0000
0000
0000
0000
0000
0000
0000
0000
0000
0000
0000
0000
0000
0000
0000
,
0000
0000
0000
2003
,
3MMM
0000
0000
0000
;
