#TITLE:Shind Bad;
#SUBTITLE:;
#ARTIST:DJ Sharpnel;
#TITLETRANSLIT:;
#SUBTITLETRANSLIT:;
#ARTISTTRANSLIT:;
#CREDIT:;
#BANNER:Shind Bad - banner.png;
#BACKGROUND:Shind Bad - bg.png;
#LYRICSPATH:;
#CDTITLE:pfx - icon.png;
#MUSIC:07_SHIND_BAD_(DJ_Sharpnel).mp3;
#OFFSET:-0.701;
#SAMPLESTART:57.001;
#SAMPLELENGTH:12.000;
#SELECTABLE:YES;
#BPMS:0.000=197.600;
#STOPS:;
#BGCHANGES:;
// cache tags:
#FIRSTBEAT:0.000;
#LASTBEAT:534.500;
#SONGFILENAME:Songs/IzzySM Keyboard Mega Pack/Shind Bad/Shind Bad.sm;
#HASMUSIC:1;
#HASBANNER:1;
#MUSICLENGTH:164.179;
// end cache tags

//---------------dance-single - ----------------
#NOTES:
     dance-single:
     :
     Hard:
     12:
     1.000,1.000,0.975,0.055,1.000,1352.000,160.000,9.000,0.000,0.000:
1000
0100
1000
0100
0010
0001
0010
0001
,
1000
0010
1000
0010
0100
0001
0100
0001
,
0010
0100
0010
0100
1000
0001
1000
0001
,
0100
0010
0100
0010
1000
0100
1000
0100
,
0010
0001
0010
0001
0100
0010
0100
0010
,
1000
0100
1000
0100
0010
0001
0010
0001
,
1000
0010
1000
0010
0100
0001
0100
0001
,
0010
0100
0010
0100
1000
0010
1000
0010
,
1001
0000
0100
0000
0010
0000
0001
0000
1000
0100
1000
0000
0100
0000
0010
0000
,
0001
0000
1000
0000
0010
0000
0100
0000
0001
0010
0001
0000
0010
0000
0100
0000
,
1000
0000
0100
0000
0010
0000
0100
0000
1000
0001
1000
0000
0010
0000
0100
0000
,
0001
0000
1000
0000
0010
0000
1000
0000
0001
0100
0001
0000
0100
0000
0010
0000
,
1000
0000
0010
0000
0100
0000
0001
0000
1000
0010
1000
0000
0100
0000
0010
0000
,
0001
0000
0010
0000
0100
0000
0010
0000
0001
0010
0001
0000
0100
0000
0010
0000
,
1000
0100
0010
0001
1000
0100
1000
0001
0010
0100
0010
0001
1000
0010
0100
0001
,
1000
0010
0100
0010
1000
0001
0010
0100
1000
0100
0010
0001
0010
0001
0010
0001
,
1100
0000
0100
0000
0010
0000
0001
1000
0100
0010
0001
0000
0001
0000
0100
0010
,
1000
0000
1000
0000
0010
0000
0100
0010
1000
0100
0010
0000
0001
0000
0010
0100
,
1000
0000
1000
0000
0010
0000
0100
0001
0010
0001
1000
0000
0100
0000
0010
0001
,
0100
0000
0010
0000
1000
0000
0100
0010
0001
0010
0100
0000
1000
0000
0001
0100
,
0010
0000
1000
0000
0100
0000
0010
0001
1000
0010
0100
0000
0001
0000
1000
0100
,
0010
0000
0001
0000
1000
0000
0010
0100
0001
1000
0100
0000
0010
0000
0100
1000
,
0001
0000
0010
0000
0100
0000
1000
0010
0100
0010
1000
0000
0100
0000
0010
0001
,
0100
0000
0010
0000
1000
0000
0100
0010
0100
0010
0001
0000
1000
0000
0001
0010
,
0100
0000
1000
0100
1000
0000
0100
0010
0001
1000
0010
0000
0100
0000
0001
0010
,
0100
0000
1000
0010
1000
0000
0001
0010
0001
1000
0001
0000
0100
0000
0010
1000
,
0100
0000
0010
0001
0010
0000
0100
1000
0010
0100
0001
0000
1000
0000
0010
0100
,
0001
0000
1000
0100
0010
0000
0001
1000
0001
0010
0001
0000
1000
0000
0010
1000
,
0100
0000
0010
0100
0010
0000
1000
0010
0100
0010
1000
0000
0001
0000
1000
0100
,
1000
0000
0100
0010
0001
0000
0010
0100
1000
0100
0010
0000
0001
0000
1000
0010
,
0100
0000
0001
1000
0001
0000
0100
0010
1000
0100
0010
0000
0001
0000
1000
0100
,
0020
0000
0000
0000
,
0031
0100
0001
0100
0010
1000
0010
1000
0100
0010
0001
0100
0010
0100
0001
1000
,
0010
0100
0010
0100
0001
1000
0001
1000
0100
0010
0001
0100
0010
1000
0100
1000
,
0001
0010
0001
0010
0100
1000
0100
1000
0010
0100
0001
1000
0100
0010
0100
1000
,
0001
1000
0001
1000
0100
0010
0100
0010
0001
1000
0010
0100
0001
1000
0100
1000
,
0001
0010
0001
0010
0100
1000
0100
1000
0010
0100
0001
0010
0100
1000
0010
1000
,
0001
0100
0001
0100
0010
1000
0010
1000
0100
0010
0001
0010
0100
1000
0001
0100
,
0010
1000
0010
1000
0001
0100
0001
0100
0010
1000
0100
0010
0100
1000
0001
1000
,
0100
0010
0100
0010
1000
0100
1000
0100
0010
0001
1000
0010
0100
0001
1000
0100
,
0010
0001
0010
0001
1000
0010
1000
0010
0100
0001
1000
0100
0010
0001
1000
0010
,
0100
0001
0100
0001
1000
0100
1000
0100
0010
0001
1000
0100
1000
0001
0010
0100
,
1000
0010
1000
0010
0100
0001
0100
0001
1000
0010
0100
0001
1000
0100
1000
0001
,
1000
0100
1000
0100
0010
0001
0010
0001
0100
0010
1000
0100
0010
0100
1000
0001
,
0100
0010
0100
0010
1000
0001
1000
0001
0100
0010
1000
0100
0010
0001
0010
0100
,
1000
0010
1000
0010
0100
0001
0100
0001
0010
0100
1000
0010
0100
0001
1000
0100
,
0010
0001
0010
0001
1000
0100
1000
0100
0010
0001
1000
0010
0100
0001
1000
0010
,
0100
0001
0100
0001
0010
0100
0010
0100
1000
0001
0100
0010
1000
0100
0010
0001
,
0110
0100
0110
0000
0110
0000
0000
0110
,
0000
0100
0110
0000
0101
0000
0000
0101
,
0000
0100
0101
0000
0011
0000
0000
0101
,
0000
0100
0101
0000
0110
0000
0000
1100
,
0000
1000
1100
0000
1100
0000
0000
1100
,
0000
1000
1100
0000
1010
0000
0000
1010
,
0000
1000
1010
0000
0011
0000
0000
1010
,
0000
1000
1010
0000
1100
0000
0000
0011
,
0000
0001
0011
0000
0011
0000
0000
0011
,
0000
0001
0011
0000
1001
0000
0000
1001
,
0000
0001
1001
0000
0110
0000
0000
1001
,
0000
0001
1001
0000
0011
0000
0000
0110
,
0000
0100
0110
0000
0110
0000
0000
0110
,
0000
0100
0110
0000
0101
0000
0000
0101
,
0000
0100
0110
1100
0110
1100
1010
0110
,
0011
0110
1010
1100
0000
0100
0110
0100
,
1100
1100
0110
0000
1100
0000
0000
1100
,
0000
1100
0110
0000
1100
0000
0000
0001
,
0011
0011
0101
0101
0110
0110
1010
1010
,
1100
0101
0000
0110
0000
1001
0000
0101
,
0011
1000
0101
0010
0001
1000
0011
0100
,
0001
1000
0110
1000
0010
0100
0011
0100
,
1000
0100
1001
0100
0010
0001
1010
0001
,
1000
0000
0110
1100
0011
0110
0000
1000
,
1100
0010
0101
0010
1000
0100
0011
0001
,
1000
0001
0110
1000
0100
0010
1001
0001
,
0010
0100
1010
0001
1000
0010
1100
0100
,
0110
0011
0000
0101
0000
0110
0000
1100
,
1010
1000
0110
0001
1000
0010
0101
0010
,
0100
1000
0110
0001
1000
0100
0011
1000
,
0001
0010
1100
0010
0001
0100
1010
0001
,
1000
0001
0110
1000
0100
0010
1001
0110
,
0101
0000
0011
0000
0011
1001
0000
1001
,
0000
1001
1100
1010
0110
0011
0000
0202
,
0000
0000
0000
0000
,
0303
0000
0000
0101
0011
0000
0110
0000
,
1001
0000
0100
0000
0011
0000
0001
1000
0100
0010
0001
0000
1100
0000
0010
0001
,
0100
0000
1000
0000
0110
0000
0001
1000
0010
0100
0001
0000
1100
0000
0100
0010
,
0001
0000
1000
0000
0110
0000
0001
0010
0100
0010
0001
0000
1001
0000
1000
0100
,
0010
0000
0001
0000
1100
0000
0001
1000
0010
0100
0010
0000
1001
0000
1000
0001
,
0100
0000
0001
0000
1010
0000
0100
0010
0001
0010
0100
0000
0011
0000
1000
0010
,
0100
0000
0001
0000
1100
0000
0001
1000
0010
1000
0100
0000
0011
0000
0100
1000
,
0001
0000
0100
0000
1001
0000
1000
0010
1000
0001
0100
0000
1010
0000
0001
1000
,
0100
0000
0000
0000
0000
0000
0010
0000
0000
0000
0000
0000
1001
0000
0000
0000
0000
0000
1000
0000
0000
0100
0000
0000
0010
0000
0000
0100
0000
0000
1000
0000
0100
0000
0010
0000
0001
0000
0010
0000
0100
0000
1000
0000
0000
0000
0000
0000
,
1100
0000
2100
0000
0100
0010
0000
3002
,
0000
0000
0000
0003
0011
0101
1010
1100
,
1001
0000
2001
0000
0100
0010
0000
3002
,
0000
0000
0000
0003
0011
1001
1010
1001
,
0110
0000
0010
0110
0001
1100
0000
0000
,
1010
1000
0011
1100
0000
0000
1100
0000
,
2001
0000
0001
0100
0001
0010
0001
0100
,
0010
0100
0001
0100
0000
0000
3000
0000
,
0100
0001
0100
0001
1000
0010
1000
0010
0100
0001
1000
0010
0100
0001
0010
0100
,
1000
0010
1000
0010
0100
0001
0100
0001
0010
0100
1000
0010
0100
0001
1000
0100
,
0010
0001
0010
0001
1000
0100
1000
0100
0010
0001
1000
0010
1000
0001
0010
0100
,
1000
0001
1000
0001
0100
0010
0100
0010
1000
0100
0010
0100
1000
0001
0010
0100
,
1000
0010
1000
0010
0100
0001
0100
0001
1000
0100
1000
0001
0010
0100
0010
0001
,
0100
0010
0100
0010
1000
0001
1000
0001
0010
0100
1000
0010
0100
0001
1000
0100
,
0010
0001
0010
0001
1000
0100
1000
0100
0010
0100
1000
0001
0100
0001
1000
0010
,
0100
0001
0100
0001
1000
0010
1000
0010
0100
0001
1000
0100
0010
0100
1000
0001
,
0100
0010
0100
0010
1000
0100
1000
0100
0010
0001
0100
0010
1000
0100
0010
0001
,
1000
0100
1000
0100
0010
0001
0010
0001
1000
0010
1000
0100
0010
0001
0100
0010
,
1000
0001
1000
0001
0100
0010
0100
0010
1000
0100
0010
0100
1000
0010
0100
0001
,
1000
0100
1000
0100
0010
0001
0010
0001
1000
0100
0010
0001
1000
0001
0010
0100
,
1000
0010
1000
0010
0100
0001
0100
0001
0010
0100
1000
0100
0010
0001
1000
0010
,
0100
0001
0100
0001
1000
0010
1000
0010
0100
0001
0010
0100
1000
0010
0100
0001
,
0010
0100
0010
0100
1000
0001
1000
0001
0100
0010
1000
0100
0010
0100
1000
0001
,
1000
0100
1000
0100
0010
0001
0010
0001
0100
0010
1000
0100
0010
0001
0010
0100
,
0010
0001
0010
0001
1000
0100
1000
0100
0010
0001
1000
0010
0100
0001
1000
0100
,
0010
0001
0010
0001
1000
0100
1000
0100
0010
0001
0010
0100
0010
0001
1000
0010
,
0100
0001
0100
0001
1000
0010
1000
0010
0100
0001
0010
0100
1000
0010
1000
0100
,
1000
0010
1000
0010
0100
0001
0100
0001
0010
0100
1000
0001
0010
0001
0100
0010
,
1000
0001
1000
0001
0010
0100
0010
0100
1000
0001
0100
0010
1000
0100
1000
0001
,
0010
0100
0010
0100
1000
0010
1000
0010
0100
0001
0010
0100
1000
0001
0010
0001
,
1000
0100
1000
0100
0010
0001
0010
0001
1000
0001
0100
0010
1000
0100
0010
0001
,
0010
0100
0010
0100
1000
0010
1000
0010
0100
0001
0010
0100
0010
0001
1000
0100
,
1000
1000
0010
0100
0001
1000
0100
1000
,
0001
0010
0100
1000
0010
1000
0001
1000
,
0100
1000
0010
0100
0010
1000
0010
0100
,
1000
0001
1000
0010
1000
0100
1000
0010
,
0100
0001
1000
0001
0010
0001
1000
0001
,
0100
0001
1000
0001
0010
0001
0100
0001
,
2000
0000
0000
0000
,
0000
0000
0000
0000
,
3001
0001
0010
0010
0100
0100
1000
1000
,
0100
0010
0000
0010
0000
0001
0000
0000
;
