#TITLE:Determination;
#SUBTITLE:;
#ARTIST:AKIMO;
#TITLETRANSLIT:;
#SUBTITLETRANSLIT:;
#ARTISTTRANSLIT:;
#CREDIT:;
#BANNER:akimobneu7-bn.png;
#BACKGROUND:akimobgsy0-bg.png;
#LYRICSPATH:;
#CDTITLE:!shadowgod-cdTitle.png;
#MUSIC:AKIMO- Determination.mp3;
#OFFSET:-1.096;
#SAMPLESTART:14.660;
#SAMPLELENGTH:14.780;
#SELECTABLE:YES;
#BPMS:0.000=115.000;
#STOPS:;
#BGCHANGES:;
// cache tags:
#FIRSTBEAT:0.000;
#LASTBEAT:306.000;
#SONGFILENAME:Songs/Astronomic Metal Collection 2/(Shadowgod) Determination/determination.sm;
#HASMUSIC:1;
#HASBANNER:1;
#MUSICLENGTH:162.566;
// end cache tags

//---------------dance-single - ----------------
#NOTES:
     dance-single:
     :
     Challenge:
     13:
     1.000,1.000,1.000,1.000,1.000,1150.000,297.000,199.000,0.000,88.000:

0110
0000
1001
0000
0000
0000
0010
0100
0010
0000
1001
0000
0000
0000
0100
0010
0100
0000
0100
0000
0100
0000
0100
0000
0000
0000
0110
0000
1100
0000
0101
0000
,
0011
0000
1001
0011
1000
0110
1001
1100
1001
0000
1001
0000
0001
1100
0110
0101
,
0011
0000
1000
0000
0001
0000
0000
0000
0001
0000
0001
0000
0000
0000
0002
0000
0000
0000
0100
0000
1010
0000
0100
0000
0000
0000
1100
0010
0100
0000
1010
0000
,
0113
0000
1100
0011
1000
0110
1001
1100
0010
0000
1001
0000
0020
0100
1001
0000
,
0230
0001
1001
1000
0001
0001
1001
1000
0001
0001
1001
1000
0001
1310
1100
0110
,
1101
0000
1100
0011
1000
0101
1010
1100
0010
0000
1001
0000
0010
1100
0101
0011
,
1001
0000
0010
0000
0101
0000
0011
0000
0001
0000
1100
0000
0000
0000
0102
0000
0000
0000
0010
0000
1100
0000
0010
0000
0003
0000
1100
0001
0110
0000
0101
0000
,
0011
1000
0100
1000
0011
0000
0011
0100
1000
0000
0010
0100
1000
0000
0010
0000
0000
0000
1000
0100
0010
0000
0100
0010
0001
0000
0001
0010
0100
0000
0010
0100
,
1001
0000
0000
0000
0000
0000
0000
0000
0000
0000
0000
0000
0000
0000
0000
0000
0000
0000
0000
0000
0000
0000
0000
0000
0002
0000
0000
0000
0000
0000
0000
0000
0000
0000
0000
0000
0000
0000
0000
0000
0000
0000
0000
0000
0000
0000
0000
0003
0002
0000
0000
0000
0000
0000
0000
0000
0000
0000
0000
0000
1000
0000
0000
0000
0000
0000
0000
0000
0000
0000
0000
0003
0012
0000
0000
0000
0000
0000
0000
0000
0000
0000
0000
0000
0000
0000
0000
0000
0000
0000
0000
0000
0000
0000
0000
0003
0002
0000
0000
0000
0000
0000
0000
0000
0000
0000
0000
0000
0023
0000
0000
0000
0000
0000
0000
0000
0000
0000
0000
0000
0230
0000
0000
0000
0000
0000
0000
0000
0000
0000
0000
0000
2300
0000
0000
0000
0000
0000
0000
0000
0000
0000
0000
0000
3000
0000
0000
0000
0000
0000
0000
0000
0000
0000
0000
0000
0100
0000
0000
0000
0000
0000
0000
0000
0000
0000
0000
0000
1020
0000
0000
0000
0000
0000
0000
0000
0000
0000
0000
0000
0000
0000
0000
0000
0000
0000
0000
0000
0000
0000
0000
0000
,
0230
0000
0010
2300
0010
0100
3020
0100
0000
0100
2031
0010
3200
0000
0320
0001
,
0032
0000
0110
0000
1000
1000
0110
0000
1000
0000
0110
0000
0023
0001
1230
0000
,
2300
0000
0000
0000
0000
0000
0000
0000
0000
0000
0000
0000
0000
0000
0000
0000
0000
0000
0000
0000
0000
0000
0000
0000
0110
0000
0000
0000
0000
0000
0000
0000
0000
0000
0000
0000
0000
0000
0000
0000
0000
0000
0000
0000
0000
0000
0000
0000
0001
0000
0000
0000
0000
0000
0000
0000
0000
0000
0000
0000
0001
0000
0000
0000
0000
0000
0000
0000
0000
0000
0000
0000
0110
0000
0000
0000
0000
0000
0000
0000
0000
0000
0000
0000
0000
0000
0000
0000
0000
0000
0000
0000
0000
0000
0000
3000
1001
0000
0000
0000
0000
0000
0000
0000
0000
0000
0000
0000
0010
0000
0000
0000
0000
0000
0000
0000
0000
0000
0000
0000
0100
0000
0000
0000
0000
0000
0000
0000
0000
0000
0000
0000
1001
0000
0000
0000
0000
0000
0000
0000
0000
0000
0000
0000
0010
0000
0000
0000
0000
0000
0100
0000
0000
0000
0000
0000
0001
0000
0000
0000
0000
0000
0100
0000
0000
0000
0000
0000
0010
0000
0000
0000
0000
0000
0000
0000
0000
0000
0000
0000
0010
0000
0000
0000
0000
0000
0000
0000
0000
0000
0000
0000
,
0000
0000
0000
0000
0000
0000
0000
0000
0000
0000
0000
0000
0000
0000
0000
0000
0000
0000
0000
0000
0000
0000
0000
0000
2000
0000
0000
0000
0000
0000
0000
0000
0000
0000
0000
0000
0000
0000
0000
0000
0000
0000
0000
0000
0000
0000
0000
3000
2000
0000
0000
0000
0000
0000
0000
0000
0000
0000
0000
0000
0000
0000
0000
0000
0000
0000
0000
0000
0000
0000
0000
3000
2000
0000
0000
0000
0000
0000
0000
0000
0000
0000
0000
0000
0000
0000
0000
0000
0000
0000
0000
0000
0000
0000
0000
0000
3200
0000
0000
0000
0000
0000
0000
0000
0000
0000
0000
0000
0000
0000
0000
0000
0000
0000
0000
0000
0000
0000
0000
0000
2300
0000
0000
0000
0000
0000
0000
0000
0000
0000
0000
0000
3200
0000
0000
0000
0000
0000
0000
0000
0000
0000
0000
0000
0000
0000
0000
0000
0000
0000
0000
0000
0000
0000
0000
0000
2300
0000
0000
0000
0000
0000
0000
0000
0000
0000
0000
0000
3020
0000
0000
0000
0000
0000
0000
0000
0000
0000
0000
0000
0000
0000
0000
0000
0000
0000
0000
0000
0000
0000
0000
0000
,
0230
0000
0000
0000
0000
0000
0000
0000
0000
0000
0000
0000
0000
0000
0000
0000
0000
0000
0000
0000
0000
0000
0000
0300
0200
0000
0000
0000
0000
0000
0000
0000
0000
0000
0000
0000
0320
0000
0000
0000
0000
0000
0000
0000
0000
0000
0000
0000
0000
0000
0000
0000
0000
0000
0000
0000
0000
0000
0000
0000
0230
0000
0000
0000
0000
0000
0000
0000
0000
0000
0000
0000
0320
0000
0000
0000
0000
0000
0000
0000
0000
0000
0000
0000
0000
0000
0000
0000
0000
0000
0000
0000
0000
0000
0000
0030
0002
0000
0000
0000
0000
0000
0000
0000
0000
0000
0000
0000
0000
0000
0000
0000
0000
0000
0000
0000
0000
0000
0000
0000
0023
0000
0000
0000
0000
0000
0000
0000
0000
0000
0000
0000
0032
0000
0000
0000
0000
0000
0000
0000
0000
0000
0000
0000
0000
0000
0000
0000
0000
0000
0000
0000
0000
0000
0000
0000
0023
0000
0000
0000
0000
0000
0000
0000
0000
0000
0000
0000
0032
0000
0000
0000
0000
0000
0000
0000
0000
0000
0000
0000
0100
0000
0000
0000
0000
0000
0010
0000
0000
0000
0000
0003
,
0002
0000
0000
0000
0000
0000
0000
0000
0000
0000
0000
0000
0000
0000
0000
0000
0000
0000
0000
0000
0000
0000
0000
0000
0110
0000
0000
0000
0000
0000
0000
0000
0000
0000
0000
0000
0000
0000
0000
0000
0000
0000
0000
0000
0000
0000
0000
0000
1000
0000
0000
0000
0000
0000
0000
0000
0000
0000
0000
0000
1000
0000
0000
0000
0000
0000
0000
0000
0000
0000
0000
0000
0110
0000
0000
0000
0000
0000
0000
0000
0000
0000
0000
0000
0000
0000
0000
0000
0000
0000
0000
0000
0000
0000
0000
0000
1000
0000
0000
0000
0000
0000
0000
0000
0000
0000
0000
0000
0000
0000
0000
0000
0000
0000
0000
0000
0000
0000
0000
0003
0012
0000
0000
0000
0000
0000
0000
0000
0000
0000
0000
0000
0000
0000
0000
0000
0000
0000
0000
0000
0000
0000
0000
0000
0023
0000
0000
0000
0000
0000
0000
0000
0000
0000
0000
0000
0100
0000
0000
0000
0000
0000
0000
0000
0000
0000
0000
0000
1032
0000
0000
0000
0000
0000
0000
0000
0000
0000
0000
0000
0000
0000
0000
0000
0000
0000
0000
0000
0000
0000
0000
0003
,
0002
0000
0000
0000
0000
0000
0000
0000
0110
0000
0000
0000
0023
0000
0000
0000
0100
0000
0000
0000
0001
0000
0000
0000
1100
0000
0000
0000
0000
0000
0000
0000
0101
0000
0000
0000
1000
0000
0000
0000
1000
0000
0000
0000
0101
0000
0000
0000
1000
0000
0000
0000
1000
0000
0000
0000
0031
0010
0100
1000
0001
0010
0100
1000
,
0002
0010
1100
0000
0200
0010
1300
0010
0000
1000
0100
0010
0000
0100
0010
1000
,
0000
0000
0100
0000
0010
0000
0003
0000
0010
0000
0000
0000
0010
0000
2000
0000
0000
0000
0100
0000
0011
0000
3200
0000
0000
0000
1000
0010
0001
0000
0302
0000
,
0000
0010
1100
0000
0200
0010
1300
0010
0000
1000
0100
0010
0000
0100
0010
1000
,
0000
0000
0100
0000
0010
0000
0000
0000
0010
0000
0000
0000
0010
0000
2003
0000
0000
0000
0011
0000
0011
0000
3201
0000
1000
0010
0001
1000
0001
0000
0302
0000
,
0000
0010
1100
0000
0200
0010
1300
0010
0000
1000
0100
0010
0000
0100
0010
1000
,
0000
0000
0100
0000
0010
0000
0000
0000
0010
0000
0000
0000
0010
0000
0103
0000
0000
0000
0001
0000
0110
0000
1000
0000
0000
0000
1000
0001
0110
0000
0002
0000
,
0000
0010
1100
0000
0200
0010
1300
0010
0000
1000
0100
0010
0000
0100
0010
1000
,
0000
0000
0100
0000
0010
0000
0000
0000
0010
0000
0000
0000
0010
0000
0203
0000
0000
0000
1000
0000
0001
0000
0320
0001
1000
0001
0100
0000
0000
0000
2030
0000
,
0000
0000
0011
0000
0011
0000
0100
0001
0010
0001
0100
0001
0010
0000
3020
0030
0000
0000
0020
0030
0000
0000
0002
0003
0000
0000
0002
0003
0002
0003
0100
0010
,
0001
0000
0000
0000
0000
0000
0000
0000
0002
0000
0000
0000
0000
0000
0000
0000
0023
0000
0000
0000
0032
0000
0000
0000
0000
0000
0000
0000
0203
0000
0000
0000
0000
0000
0000
0300
0002
0000
0000
0000
0203
0000
0000
0000
2300
0000
0000
0000
0000
0000
0000
3000
2000
0000
0000
0000
3200
0000
0000
0000
0000
0000
0000
0000
,
0320
0000
0000
2030
0000
0000
3200
0000
0000
0000
0000
0000
0302
0000
1023
0101
,
1230
0000
0000
0000
0000
0000
0001
0000
0000
0000
0000
0000
0010
0000
0000
0010
0000
0000
1001
0000
0000
0000
0000
0000
1000
0000
0000
0000
0000
0000
0001
0000
0000
0000
0000
0000
0320
0000
0000
0100
0030
0000
1002
0000
0000
0000
0000
0000
,
0203
0000
0000
0000
0010
0000
0000
0000
1000
0000
0010
0000
1001
0000
0000
0000
1300
0000
0100
0000
0011
0000
1000
0000
0100
0010
0001
1000
0010
0000
0010
0000
,
0101
0000
0000
0000
0000
0000
0000
0000
0000
0000
0000
0000
0010
0000
0000
0000
0000
0000
0000
0000
0000
0000
0000
0000
2000
0000
0000
0000
0000
0000
0000
0000
0000
0000
0000
0000
0000
0000
0000
0000
0000
0000
0000
0000
0000
0000
0000
3000
2000
0000
0000
0000
0000
0000
0000
0000
0000
0000
0000
0000
0000
0000
0000
0000
0000
0000
0000
0000
0000
0000
0000
3000
2000
0000
0000
0000
0000
0000
0000
0000
0000
0000
0000
0000
0000
0000
0000
0000
0000
0000
0000
0000
0000
0000
0000
0000
3002
0000
0000
0000
0000
0000
0000
0000
0000
0000
0000
0000
0000
0000
0000
0000
0000
0000
0000
0000
0000
0000
0000
0000
2003
0000
0000
0000
0000
0000
0000
0000
0000
0000
0000
0000
3200
0000
0000
0000
0000
0000
0000
0000
0000
0000
0000
0000
0000
0000
0000
0000
0000
0000
0000
0000
0000
0000
0000
0000
2300
0000
0000
0000
0000
0000
0000
0000
0000
0000
0000
0000
3200
0000
0000
0000
0000
0000
0000
0000
0000
0000
0000
0000
0000
0000
0000
0000
0000
0000
0000
0000
0000
0000
0000
0300
,
0020
0000
0000
0000
0000
0000
0000
0000
0000
0000
0000
0000
0000
0000
0000
0000
0000
0000
0000
0000
0000
0000
0000
0000
0230
0000
0000
0000
0000
0000
0000
0000
0000
0000
0000
0000
0320
0000
0000
0000
0000
0000
0000
0000
0000
0000
0000
0000
0000
0000
0000
0000
0000
0000
0000
0000
0000
0000
0000
0000
0230
0000
0000
0000
0000
0000
0000
0000
0000
0000
0000
0000
0320
0000
0000
0000
0000
0000
0000
0000
0000
0000
0000
0000
0000
0000
0000
0000
0000
0000
0000
0000
0000
0000
0000
0030
0002
0000
0000
0000
0000
0000
0000
0000
0000
0000
0000
0000
0000
0000
0000
0000
0000
0000
0000
0000
0000
0000
0000
0000
0023
0000
0000
0000
0000
0000
0000
0000
0000
0000
0000
0000
0032
0000
0000
0000
0000
0000
0000
0000
0000
0000
0000
0000
0000
0000
0000
0000
0000
0000
0000
0000
0000
0000
0000
0000
0023
0000
0000
0000
0000
0000
0000
0000
0000
0000
0000
0000
0032
0000
0000
0000
0000
0000
0000
0000
0000
0000
0000
0000
0100
0000
0000
0000
0000
0000
0010
0000
0000
0000
0000
0003
,
0002
0000
0110
0000
1000
1000
0110
0000
1000
0000
0123
0000
0032
1000
0203
0000
,
2300
0000
0000
0000
0000
0000
0110
0000
0000
0000
0000
0000
0100
0000
0000
0001
0000
0000
0110
0000
0000
0000
0000
0000
3001
0000
0010
0000
0100
0000
1000
0000
0010
0000
0100
0000
0001
0000
0100
0000
0010
0000
1000
0000
0100
0000
0010
0000
,
0001
0000
0001
0010
0100
1000
0200
0000
0000
0010
0001
0010
0321
0000
0032
1000
,
0023
0000
1000
0230
0011
0000
0010
0001
1000
0010
1001
0000
1302
0023
0230
2300
,
3200
0000
0000
2300
0001
0000
0010
0010
0100
0001
0100
0010
3101
0000
2000
0000
,
3200
0000
0000
0000
0010
0000
2300
0000
0002
0000
0000
0000
0100
0000
0000
0000
0023
0000
0100
0000
0001
0000
0100
0001
0230
0000
0001
0010
0001
0000
0001
0000
,
3312
0000
0000
0000
0023
0000
1000
0001
0230
0000
0001
1000
0320
0000
0100
0000
,
0032
0000
0100
1000
0023
0000
1000
0001
0230
0000
0010
0001
2300
0000
3020
0000
,
0032
0000
0023
0000
0230
0000
0302
0000
0023
0000
0230
0000
0320
0000
0230
0000
2300
0000
3020
0000
0230
0000
2300
0100
3010
0000
0010
0000
0010
0100
0010
0100
,
0021
0000
0000
0000
0131
0000
0011
0000
0000
0000
0101
0000
1001
0000
0110
0000
0000
0000
1000
0001
1000
0001
1000
0000
0000
0000
1100
0000
1010
0000
0101
0000
,
0011
0000
1001
0011
1000
0110
0011
1100
1001
0000
0010
0000
1000
0110
1100
0011
,
1001
0000
0100
0000
0100
0000
0011
0000
1001
0000
1100
0000
0001
0000
0110
0000
0000
0000
0001
0000
0110
0000
1000
0000
0000
0000
1010
0001
1100
0000
0101
0000
,
0011
0000
0101
0011
1000
0110
1001
1100
0010
0000
1100
0000
0002
0000
0000
0000
,
0023
1000
1001
0001
1000
1000
1001
0001
1000
1000
1001
0001
1030
1100
0110
0011
,
1001
0000
0110
0011
0100
0110
1001
1100
0010
0000
1100
0000
0001
0110
0101
1010
,
0011
0000
1000
0000
0101
0000
0011
0000
0100
0000
1100
0000
1001
0000
0110
0000
0000
0000
1000
0000
0110
0000
0001
0000
0000
0000
1100
0010
0101
0000
1010
0000
,
0011
0000
0000
0000
0000
0000
1100
0000
0000
0011
0000
0000
0100
0000
0000
0110
0000
0000
0001
0000
0000
1100
0000
0000
0001
0000
0100
0000
0010
0000
1000
0000
0010
0000
0100
0000
0001
0000
0010
0000
0100
0000
1000
0000
0100
0000
0010
0000
,
0002
0000
0000
0000
0000
0000
0000
0000
0000
0000
0000
0000
0000
0000
0000
0000
0000
0000
0000
0000
0000
0000
0000
0000
0000
0000
0000
0000
0000
0000
0000
0000
0000
0000
0000
0000
0000
0000
0000
0000
0000
0000
0000
0000
0000
0003
0000
0000
0001
0000
0000
0000
0000
0000
0000
0000
0010
0000
0000
0000
0000
0000
0000
0000
0100
0000
0000
0000
0000
0000
0000
0000
1000
0000
0000
0000
0000
0000
0000
0000
0100
0000
0000
0000
0000
0000
0000
0000
1000
0000
0000
0000
0000
0000
0000
0000
0001
0000
0000
0000
0000
0000
0000
0000
0010
0000
0000
0000
0000
0000
0000
0000
0100
0000
0000
0000
0000
0000
0000
0000
1000
0000
0000
0000
0000
0000
0000
0000
0100
0000
0000
0000
0000
0000
0000
0000
1000
0000
0000
0000
0000
0000
0000
0000
0010
0000
0000
0000
0000
0000
0000
0000
0100
0000
0000
0000
0000
0000
0000
0000
1000
0000
0000
0000
0000
0000
0000
0000
0001
0000
0000
0000
0000
0000
0000
0000
0010
0000
0000
0000
0000
0000
0000
0000
0100
0000
0000
0000
0000
0000
0000
0000
,
1000
0100
0010
0001
1000
0100
0001
0010
0100
1000
0100
0010
1000
0100
1000
0010
0100
0010
1000
0100
1000
0010
0100
0010
,
0002
0000
0010
0100
1010
0000
0100
0010
1000
0000
2003
3200
0320
0030
0020
0230
,
2300
0000
3200
0000
0320
0000
0032
0000
0003
0000
0002
0000
0023
0000
2030
0000
3200
0000
0320
0000
0032
0000
0023
1000
0131
0000
0002
0000
0023
0000
0230
0000
,
1300
0010
0100
0010
0001
0000
1000
0010
0100
0010
0001
0000
1000
0010
0100
0010
0001
0000
1000
0010
0100
0010
0001
0000
1000
0010
0100
0010
0001
0000
0100
0010
,
0001
0000
0001
0010
0100
0001
0010
1000
0010
0100
1000
0001
0010
0100
0010
0100
1000
0010
0001
1000
0100
0010
0100
0010
0001
1000
0100
0010
0100
0001
1000
0010
,
0002
0000
0000
0000
0000
0000
0000
0000
0000
0000
0000
0000
0203
0000
0000
0000
0000
0000
0000
0000
0000
0000
0000
0000
0000
0000
0000
0000
0000
0000
0000
0000
0000
0000
0000
0000
0320
0000
0000
0000
0000
0000
0000
0000
0000
0000
0000
0000
0032
0000
0000
0000
0000
0000
0000
0000
0000
0003
0000
0000
0002
0000
0000
0000
0000
0000
0000
0000
0000
0000
0000
0000
0113
0000
0000
0000
0000
0000
0000
0000
0000
0000
0000
0000
2000
0000
0000
0000
0000
0000
0000
0000
0000
0000
0000
0000
0000
0000
0000
0000
0000
0000
0000
0000
0000
0000
0000
0000
3020
0000
0000
0000
0000
0000
0000
0000
0000
0000
0000
0000
0230
0000
0000
0000
0000
0000
0000
0000
0000
0000
0000
0000
2300
0000
0000
0000
0000
0000
0000
0000
0000
3000
0000
0000
1000
0000
0000
0000
0000
0000
0000
0000
0100
0000
0000
0000
0000
0000
0000
0000
0010
0000
0000
0000
0000
0000
0000
0000
1000
0000
0000
0000
0000
0000
0000
0000
0100
0000
0000
0000
0000
0000
0000
0000
0010
0000
0000
0000
0000
0000
0000
0000
,
0001
0000
0000
0000
0000
0000
0000
0000
0010
0000
0000
0000
0000
0000
0000
0000
0100
0000
0000
0000
0000
0000
0000
0000
1000
0000
0000
0000
0000
0000
0000
0000
0001
0000
0000
0000
0000
0000
0000
0000
0100
0000
0000
0000
0000
0000
0000
0000
0001
0000
0000
0000
0000
0000
0000
0000
0010
0000
0000
0000
0000
0000
0000
0000
0100
0000
0000
0000
0000
0000
0000
0000
1000
0000
0000
0000
0000
0000
0000
0000
0000
0000
0000
0000
0002
0000
0000
0000
0000
0000
0000
0000
0000
0000
0000
0000
0000
0000
0000
0000
0000
0000
0000
0000
0000
0000
0000
0000
1003
0000
0000
0000
0000
0000
0001
0000
0000
0000
0000
0000
1000
0000
0000
0000
0000
0000
0001
0000
0000
0000
0000
0000
0010
0000
0000
0000
0000
0000
0100
0000
0000
0000
0000
0000
1000
0000
0000
0000
0000
0000
0001
0000
0000
0000
0000
0000
0010
0000
0000
0000
0000
0000
0100
0000
0000
0000
0000
0000
0001
0000
0000
0000
0000
0000
0100
0000
0000
0000
0000
0000
1000
0000
0000
0000
0000
0000
0010
0000
0000
0000
0000
0000
,
1000
0100
0010
0000
0001
0010
0100
0000
1000
0100
0010
0000
0001
0010
0100
0000
1000
0100
0010
0000
0001
0010
0100
0000
1000
0100
0010
0000
0001
0010
0100
0000
,
1000
0100
0010
0001
1000
0010
0100
0001
1000
0100
0010
0001
1000
0010
0100
0010
0001
1000
0001
1000
0001
1000
0001
1000
0001
1000
0001
1000
0001
1000
0001
1000
,
0011
1100
1010
0110
0101
1010
0011
0110
0101
1001
1010
0101
0011
0101
0110
1010
,
0001
0000
0000
0000
0000
0000
0010
0000
0000
0000
0000
0000
0100
0000
0000
0000
0000
0000
1000
0000
0000
0000
0000
0000
0001
0000
0000
0000
0000
0000
0000
0000
0010
0000
0000
0000
0000
0000
0000
0000
0100
0000
0000
0000
0000
0000
0000
0000
1000
0000
0000
0000
0000
0000
0000
0000
0001
0000
0000
0000
0000
0000
0000
0000
0010
0000
0000
0000
0000
0000
0000
0000
0100
0000
0000
0000
0000
0000
0000
0000
1000
0000
0000
0000
0000
0000
0000
0000
0001
0000
0000
0000
0000
0000
0000
0000
1000
0000
0000
0000
0000
0000
0000
0000
0000
0000
0000
0000
0100
0000
0000
0000
0000
0000
0000
0000
0000
0000
0000
0000
0001
0000
0000
0000
0000
0000
0000
0000
0000
0000
0000
0000
0010
0000
0000
0000
0000
0000
0000
0000
0000
0000
0000
0000
0110
0000
0000
0000
0000
0000
1001
0000
0000
0000
0000
0000
0110
0000
0000
0000
0000
0000
1001
0000
0000
0000
0000
0000
0110
0000
0000
0000
0000
0000
1001
0000
0000
0000
0000
0000
0110
0000
0000
0000
0000
0000
1001
0000
0000
0000
0000
0000
,
0110
1100
0110
1100
0110
1100
0110
1100
0110
1100
0110
1100
0011
1100
0011
1010
,
1000
0100
0010
0001
0100
0001
0100
0010
1000
0100
0010
0001
0100
0001
0010
0100
1000
0100
0010
0001
0100
0001
0010
0100
1010
0000
1010
0000
0101
0000
0110
0000
,
1100
0000
0000
0000
1010
0000
0000
0000
0000
0110
0000
0000
0000
0011
0000
0000
0000
0000
0101
0000
0000
0000
0110
0000
0000
0000
0000
1010
0000
0000
0000
1100
0000
0000
0000
0000
1010
0000
0000
0000
0110
0000
0000
0000
0000
0020
0000
0000
,
0000
0000
0000
0000
0000
0000
0000
0000
0000
0000
0000
0000
0001
0000
0000
0000
0000
0000
0100
0000
0000
0000
0000
0000
0001
0000
0000
0000
0000
0000
1000
0000
0000
0000
0000
0000
0100
0000
0000
0000
0000
0000
1000
0000
0000
0000
0000
0000
0001
0000
0000
0000
0000
0000
0100
0000
0000
0000
0000
0000
1000
0000
0000
0000
0000
0000
0100
0000
0000
0000
0000
0000
0001
0000
0000
0000
0000
0000
0000
0000
0000
0000
0000
0000
0032
0000
0000
0000
0000
0000
0000
0000
0000
0000
0000
0000
0000
0000
0000
0000
0000
0000
0000
0000
0000
0000
0000
0003
0011
0000
0000
0000
0000
0000
0000
0000
0000
0000
0000
0000
0011
0000
0000
0000
0000
0000
0000
0000
0000
0000
0000
0000
0000
0000
0000
0000
0000
0000
0000
0000
0000
0000
0000
0000
0000
0000
0000
0000
0000
0000
0000
0000
0000
0000
0000
0000
1000
0000
0000
0000
0000
0000
0000
0000
0000
0000
0000
0000
0011
0000
0000
0100
0000
0000
0000
0000
0000
0000
0000
0000
1000
0000
0000
0000
0000
0000
0000
0000
0000
0000
0000
0000
,
0011
0000
0000
0100
0000
0000
0000
0000
0000
0000
0000
0000
1000
0000
0000
0000
0000
0000
0000
0000
0000
0000
0000
0000
0011
0000
0000
0100
0000
0000
0000
0000
0000
0000
0000
0000
0000
0000
0000
0000
0000
0000
0000
0000
0000
0000
0000
0000
0001
0000
0000
0000
0000
0000
0000
0000
0100
0000
0000
0000
1001
0000
0000
0000
0010
0000
0000
0000
0000
0000
0000
0000
1100
0000
0000
0000
0000
0000
0000
0000
0010
0000
0000
0000
0101
0000
0000
0000
1000
0000
0000
0000
0000
0000
0000
0000
0012
0000
0000
0000
0000
0000
0000
0000
0000
0000
0000
0000
0000
0000
0000
0000
0000
0000
0000
0000
0000
0000
0000
0000
0000
0000
0000
0000
0000
0000
0000
0000
0000
0000
0000
0000
0203
0000
0000
0000
0000
0000
0000
0000
0000
0000
0000
0000
0000
0000
0000
0000
0000
0000
0000
0000
0000
0000
0000
0000
0320
0000
0000
0000
0000
0000
0000
0000
0000
0000
0000
0000
0000
0000
0000
0000
0000
0000
0000
0000
0000
0000
0000
0000
2030
0000
0000
0000
0000
0000
0000
0000
0000
0000
0000
0000
,
0022
0033
0000
0000
0000
0000
3000
0000
0000
0000
0000
0000
0000
0000
0000
0000
0001
0000
0010
0000
1100
0000
0001
0000
0110
0000
0000
0000
0011
0000
0000
0000
1001
0000
0000
0000
1000
0000
0000
0000
0001
0000
0000
0000
0110
0000
0000
0000
0001
0000
0000
0000
1100
0000
0000
0000
0000
0000
0000
0000
0021
0000
0000
0000
,
0000
0000
0100
0000
1001
0000
0100
0000
0000
0000
1130
0001
1010
0000
0110
0000
0011
0000
0000
0000
1100
0000
0011
0000
0100
0000
0110
0000
1001
0000
1100
0000
,
0010
0000
1001
0000
0020
0000
0000
0000
0230
0001
1001
1000
0001
0001
1001
1000
,
0001
0001
1001
1000
0301
0110
1100
0101
0011
0000
1001
0011
0100
0110
1001
1100
,
0010
0000
1001
0000
0010
1010
1100
0101
0011
0000
1001
0110
0001
1100
0100
0011
,
0000
0000
0100
0000
1001
0000
0100
0000
0000
0000
1100
0001
0110
0000
0101
0000
0011
0000
0000
0000
1001
0000
0011
0000
1000
0000
0110
1000
0011
0000
1100
0000
,
1000
0100
0010
0001
0100
1000
0100
0010
1000
0100
0010
0001
0100
1000
0100
0010
1002
0000
1000
0000
0010
0000
0000
0000
0010
0000
0100
0000
1000
0000
0100
0000
,
0000
1000
0100
0010
0000
0100
0010
1000
0000
1000
0100
0000
0013
0000
0100
2000
,
0000
0000
0010
0000
0101
0000
3020
0000
0000
0000
1000
0100
0001
0000
0032
0000
0000
0000
0100
0000
0010
0000
0000
0000
0200
0000
0000
0000
0310
0000
1000
0000
,
0000
1000
0100
0010
0000
0100
0010
1000
0000
0100
0010
0000
0010
0100
1000
2000
,
0003
0000
0011
0000
0011
0000
3020
0000
0001
0100
1000
0001
0100
0000
0030
0000
1000
0100
0010
0000
0100
0010
0001
0000
1000
0000
0011
0000
0011
0100
2002
0000
,
0000
0000
0000
0000
0000
0000
0000
0000
0000
0000
0000
0000
3103
0010
0001
0010
0100
0000
0000
0000
0000
0000
0000
0000
0000
0000
0000
0000
0000
0000
0000
0000
;

//---------------dance-single - ----------------
#NOTES:
     dance-single:
     :
     Hard:
     11:
     1.000,1.000,0.867,1.000,1.000,1025.000,141.000,188.000,0.000,80.000:
1001
0000
0101
0000
0000
0000
0100
0010
0100
0000
1001
0000
0000
0000
0100
0010
0100
0000
0100
0000
2000
0000
0000
0000
0000
0000
0001
0000
0100
0000
3001
0000
,
0100
0000
0110
0000
1000
0010
0011
0000
0100
0000
0011
0000
0010
0010
0110
0000
,
1000
0000
1000
0000
1100
0000
0000
0000
0101
0000
1000
0000
0000
0000
0010
0000
0202
0000
0000
0000
0000
0000
0000
0000
1303
0000
0010
0100
1001
0000
0100
0000
,
0011
0000
0101
0000
0011
0110
1100
0000
1100
0000
1100
0000
2100
0100
0101
0000
,
3200
0010
0011
0001
0001
0001
0011
1000
1000
1000
1010
0010
0010
0010
0311
0010
,
1100
0000
1100
0000
0100
0110
0011
0000
0101
0000
0011
0000
0010
0100
1100
0010
,
0100
0000
0001
0000
1001
0000
0000
0000
0110
0000
0001
0000
0000
0000
0001
0000
0210
0000
0000
0000
0010
0000
0010
0000
0010
0000
0310
0100
0010
0000
0010
0000
,
0010
0100
1000
0100
1000
0000
1000
0100
0010
0000
0010
0001
0100
0000
0010
0000
0000
0000
1000
0100
0010
0000
1000
0100
0010
0000
1000
0100
0010
0000
1000
0100
,
0010
0000
0000
0000
0000
0000
0000
0000
2000
0000
0000
0000
0000
0000
0000
3000
2000
0000
0000
0000
0000
0000
0000
3000
2000
0000
0000
0000
0000
0000
0000
0000
3200
0000
0000
0000
0320
0000
0000
0000
2030
0000
0000
0000
3002
0000
0000
0000
0000
0000
0000
0000
2003
0000
0000
0000
0000
0000
0000
0000
0000
0000
0000
0000
,
3200
0000
0000
0320
0000
0000
2030
0000
0000
0000
3200
0000
0320
0000
2030
0000
,
3020
0000
1001
0000
1000
1000
1000
0000
0001
0000
0101
0000
2030
0001
3201
0000
,
0320
0000
0000
0000
1100
0000
0000
0000
0100
0000
1000
0000
0101
0000
0000
0000
1130
0000
0000
0000
1100
0000
0001
0000
0001
0010
0100
0001
1100
0000
1100
0000
,
0000
0000
0000
0000
0000
0000
0000
0000
0200
0000
0000
0000
0000
0000
0000
0300
0200
0000
0000
0000
0000
0000
0000
0300
0200
0000
0000
0000
0000
0000
0000
0000
0320
0000
0000
0000
0000
0000
0000
0000
0032
0000
0000
0000
0023
0000
0000
0000
0000
0000
0000
0000
0032
0000
0000
0000
0023
0000
0000
0000
0000
0000
0000
0030
,
0200
0000
0000
0000
0320
0000
0230
0000
0000
0000
0320
0000
0230
0000
0000
0000
2300
0000
0000
0000
3200
0000
2300
0000
0000
0000
3200
0000
2300
0000
3001
0010
,
0200
0000
0000
0000
0000
0000
0000
0000
0011
0000
0000
0000
0000
0000
0000
0000
0001
0000
0000
0000
1000
0000
0000
0000
0011
0000
0000
0000
0000
0000
0000
0000
0010
0000
0000
0000
0000
0000
0000
0000
0320
0000
0000
0000
0000
0000
0000
0030
0020
0000
0000
0000
0000
0000
0000
0000
0230
0000
0000
0000
0000
0000
0000
0000
,
0302
0000
0000
0000
0000
0000
0000
0000
0110
0000
0000
0000
2003
0000
0000
0000
0100
0000
0000
0000
0010
0000
0000
0000
0101
0000
0000
0000
0000
0000
0000
0000
0011
0000
0000
0000
0000
0000
0000
0000
0110
0000
0000
0000
0000
0000
0000
0000
0001
0000
0010
0000
0100
0000
0000
0000
3001
0010
0100
1000
0001
0010
0100
1000
,
0002
0010
1100
0000
0100
0000
0100
1000
0000
0000
0000
0100
0000
0010
0100
0100
,
0000
0000
1000
0000
0010
0000
0000
0000
1000
0000
0000
0000
1000
0000
0203
0000
0000
0000
0000
0000
0000
0000
2300
0000
0000
0000
0100
0010
0001
0000
3002
0000
,
0000
0100
1000
0000
0100
0000
0010
0100
0000
0000
0000
1000
0000
0010
0100
0100
,
0000
0000
0010
0000
0100
0000
0000
0000
1000
0000
0000
0000
0010
0000
0203
0000
0000
0000
0000
0000
0000
0000
2300
0100
0010
0001
0100
0010
0001
0100
3002
0000
,
0000
0100
1000
0000
0100
0000
0010
0100
0000
0000
0000
1000
0000
0010
0100
0100
,
0000
0010
0100
0000
1000
0000
0010
0203
0000
0000
0000
2300
0000
0000
0000
3002
,
0000
0010
0100
0000
1000
0000
0010
1000
0000
0000
0000
0100
0000
0010
0100
0100
,
0000
0000
1000
0000
0100
0000
0000
0000
0010
0000
0000
0000
1000
0000
0023
0000
0000
0000
0100
0000
1000
0000
0230
0000
0001
0010
1000
0001
0010
0001
2300
0000
,
0000
0000
0100
0000
0100
0000
3001
0010
0100
0000
0001
0010
0100
0000
1100
0000
0000
0000
1100
0000
0000
0000
1100
0000
0000
0000
1100
0000
0100
0010
0001
0010
,
0100
0000
2000
0000
3200
0320
0000
0032
0000
0023
0230
2300
3000
2000
3200
0000
,
0320
0000
0000
0032
0000
0000
0203
0000
0000
0000
0000
0000
0320
0000
0201
1001
,
2331
0000
0110
0000
0010
0100
0011
0000
0001
0000
0110
0000
3002
0100
1023
0000
,
0230
0000
0000
0000
1010
0000
0000
0000
0010
0000
1000
0000
1010
0000
0000
0000
0301
0000
0100
0000
1001
0000
0001
0000
0001
0010
0100
0010
1001
0000
1001
0000
,
0000
0000
0000
0000
0000
0000
0000
0000
0200
0000
0000
0000
0000
0000
0000
0300
0200
0000
0000
0000
0000
0000
0000
0300
0200
0000
0000
0000
0000
0000
0000
0000
0320
0000
0000
0000
0000
0000
0000
0000
0032
0000
0000
0000
0023
0000
0000
0000
0000
0000
0000
0030
0002
0000
0000
0000
0023
0000
0000
0000
0000
0000
0000
0000
,
0230
0000
0000
0000
0320
0000
0230
0000
0000
0000
0320
0000
0230
0000
0000
0000
2300
0000
0000
0000
3200
0000
2300
0000
0000
0000
3200
0000
2300
0000
3100
0001
,
0020
0000
0000
0000
0000
0000
0000
0000
1100
0000
0000
0000
0000
0000
0000
0000
0001
0000
0000
0000
1000
0000
0000
0000
1100
0000
0000
0000
0000
0000
0000
0000
0100
0000
0000
0000
0000
0000
0000
0030
0021
0000
0000
0000
0000
0000
0000
0000
0032
0000
0000
0000
0010
0000
0000
0000
1203
0000
0000
0000
0000
0000
0000
0000
,
0312
0000
0000
0000
0000
0000
0110
0000
0000
0000
0000
0000
0100
0000
0000
0010
0000
0000
1100
0000
0000
0000
0000
0000
0013
0000
0100
0000
0001
0000
1000
0000
0100
0000
0010
0000
0100
0000
1000
0000
0001
0000
0010
0000
0100
0000
0010
0000
,
0002
0000
0000
0023
0000
0000
2030
3200
,
0320
0000
0000
0000
0000
0000
0000
0000
0000
0000
0000
0030
0020
0000
0000
0000
0000
0000
0000
0000
0000
0000
0000
0000
0000
0000
0000
0000
0000
0000
0000
0000
0000
0000
0000
0000
0000
0000
0000
0000
0000
0000
0000
0000
0000
0000
0000
0000
0032
0000
0000
0000
0000
0000
0000
0000
0023
0000
0000
0000
0230
0000
0000
0000
,
2300
0000
0000
0000
0000
0000
0000
0000
0000
0000
0000
3000
2000
0000
0000
0000
0000
0000
0000
0000
0000
0000
0000
0000
0000
0000
0000
0000
0000
0000
0000
0000
0000
0000
0000
0000
0000
0000
0000
0000
0000
0000
0000
0000
0000
0000
0000
0000
3000
0000
0000
0000
0000
0000
0000
0000
2000
0000
0000
0000
0000
0000
0000
0000
,
3020
0000
0000
0000
0000
0000
0032
0000
2000
0000
0000
0000
0000
0000
0000
0000
3020
0000
0003
0000
0000
0000
0001
1000
0230
0000
0001
0010
1000
0000
0000
0000
,
0302
0020
0230
2300
,
3023
0032
2003
3020
,
1030
0000
0100
0000
1000
0000
0100
0000
0010
0000
0100
0000
0010
0000
0001
0000
0010
0000
0001
0000
0000
0000
0010
0100
0001
0000
0100
0010
0001
1000
0100
1000
,
0200
0000
0000
0000
0311
0000
0011
0000
0000
0000
1010
0000
0000
0000
2200
0000
0000
0000
0010
0001
0010
0000
0001
0000
3300
0000
0011
0000
0110
0000
1100
0000
,
1001
0000
0011
0000
0100
1000
0011
0000
0011
0000
0110
0000
0001
0100
0011
0000
,
1000
0000
1000
0000
0100
0000
0000
0000
1000
0000
0100
0000
0000
0000
0200
0000
0010
0000
0010
0000
1001
0000
0000
0000
0001
1000
0001
0000
1310
0000
0100
0000
,
0010
0000
0000
0002
0000
0023
0000
0230
0000
0000
0000
0000
2300
0000
0000
0000
,
3002
0100
0100
0000
0100
0100
1000
0020
0100
1000
0100
1000
0000
1133
0110
0011
,
1001
0000
0011
0000
0100
0001
1100
0000
0011
0000
1010
0000
0010
0100
1001
0000
,
0001
0000
0001
0000
0001
0000
0000
0000
0001
0000
0001
0000
0000
0000
0010
0000
0000
0000
2000
0000
0000
0000
0000
0000
0000
0000
3001
0010
1100
0000
0010
0000
,
0100
0000
0000
0000
0000
0000
1100
0000
0000
0000
0000
0000
0011
0000
0000
0101
0000
0000
1010
0000
0000
0000
0000
0000
0001
0000
0010
0000
0100
0000
0010
0000
0001
0000
0010
0000
0100
0000
1000
0000
0100
0000
0010
0000
0001
0000
0010
0000
,
0200
0000
0000
0000
0000
0000
0301
0010
0100
1000
0100
0010
0001
0010
0100
0010
0001
0010
1000
0100
0010
0001
0010
0100
,
1000
0000
0000
0000
0000
0000
0000
0000
0100
0000
0000
0000
0000
0000
0000
0000
1000
0000
0000
0000
0000
0000
0000
0000
0100
0000
0000
0000
0000
0000
0000
0000
0010
0000
0000
0000
0000
0000
0000
0000
0100
0000
0000
0000
0000
0000
0000
0000
0010
0000
0000
0000
0000
0000
0000
0000
0001
0000
0000
0000
0000
0000
0000
0000
0010
0000
0000
0000
0000
0000
0000
0000
0001
0000
0000
0000
0000
0000
0000
0000
0010
0000
0000
0000
0000
0000
0000
0000
0100
0000
0000
0000
0000
0000
0000
0000
1000
0000
0000
0000
0000
0000
0000
0000
0100
0000
0000
0000
0010
0000
0000
0000
0000
0000
0001
0000
0000
0000
0000
0000
0010
0000
0000
0000
0000
0000
0000
0000
0100
0000
0000
0000
0000
0000
0000
0000
0001
0000
0000
0000
0000
0000
0000
0000
1000
0000
0000
0000
0000
0000
0000
0000
0100
0000
0000
0000
0000
0000
0000
0000
0010
0000
0000
0000
0000
0000
0000
0000
0001
0000
0000
0000
0000
0000
0000
0000
0010
0000
0000
0000
0000
0000
0000
0000
0100
0000
0000
0000
0000
0000
0000
0000
,
2000
0000
0000
0101
0101
0000
0010
0101
0101
0000
3002
0023
2030
0000
3200
0320
,
0032
0000
0000
0000
0000
0000
0000
0000
0203
0000
0000
0000
0000
0000
0000
0000
0302
0000
0000
0000
0000
0000
0000
0000
0203
0000
0000
0000
0000
0000
0000
0000
0000
0000
0000
0000
2300
0000
0000
0000
0000
0000
0000
0000
0000
0000
0000
0000
0000
0000
0000
0000
0000
0000
0000
0000
0000
0000
0000
0000
3200
0000
0000
0000
0000
0000
0000
0000
0000
0000
0000
0000
0320
0000
0000
0000
0000
0000
0000
0000
0000
0000
0000
0000
0032
0000
0000
0000
0000
0000
0000
0000
0000
0000
0000
0000
0023
0000
0000
0000
0000
0000
0000
0000
0000
0000
0000
0000
0000
0000
0000
0000
0000
0000
0000
0000
0000
0000
0000
0000
0130
0000
0000
0000
0000
0000
0010
0000
0000
0000
0000
0000
0100
0000
0000
0000
1000
0000
0000
0000
0000
0000
0000
0000
0001
0000
0000
0000
0000
0000
0010
0000
0000
0000
0000
0000
1100
0000
0000
0000
0000
0000
0000
0000
0000
0000
0000
0000
1100
0000
0000
0000
0000
0000
0000
0000
0000
0000
0000
0000
1100
0000
0000
0000
0000
0000
0000
0000
0000
0000
0000
0000
,
0001
0010
0100
0010
0001
0000
1000
0100
0010
0100
1000
0000
0001
0010
0100
0010
0001
0000
1000
0100
0010
0100
1000
0000
0001
0010
0100
0010
0001
0000
0001
0010
,
0100
0010
1000
0001
0100
0010
1000
0100
0010
0100
1000
0001
0100
0010
1000
0100
0010
0001
0010
0100
0010
1000
0001
0100
0010
0001
0010
1000
0001
1000
0100
0010
,
0002
0000
0000
0000
0013
0000
0100
0000
0001
0000
0001
0000
0001
0000
0010
0000
0100
0000
0001
0000
1000
0000
0100
0000
0010
0001
0010
0100
0010
1000
0100
0010
,
0001
0000
0000
0000
0000
0000
0000
0000
0010
0000
0000
0000
0000
0000
0000
0000
0100
0000
0000
0000
0000
0000
0000
0000
0010
0000
0000
0000
0000
0000
0000
0000
1000
0000
0000
0000
0000
0000
0000
0000
0010
0000
0000
0000
0000
0000
0000
0000
0100
0000
0000
0000
0000
0000
0000
0000
0010
0000
0000
0000
0000
0000
0000
0000
0001
0000
0000
0000
0000
0000
0000
0000
0100
0000
0000
0000
0000
0000
0000
0000
0001
0000
0000
0000
0000
0000
0000
0000
1000
0000
0000
0000
0000
0000
0000
0000
0010
0000
0000
0000
0000
0000
0000
0000
0000
0000
0000
0000
0000
0000
0000
0000
0000
0000
0000
0000
0000
0000
0000
0000
1000
0000
0000
0000
0000
0000
0010
0000
0000
0000
0000
0000
0100
0000
0000
0000
0000
0000
0001
0000
0000
0000
0000
0000
1000
0000
0000
0000
0000
0000
0010
0000
0000
0000
0000
0000
0100
0000
0000
0000
0000
0000
0001
0000
0000
0000
0000
0000
1000
0000
0000
0000
0000
0000
0010
0000
0000
0000
0000
0000
0100
0000
0000
0000
0000
0000
0001
0000
0000
0000
0000
0000
,
1000
0100
0010
0000
1000
0100
0010
0000
1000
0100
0010
0000
1000
0100
0010
0000
0001
0010
0100
0000
0001
0010
0100
0000
0001
0010
0100
0000
0001
0010
0100
0000
,
0001
0010
0001
0010
0100
0010
0100
1000
0100
0010
0100
0010
0001
0010
0100
0010
0100
1000
0100
0010
0001
1000
0001
1000
0001
1000
0001
1000
0001
0000
0100
0010
,
0001
0001
0001
0100
1000
0010
0100
0001
0010
0001
0100
0010
0100
1000
0100
0001
,
0100
0010
0100
0010
0100
0010
0001
1000
0001
1000
0001
1000
0001
1000
0001
1000
0001
1000
0001
1000
0001
1000
0001
1000
0001
0010
0100
0010
0100
0001
1000
0010
,
1000
0010
1000
0010
1000
0010
1000
0010
1000
0010
1000
0010
1000
0010
0001
0010
,
0001
0100
0010
0100
0010
0001
0010
0100
0010
0100
0010
0100
0010
0001
0010
0100
0010
0100
0010
0100
0010
0001
0010
0100
0010
0100
0010
0100
0010
0001
0000
0000
,
1010
0000
0000
0000
1001
0000
0000
0000
0000
0011
0000
0000
0000
0101
0000
0000
0000
0000
1001
0000
0000
0000
1010
0000
0000
0000
0000
0110
0000
0000
0000
0011
0000
0000
0000
0000
1100
0000
0000
0000
1001
0000
0000
0000
0000
1002
0000
0000
,
0000
0000
0010
0000
0100
0000
0000
0000
1000
0000
0100
0000
0010
0000
0100
0000
1003
0000
0100
0000
0010
0000
0100
0000
0011
0000
0000
0000
0020
0000
0000
0000
0000
0000
0000
0000
1001
0000
0000
0000
1031
0000
0000
0000
0000
0000
0000
0000
0000
0000
0000
0000
1100
0000
0000
0000
0001
0010
0000
0000
0001
0000
0000
0000
,
0001
0000
0000
0100
0000
0000
0000
0000
0000
0000
0000
0000
0001
0000
0000
0000
0000
0000
0000
0000
0000
0000
0000
0000
0001
0000
0000
1000
0000
0000
0000
0000
0000
0000
0000
0000
0000
0000
0000
0000
0000
0000
0000
0000
0000
0000
0000
0000
0001
0000
0000
0000
0000
0000
0000
0000
0010
0000
0000
0000
0000
0000
0000
0000
0100
0000
0000
0000
0000
0000
0000
0000
0010
0000
0000
0000
0000
0000
0000
0000
1000
0000
0000
0000
0000
0000
0000
0000
0001
0000
0000
0000
0000
0000
0000
0000
2010
0000
0000
0000
0000
0000
0000
0000
0000
0000
0000
0000
0000
0000
0000
0000
0000
0000
0000
0000
0000
0000
0000
0000
0000
0000
0000
0000
0000
0000
0000
0000
0000
0000
0000
0000
0200
0000
0000
0000
0000
0000
0000
0000
0000
0000
0000
0000
0000
0000
0000
0000
0000
0000
0000
0000
0000
0000
0000
0000
0320
0000
0000
0000
0000
0000
0000
0000
0000
0000
0000
0000
0000
0000
0000
0000
0000
0000
0000
0000
0000
0000
0000
0000
0032
0000
0000
0000
0000
0000
0000
0000
0000
0000
0000
0000
,
0000
0000
0000
0000
0000
0000
0000
0000
3010
0100
1013
0000
0110
0000
0100
0000
0002
0000
0000
0000
0000
0000
2003
0000
0000
0000
3200
0000
0000
0000
0320
0000
,
0000
0000
0000
0000
0000
0000
0000
0000
0031
0100
0001
0000
0101
0000
0010
0000
2000
0000
0000
0000
0000
0000
3020
0000
0000
0000
2030
0000
0000
0000
3002
0000
,
0000
0000
0000
0000
2003
0000
0000
0000
3022
0100
1000
1000
0100
0100
1000
1000
,
0100
0100
1000
1000
0100
0133
0110
1000
0002
0000
1100
0020
0103
2030
0101
3200
,
0000
0000
0000
0000
0000
1310
0011
0100
2000
0000
0000
3200
0000
0320
0000
0032
,
0000
0000
0000
0000
0000
0000
0000
0000
1000
0010
0103
0000
0110
0000
0101
0000
1200
0000
0000
0000
0000
0000
0320
0000
0000
0000
0031
0010
1100
0000
0100
0010
,
0100
0000
0100
0001
0100
0000
0100
1000
0100
0000
0100
0010
0100
0001
0100
1000
0100
0000
0100
0000
0100
0000
0000
0000
0010
0000
0000
0000
0000
0000
0100
0000
,
0000
0000
1000
0010
0000
0000
0010
0100
0000
0001
0001
0000
0001
0000
0010
0020
,
0000
0000
0000
0000
0000
0000
0230
0000
0000
0000
0010
0001
1000
0000
2300
0000
0000
0000
0010
0000
0100
0000
0000
0000
0100
0000
0000
0000
0100
0000
0010
0000
,
0000
0000
0000
0010
0000
0000
0010
0100
0000
0100
0001
0000
0001
0000
0100
3002
,
0000
0000
1010
0000
1010
0000
0023
0100
1000
0001
0100
1000
0100
0000
0030
0000
0001
0010
0100
0000
0001
0010
0100
0000
1000
0100
0010
0000
1000
0100
0020
0000
,
0000
0000
0000
0000
0000
0000
0000
0000
0000
0000
0000
0000
0031
0100
1001
0000
0000
0000
0000
0000
0000
0000
0000
0000
0000
0000
0000
0000
0000
0000
0000
0000
;
