#TITLE:Brown #12;
#SUBTITLE:;
#ARTIST:The Flashbulb;
#TITLETRANSLIT:;
#SUBTITLETRANSLIT:;
#ARTISTTRANSLIT:;
#CREDIT:;
#BANNER:Banner.jpg;
#BACKGROUND:BG.jpg;
#LYRICSPATH:;
#CDTITLE:xXTranceXx.png;
#MUSIC:The Flashbulb - brown 12.mp3;
#OFFSET:-0.071;
#SAMPLESTART:20.000;
#SAMPLELENGTH:20.000;
#SELECTABLE:YES;
#BPMS:0.000=95.000;
#STOPS:;
#BGCHANGES:;
// cache tags:
#FIRSTBEAT:0.000;
#LASTBEAT:392.000;
#SONGFILENAME:Songs/dragon force/Brown #12/Brown #12.sm;
#HASMUSIC:1;
#HASBANNER:1;
#MUSICLENGTH:253.361;
// end cache tags

//---------------dance-single - ----------------
#NOTES:
     dance-single:
     :
     Challenge:
     11:
     0.887,1.000,1.000,1.000,0.821,987.000,327.000,259.000,0.000,44.000:
1001
0000
0000
0000
0000
0000
0000
0000
1000
0000
0000
0000
0000
0000
0000
0000
0011
0000
0000
0000
0000
0000
0000
0000
0100
0000
0000
0000
0000
0001
0000
0000
0010
0000
0000
0000
0000
0001
0000
0000
0010
0000
0000
0000
0000
0000
0000
0000
1001
0000
0000
0000
0000
0000
0000
0000
0100
0000
0000
0000
0000
0001
0000
0000
,
1010
0000
0000
0000
0000
0000
0000
0000
0100
0000
0000
0000
0000
0000
0000
0000
1100
0000
0000
0000
0000
0000
0000
0000
0010
0000
0000
0000
0000
0100
0000
0000
1000
0000
0000
0000
0000
0100
0000
0000
1000
0000
0000
0000
0000
0000
0000
0000
0110
0000
0000
0000
0000
0000
0000
0000
1000
0000
0100
0000
0000
0010
0000
0000
,
1001
0000
0000
0000
1001
0000
0000
0000
0000
0000
0000
0000
0000
0100
0000
0000
1010
0000
0000
0000
0000
0000
0000
0000
0100
0000
0000
0000
0000
0001
0000
0000
1000
0000
0000
0000
0000
0001
0000
0000
1000
0000
0000
0000
0000
0000
0000
0000
0101
0000
0000
0000
0000
0000
0000
0000
0000
0000
0000
0000
0000
0010
0000
0000
,
0110
0000
0000
0000
0110
0000
0000
0000
0000
0000
0000
0000
0000
0001
0000
0000
1001
0000
0000
0000
0000
0000
0000
0000
0100
0000
0000
0000
0000
0010
0000
0000
0010
0000
0000
0000
0000
0100
0000
0000
0100
0000
0000
0000
0000
0000
0000
0000
1001
0000
0000
0000
0000
0000
0000
0000
1000
0000
0100
0000
0000
0010
0000
0000
,
0001
0000
0000
0010
0000
0100
0000
1000
,
1100
0000
0000
0000
1100
0000
0000
0000
0000
0000
0000
0000
0000
0010
0000
0000
0110
0000
0000
0000
0000
0000
0000
0000
1002
0000
0000
0000
0000
0100
0000
0000
0010
0000
0000
0000
0000
0100
0000
0000
0013
0000
0000
0000
0000
0000
0000
0000
1010
0000
0000
0000
0000
0000
0000
0000
0100
0000
0010
0000
0000
1000
0000
0000
,
1002
0000
0000
0000
0000
0000
0000
0000
0103
0000
0000
0000
0000
1000
0000
0000
1000
0000
0000
0000
0000
0100
0000
0000
0100
0000
0000
0000
0000
0001
0000
0000
0022
0000
0000
0000
0000
0000
0000
0033
0000
0000
0000
0000
2200
0000
0000
0000
0000
0000
0000
0000
3300
0000
0000
0000
0220
0000
0000
0000
0000
0000
0000
0000
,
0331
0000
0000
0000
0001
0000
0000
0000
0000
0000
0000
0000
0000
1000
0000
0000
1010
0000
0000
0000
0000
0000
0000
0000
0001
0000
0000
0000
0000
1000
0000
0000
0010
0000
0000
0000
0000
1000
0000
0000
0010
0000
0000
0000
0000
0000
0000
0000
1000
0000
0100
0000
0010
0000
0001
0000
1000
0000
0100
0000
0010
0000
0001
0000
,
2100
0000
0000
0000
0000
0000
0000
0000
3020
0000
0000
0230
0000
0000
0302
0000
,
1013
0000
0000
0000
1010
0000
0000
0000
0000
0000
0000
0000
0000
0010
0000
0000
1100
0000
0000
0000
0000
0000
0000
0000
0010
0000
0000
0000
0000
0100
0000
0000
1000
0000
0100
0000
0010
0000
0001
0000
0010
0000
0100
0000
1000
0000
0001
0000
0110
0000
0000
0000
0000
0000
0000
0000
0000
0000
0000
0000
0000
0000
0000
0000
,
0201
0000
0000
0000
0000
0001
0000
0000
0301
0000
0000
0000
0000
0010
0000
0000
0010
0000
0000
0000
0000
1000
0000
0000
1000
0000
0000
0000
0000
0100
0000
0000
2020
0000
0000
0000
0000
0000
0000
0000
3030
0000
0000
0000
0202
0000
0000
0000
0000
0000
0000
0000
0303
0000
0000
0000
2002
0000
0000
0000
3003
0000
0000
0000
,
0010
0000
0000
0000
0010
0000
0000
0000
0000
0000
0000
0000
0000
0010
0000
0000
1100
0000
0000
0000
0000
0000
0000
0000
0001
0000
0000
0000
0000
1010
0000
0000
1100
0000
0000
0000
0000
0101
0000
0000
0011
0000
0000
0000
0000
0000
0000
0000
0110
0000
0000
0000
0000
0000
0000
0000
0110
0000
0000
0000
0000
0000
0000
0000
,
1020
0000
0000
0000
0000
0000
0000
0000
0132
0000
0000
1203
0000
0000
1320
0030
,
1100
0000
0000
0000
1100
0000
0000
0000
0000
0000
0000
0000
0000
0010
0000
0000
0101
0000
0000
0000
0000
0000
0000
0000
1000
0000
0000
0000
0000
1001
0000
0000
0110
0000
0000
0000
0000
1001
0000
0000
0110
0000
0000
0000
0000
0000
0000
0000
1000
0000
0100
0000
0000
0010
0000
0000
0001
0000
0000
0000
1001
0000
0000
0000
,
0000
0000
0000
0000
0000
0000
0000
0000
0000
0000
0000
0000
0000
1100
0000
0000
1100
0000
0000
0000
0000
0101
0000
0000
0101
0000
0000
0000
0000
0110
0000
0000
0210
0000
0000
0000
0000
0000
0000
0000
0000
0300
0000
0000
0002
0000
0000
0000
0000
0000
0000
0000
0003
0000
0000
0000
2000
0000
0000
0000
0000
0000
0000
0000
,
3101
0000
0000
0000
0101
0000
0000
0000
0000
0000
0000
0000
0000
0010
0000
0000
1100
0000
0000
0000
0000
0000
0000
0000
0101
0000
0000
0000
0000
1100
0000
0000
1100
0000
0000
0000
0000
0110
0000
0000
0110
0000
0000
0000
0000
0000
0000
0000
1001
0000
0000
0000
0000
0000
0000
0000
1001
0000
0000
0000
0000
0000
0000
0000
,
0022
0000
0000
0000
0000
0000
0033
0000
2020
0000
3030
0220
0000
0330
2002
0000
,
3113
0000
0000
0000
0011
0000
0000
0000
0000
0000
0000
0000
0000
1010
0000
0000
0110
0000
0000
0000
0000
0000
0000
0000
1001
0000
0000
0000
0000
0011
0000
0000
0011
0000
0000
0000
0000
1010
0000
0000
1010
0000
0000
0000
0000
0000
0000
0000
1001
0000
0000
0000
0000
0000
0000
0000
1000
0000
0100
0000
0000
0010
0000
0000
,
0101
0000
0000
0000
0101
0000
0000
0000
0000
0000
0000
0000
0000
0110
0000
0000
1001
0000
0000
0000
0000
0000
0000
0000
0011
0000
0000
0000
0000
1100
0000
0000
0011
0000
0000
0000
0000
1100
0000
0000
0011
0000
0000
0000
0000
0000
0000
0000
1010
0000
0001
0000
0000
0100
0000
0000
0010
0000
1000
0000
0000
0010
0000
0000
,
0101
0000
0000
0000
0101
0000
0000
0000
0000
0000
0000
0000
0000
0011
0000
0000
1100
0000
0000
0000
0000
0000
0000
0000
1010
0000
0000
0000
0000
0101
0000
0000
0101
0000
0000
0000
0000
0110
0000
0000
0110
0000
0000
0000
0000
0000
0000
0000
1001
0000
0010
0000
0000
0100
0000
0000
1000
0000
0001
0000
0000
0010
0000
0000
,
1200
0000
0000
0000
0000
0000
0000
0000
0020
0000
0030
0002
0000
0003
2000
0300
,
3011
0000
0000
0000
0011
0000
0000
0000
0000
0000
0000
0000
0000
1000
0000
0000
0100
0000
0000
0000
0000
0000
0000
0000
1001
0000
0000
0000
0000
0100
0000
0000
0010
0000
1000
0000
0000
0001
0000
0000
0100
0000
0010
0000
0000
1000
0000
0000
0100
0000
0000
0000
0000
0000
0000
0000
0000
0000
0000
0000
0000
0000
0000
0000
,
0011
0000
0000
0000
1100
0000
0000
0000
0000
0000
0000
0000
0000
0110
0000
0000
1001
0000
0000
0000
0000
0000
0000
0000
0001
0000
0000
0000
0000
1000
0000
0000
0010
0000
0000
0000
0000
1000
0000
0000
0010
0000
0000
0000
0000
0000
0000
0000
0101
0000
0000
0000
0000
0000
0000
0000
1000
0000
0100
0000
0000
0010
0000
0000
,
1001
0000
0000
0000
1001
0000
0000
0000
0000
0000
0000
0000
0000
1001
0000
0000
0110
0000
0000
0000
0000
0000
0000
0000
1001
0000
0000
0000
0000
0011
0000
0000
0011
0000
0000
0000
0000
1100
0000
0000
1100
0000
0000
0000
0000
0000
0000
0000
1001
0000
0000
0000
0000
0000
0000
0000
1001
0000
0000
0000
0000
0000
0000
0000
,
1200
0000
0000
0300
0020
0000
0000
0030
2000
3200
2300
3000
0020
0032
0023
0030
,
1100
0000
0000
0000
1100
0000
0000
0000
0000
0000
0000
0000
0000
1100
0000
0000
1010
0000
0000
0000
0000
0000
0000
0000
1100
0000
0000
0000
0000
0110
0000
0000
1001
0000
0000
0000
0000
0110
0000
0000
1001
0000
0000
0000
0000
0000
0000
0000
0110
0000
1000
0000
0000
0100
0000
0000
0010
0000
0001
0000
0000
0010
0000
0000
,
1200
0000
0000
0000
0000
0000
0300
0000
0020
0032
0023
0030
2000
0000
3200
0000
,
0311
0000
0000
0000
0011
0000
0000
0000
0000
0000
0000
0000
0000
1000
0000
0000
0110
0000
0000
0000
0000
0000
0000
0000
1001
0000
0000
0000
0000
1010
0000
0000
0101
0000
0000
0000
0000
1010
0000
0000
0101
0000
0000
0000
0000
0000
0000
0000
2000
0000
0000
0000
0200
3000
0000
0000
0320
0000
0000
0000
0032
0000
0000
0000
,
2003
3020
0230
2300
3200
0320
0032
0023
0230
0320
0032
0023
0230
2300
3200
0320
,
0230
2300
0000
0000
3002
0000
0203
0302
2003
0000
3200
0000
0320
0032
0023
0030
,
2002
0000
0000
3003
1001
0000
0000
0000
1200
0000
0000
0321
0000
0000
0131
0000
,
1100
0000
0000
0000
1000
0000
0000
0000
0000
0000
0000
0000
0000
1000
0000
0000
0011
0000
0000
0000
0000
0000
0000
0000
1000
0000
0000
0000
0000
0100
0000
0000
0100
0000
0000
0000
0000
1000
0000
0000
1000
0000
0000
0000
0000
0000
0000
0000
0002
0000
0000
0000
0023
0000
0000
0000
0032
0000
0000
0000
0023
0000
0000
0000
,
0132
0000
0000
0000
1203
0000
0000
0300
0020
0032
0023
0030
2000
3200
2300
3000
,
0011
0000
0000
0000
0011
0000
0000
0000
0000
0000
0000
0000
0000
0010
0000
0000
1010
0000
0000
0000
0000
0000
0000
0000
0110
0000
0000
0000
0000
0001
0000
0000
1001
0000
0000
0000
0000
1000
0000
0000
1001
0000
0000
0000
0000
0000
0000
0000
0110
0000
0000
0000
0000
0000
0000
0000
1000
0000
0100
0000
0000
0010
0000
0000
,
1100
0000
0000
0000
1100
0000
0000
0000
0000
0000
0000
0000
0000
0010
0000
0000
1100
0000
0000
0000
0000
0000
0000
0000
0001
0000
0000
0000
0000
0100
0000
0000
0110
0000
0000
0000
0000
0010
0000
0000
0110
0000
0000
0000
0000
0000
0000
0000
0100
0000
0000
0000
0000
0000
0000
0000
0010
0000
0000
0000
0000
0000
0000
0000
,
1010
0000
0000
0000
0101
0000
0000
0000
0000
0000
0000
0000
0000
0101
0000
0000
1010
0000
0000
0000
0000
0000
0000
0000
0110
0000
0000
0000
0000
1000
0000
0000
0001
0000
0000
0000
0000
1000
0000
0000
0001
0000
0000
0000
0000
0000
0000
0000
0002
0000
0000
0000
0023
0000
0000
0000
0230
0000
0000
0000
2300
0000
0000
0000
,
3200
0320
0032
0023
0230
2300
3200
0320
0032
0023
0230
2300
3200
0320
0032
0023
,
0230
2300
0000
0000
3020
0000
0230
0320
0032
0000
0023
0000
0230
2300
3200
0300
,
1002
0000
0000
0000
0000
0000
0000
0000
0200
0000
0000
0000
0000
0000
0000
0000
0300
0000
0000
0000
0000
0000
0000
0000
0020
0000
0000
0000
0000
1000
0000
0000
0133
0000
0000
0000
0000
0001
0000
0000
0010
0000
0000
0000
0000
0000
0000
0000
1001
0000
0000
0000
0000
0000
0000
0000
0000
0000
0000
0000
0000
0000
0000
0000
,
1200
1320
0000
0032
0000
0113
1001
1001
,
0102
0000
0110
1000
0000
0010
1100
0103
,
2010
0000
0000
0000
0101
0000
0020
0000
0230
0000
0320
0000
0132
0000
3003
0101
,
2000
0000
3200
0000
0011
0300
0020
0000
0000
0000
2030
0000
0110
0000
3200
0000
,
0000
0302
1010
0023
0000
0032
1100
1103
,
0110
0000
0000
0000
1000
0000
0000
0000
0000
0000
0000
0000
0000
0001
0000
0000
0011
0000
0000
0000
0000
0000
0000
0000
1000
0000
0000
0000
0000
0010
0000
0000
1100
0000
0000
0000
0000
0001
0000
0000
1100
0000
0000
0000
0000
0000
0000
0000
1001
0000
0000
0000
0000
0000
0000
0000
0000
0000
0000
0000
0000
0000
0000
0000
,
1100
0000
0000
0000
1000
0000
0000
0000
0000
0000
0000
0000
0000
0100
0000
0000
0110
0000
0000
0000
0000
0000
0000
0000
0011
0000
0000
0000
0000
0110
0000
0000
0011
0000
0000
0000
0000
0110
0000
0000
1100
0000
0000
0000
0000
0000
0000
0000
1001
0000
0000
0000
0000
0000
0000
0000
0000
0000
0000
0000
0000
0000
0000
0000
,
0120
0200
0300
0002
0003
1130
1001
0000
,
2010
0100
0011
0001
0000
3010
1100
1100
,
0102
0000
0000
0100
0000
1000
0000
0013
,
1001
0000
0000
0000
1001
0000
0000
0000
0000
0000
0000
0000
0000
1000
0000
0000
0011
0000
0000
0000
0000
0000
0000
0000
1100
0000
0000
0000
0000
0001
0000
0000
0011
0000
0000
0000
0000
0010
0000
0000
0011
0000
0000
0000
0000
0000
0000
0000
1001
0000
0000
0000
0000
0000
0000
0000
0000
0000
0000
0000
1001
0000
0000
0000
,
0110
0200
0311
2000
3000
0002
0113
0200
,
0300
0020
1130
0002
0003
2000
3011
0011
,
0100
0000
0000
0000
0000
0000
0000
0000
0020
0000
0000
0000
0000
0000
0000
0000
1130
0000
0000
0000
0000
0000
0000
0000
0001
0000
0000
0000
0000
1000
0000
0000
0010
0000
0000
0000
0000
1000
0000
0000
0010
0000
0000
0000
0000
0000
0000
0000
0101
0000
0000
0000
0000
0000
0000
0000
0000
0000
0000
0000
0000
0000
0000
0000
,
2002
0000
0000
0100
3113
0000
0010
0000
,
1000
0100
0010
0001
0010
0100
1000
0100
0010
0001
0010
0100
1000
0100
0010
0001
0010
0000
0000
0000
0000
0000
0000
0000
0000
0000
0000
0000
0000
0000
0000
0000
,
1000
0100
0001
0010
1000
0100
0001
0010
0100
0000
0000
0000
0000
0000
0000
0000
0000
0000
0000
0000
0000
0000
0000
0000
0000
0000
0000
0000
0000
0000
0000
0000
,
0010
0001
0010
0100
1000
0100
0010
0100
1000
0001
0010
0100
1000
0000
0000
0000
0000
0000
0000
0000
0000
0000
0000
0000
0000
0000
0000
0000
0000
0000
0000
0000
,
1000
0100
0010
0001
1000
0100
0010
0001
0010
0100
1000
0001
0010
0100
1000
0000
0000
0000
0000
0000
0000
0000
0000
0000
0000
0000
0000
0000
0000
0000
0000
0000
,
1000
0100
0010
0001
0010
0100
1000
0100
0010
0001
0010
0100
1000
0100
0010
0001
0010
0000
0000
0000
0000
0000
0000
0000
0000
0000
0000
0000
0000
0000
0000
0000
,
0100
0001
1000
0010
0100
1000
0001
0010
0100
1000
0100
0010
1000
0100
0001
0010
0100
0000
0000
0000
0000
0000
0000
0000
0000
0000
0000
0000
0000
0000
0000
0000
,
1000
0100
0001
0010
0001
0010
0100
1000
0010
0001
0010
0100
1000
0001
0010
0100
1000
0100
0010
0001
1000
0100
0010
0001
0000
0000
0000
0000
0000
0000
0000
0000
,
0100
1000
0001
0010
0001
0100
1000
0010
0100
1000
0001
0100
0010
0100
1000
0001
0010
0000
0000
0000
0000
0000
0000
0000
0000
0000
0000
0000
0000
0000
0000
0000
,
2100
0000
0000
0000
0011
0000
0000
0000
0000
0000
0000
0000
0000
0010
0000
0000
0101
0000
0000
0000
0000
0000
0000
0000
3110
0000
0000
0000
0000
0001
0000
0000
0020
0000
0000
0000
0000
0000
0000
0000
0230
0000
0000
0000
0000
0000
0000
0000
0320
0000
0000
0000
0000
0000
0000
0000
0030
0000
0000
0000
1000
0000
0000
0000
,
0101
0000
0000
0000
0101
0000
0000
0000
0000
0000
0000
0000
0000
1000
0000
0000
0110
0000
0000
0000
0000
0000
0000
0000
1001
0000
0000
0000
0000
1010
0000
0000
1010
0000
0000
0000
0000
0101
0000
0000
0101
0000
0000
0000
0000
0000
0000
0000
1001
0000
0000
0000
0000
0000
0000
0000
1001
0000
0000
0000
0000
0000
0000
0000
,
2100
0010
0100
0001
3100
0000
0011
0000
2000
3200
2300
3000
0020
0000
0230
0000
,
0311
0000
0000
0000
0100
0000
0000
0000
1000
0000
0000
0000
0100
0000
0000
0000
0011
0000
0000
0000
0100
0000
0000
0000
1000
0000
0000
0000
0000
0011
0000
0000
0011
0000
0000
0000
0000
0110
0000
0000
1001
0000
0000
0000
0000
0000
0000
0000
1001
0000
0000
0000
0000
0000
0000
0000
0000
0000
0000
0000
1001
0000
0000
0000
,
0110
1000
0100
0010
1100
0010
0001
0110
0001
1000
0011
0100
1010
0100
1000
0001
,
0101
0010
1000
0100
0011
0100
1000
0110
0001
1000
1001
0010
1100
0100
1010
0001
,
1010
0000
0100
0000
1000
0000
0001
0000
0110
0000
1000
0000
0100
0000
0010
0001
0110
0000
1000
0000
0100
0000
0011
0000
0100
0000
1000
0000
0110
0000
0001
0000
,
1001
0000
0100
0000
0010
0000
0001
0000
1100
0000
0010
0000
1100
0000
0001
0000
0110
0000
1000
0000
0100
0000
0001
0000
0110
0000
1000
0000
0001
0000
0010
0100
,
1001
0000
0100
0000
0001
0000
1000
0000
0100
0000
0010
0000
1000
0000
0100
0010
1100
0000
0100
0000
0010
0000
0101
0000
1000
0000
0010
0000
0110
0000
1000
0000
,
0110
0001
1000
0100
1001
0010
0100
0011
1000
0100
1010
0100
1001
0010
0100
0010
,
1100
0000
0010
0000
0100
0000
1000
0000
0001
0000
0100
0000
0010
0000
1000
0100
0011
0000
0100
0000
1000
0000
0101
0000
0010
0000
1000
0000
0110
0000
0001
0000
,
1010
0100
1000
0001
0110
1000
0010
0101
1000
0100
1100
0010
1001
0100
0011
1000
,
1100
0000
0010
0000
0100
0000
0001
0000
1000
0000
0010
0000
0100
0000
1000
0001
0110
0000
1000
0000
0010
0000
1010
0000
0100
0000
0001
1000
0110
0000
1000
0000
,
0101
0010
1000
0100
0011
0100
1000
0110
1000
0001
0110
1000
0101
0010
1000
0100
,
1001
0000
0001
0000
0001
0000
0001
0000
0101
0000
0001
1010
0001
0000
0011
0000
,
0001
0000
0001
0000
0001
0000
0001
0000
0200
0000
2300
0000
3020
0032
0023
0030
,
2100
0000
3020
0000
0000
0030
0200
0000
0000
0300
0002
0000
0000
0000
0203
0000
,
1010
0300
0020
0000
0000
0000
2030
0000
0000
3000
0002
0000
0110
0000
0003
0000
,
1020
0000
0230
0000
0000
0000
0300
0000
0001
0000
0020
0000
0030
0000
0200
0300
,
1010
0000
0000
0001
0220
0330
0202
0303
,
2002
0000
0000
0000
3003
0000
0000
0000
2200
0000
3300
0220
0000
0330
0022
0000
,
0000
0000
0000
0000
0000
0000
0000
0000
0033
0000
0000
0000
0002
0023
0032
0023
,
1230
0000
0000
0000
2300
0000
0000
0000
3020
0230
0320
0030
2000
3200
2300
3000
,
0000
0000
0000
0000
2000
3200
0320
0030
,
2002
0000
0000
0000
0000
0000
3003
0000
0200
0302
0203
0300
2000
0000
3200
0000
,
0000
0000
0302
0000
0000
0000
0000
0000
0003
0000
0000
0000
2000
3200
0320
0032
,
0023
0230
0320
0032
0023
0230
2300
3200
2300
3200
0320
0230
0320
0032
0023
0230
,
2300
3200
0300
0000
0020
0000
0230
0320
0032
0000
0023
0000
0230
2300
3200
0300
,
0012
0000
0000
0000
0000
0000
0000
0003
0120
0000
0030
1200
0000
0300
2001
0000
,
3000
0000
0000
0000
0000
1000
0000
0010
,
0101
0000
0000
0000
0000
0000
0000
0000
1000
0000
0000
0110
0000
0000
1010
0000
,
0000
0000
0000
0000
0010
0100
1000
0000
,
0100
0000
0000
0000
0000
0000
0000
0000
0010
0000
0000
1000
0000
0000
0001
0000
,
0000
0000
0000
0000
0000
1000
0000
0100
,
0011
0000
0000
0000
0000
0000
0000
0000
0100
0000
0000
1010
0000
0000
0110
0000
,
0000
0000
0000
0000
0001
0010
0100
0000
,
1001
0000
0000
0000
;
