#TITLE:Indigo Vision;
#SUBTITLE:(full flavour hide around mix);
#ARTIST:TaQ (Steps by kyd0);
#TITLETRANSLIT:;
#SUBTITLETRANSLIT:;
#ARTISTTRANSLIT:;
#CREDIT:;
#BANNER:Go Berzerk.png;
#BACKGROUND:Go Berzerk-bg.png;
#LYRICSPATH:;
#CDTITLE:Jimbo.png;
#MUSIC:17.Indigo Vision (full flavour hide around mix) 155.ogg;
#OFFSET:-0.420;
#SAMPLESTART:67.420;
#SAMPLELENGTH:12.000;
#SELECTABLE:YES;
#BPMS:0.000=155.000;
#STOPS:;
#BGCHANGES:;
// cache tags:
#FIRSTBEAT:4.000;
#LASTBEAT:247.000;
#SONGFILENAME:Songs/toune/Indigo Vision (full flavour hide around mix)/Indigo Vision (full flavour hide around mix).sm;
#HASMUSIC:1;
#HASBANNER:0;
#MUSICLENGTH:98.768;
// end cache tags

//---------------dance-single - ----------------
#NOTES:
     dance-single:
     :
     Hard:
     7:
     0.516,0.531,0.061,0.121,0.035,339.000,6.000,12.000,0.000,5.000:
0000
0000
0000
0000
,
0001
0000
0100
0000
0010
1000
0100
0000
,
1000
0000
0100
0000
0010
0001
1000
0000
,
0001
0000
1000
0000
0100
1000
0010
0000
,
1000
0000
0010
0000
0001
0010
1000
0000
,
0001
0000
0100
0000
0010
0100
1000
0000
,
0100
0000
0010
0000
0001
0010
0100
0000
,
0001
0000
1000
0000
0001
0010
0100
0000
,
1000
0000
0100
0000
0010
0100
1000
0100
,
0001
0000
0100
0000
0010
0001
1000
0000
,
0010
0000
0100
0000
0010
1000
0100
0000
,
0010
0000
0001
0000
1000
0100
0001
0100
,
1000
0000
0100
0000
0010
0001
1000
0100
,
0001
0100
1000
0000
0010
0100
0001
0000
,
1000
0100
1000
0000
0001
0000
0001
0000
,
0001
0100
0010
0000
0010
0100
1000
0000
,
0100
0010
1000
0000
1000
0000
1000
0000
,
0001
1000
0100
0000
1000
0001
0100
0000
,
1000
0001
0010
0000
0100
1000
0100
0010
,
0001
0010
0001
0000
1000
0100
1000
0000
,
0000
0000
1000
0000
0000
0100
0000
0000
0010
0000
0000
0100
0000
0000
1000
0000
,
0002
0000
0000
0000
,
2000
0000
0000
0000
,
0010
0000
0010
0000
,
0100
0000
0000
3003
,
2000
0000
0000
0000
,
0200
0000
0000
0000
,
0020
0000
0000
0000
,
0002
0000
0000
3333
,
2000
0100
0100
0100
,
3200
0010
0320
0001
,
0032
1000
1000
1003
,
1001
1001
0110
0110
,
1000
0100
0010
0000
0001
0100
0010
0000
,
0010
1000
0100
0000
0100
1000
0010
0000
,
0010
0100
0001
0000
1000
0100
0001
0000
,
0001
0100
0010
0000
0010
0001
0100
0000
,
1000
0001
0100
0001
0010
0000
0010
0000
,
0100
1000
0010
0100
0001
0000
0001
0000
,
1000
0010
0100
0010
1000
0000
1000
0000
,
0010
0100
1000
0100
0010
1000
0100
0010
,
0002
0100
0010
1000
,
2003
0100
0010
0001
,
3010
0100
0010
0100
0001
1000
0001
1000
,
0010
0100
0001
1000
0010
0100
0110
0000
,
1000
0100
0001
0100
1000
0010
1000
0010
,
1000
0100
0010
0001
0010
0100
1000
0100
,
1000
0010
0100
0001
1000
0010
0100
0001
,
1000
0100
0010
0001
1000
0010
0100
0001
,
1000
0010
0001
0010
1000
0100
1000
0100
,
1000
0010
0100
0001
1000
0010
0100
1000
,
0100
0010
1000
0100
0010
0100
1000
0100
,
0000
0000
0001
0000
0000
0100
0000
0000
0010
0000
0000
0100
0000
0000
1000
0000
,
0100
1000
0100
1000
0001
0010
1001
0000
,
0100
1000
0100
1000
0010
1000
0010
0100
,
0010
1000
0100
0010
0001
0100
0010
0100
,
0001
0100
0010
0100
0001
1000
0100
1000
,
0010
0100
0001
0100
0001
0010
0100
0010
,
0001
0010
1000
0010
0001
0010
0100
1000
,
0010
0100
0001
0100
0010
1000
0010
0100
,
0010
1000
0100
0010
0001
0010
0001
0100
,
0010
1000
0001
1000
0100
0000
0010
0000
0000
0001
0000
0000
0100
0000
0000
0000
;
