#TITLE:Soda Love;
#SUBTITLE:;
#ARTIST:SHK.o2SE;
#TITLETRANSLIT:;
#SUBTITLETRANSLIT:;
#ARTISTTRANSLIT:;
#CREDIT:kjwkjw;
#BANNER:bn.jpg;
#BACKGROUND:bg.JPG;
#LYRICSPATH:;
#CDTITLE:!cdtitle.jpg;
#MUSIC:Soda_Love.mp3;
#OFFSET:-0.070;
#SAMPLESTART:21.060;
#SAMPLELENGTH:16.420;
#SELECTABLE:YES;
#BPMS:0.000=144.990;
#STOPS:;
#BGCHANGES:;
// cache tags:
#FIRSTBEAT:3.833;
#LASTBEAT:336.000;
#SONGFILENAME:Songs/Hard Songs Megapack Volume 9/Soda Love/Soda Love.sm;
#HASMUSIC:1;
#HASBANNER:1;
#MUSICLENGTH:140.779;
// end cache tags

//---------------dance-single - Charlie Brown----------------
#NOTES:
     dance-single:
     Charlie Brown:
     Easy:
     5:
     0.355,0.418,0.107,0.021,0.050,332.000,15.000,3.000,0.000,0.000:
0000
0000
0000
0000
,
0000
0000
0000
0000
,
0000
0000
0000
0000
,
0000
0000
0000
0000
,
0000
0000
0000
0000
,
0010
0000
0100
0010
0000
0010
1000
0100
,
0010
0000
0000
0001
0000
0000
0000
0000
,
0100
0000
0000
0001
0000
0000
0010
0000
,
0100
0000
1000
0010
0000
0000
1000
0100
,
0001
0000
0000
0001
0000
0000
0010
0100
,
0001
0000
0000
0001
0000
0000
0010
0000
,
0100
0000
0000
0100
0000
0000
1000
0010
,
0001
0000
0010
0100
0000
0010
1000
0100
,
1001
0000
0010
0001
0000
0001
1000
0100
,
0010
0000
0000
0001
0000
0000
0000
0000
,
0010
0000
0000
0001
0000
0000
0010
0000
,
0100
0000
1000
0010
0000
0000
0100
0010
,
1001
0000
0000
0001
0000
0000
0100
1000
,
0010
0000
0000
0010
0000
0000
0001
0000
,
0100
0000
0000
0100
0000
0000
0010
0001
,
1000
0000
0100
0010
0000
0000
0000
0000
,
0110
0000
0010
0100
0000
0100
1000
0100
,
0010
0000
0000
1000
0000
0000
0000
0000
,
1000
0000
0010
0100
0000
0000
1000
0100
,
0001
0000
0010
0100
0000
1000
0100
0001
,
0110
0000
0001
0010
0000
0010
1000
0100
,
0010
0000
0001
0010
0000
0000
0100
0010
,
0001
0000
0100
0010
0000
0000
1000
0000
,
0010
0000
0000
0010
0000
0000
0100
0000
0000
0000
0001
0000
0010
0000
0100
0000
,
0000
0010
0000
1000
0000
0010
1000
0100
,
0010
0000
0000
0100
0000
0000
1000
0010
,
0001
0000
1000
0001
0000
0000
0001
0010
,
0100
0000
0001
0010
0000
0000
0100
0000
,
1001
0000
0100
0100
0000
1000
0100
0010
,
0000
0001
0000
0100
0000
0100
0010
0000
,
0010
0000
0000
1000
1000
0000
0000
0000
,
0010
0000
0100
0010
,
1001
0000
0000
0010
1000
0000
0100
0010
,
0001
0000
0000
0010
1000
0000
1000
0100
,
0001
0000
0000
0100
0010
0000
0100
0000
,
1000
0000
0000
0100
0001
0000
0010
0000
,
1001
0000
0000
0100
0000
0000
0010
0000
,
0100
0000
0000
0010
0000
0000
0001
0000
,
1000
0000
0000
0000
0000
0000
0010
0001
,
0100
0000
0000
0100
0000
0000
0100
0000
1000
0000
0000
0000
0001
0000
0010
0000
,
0110
0000
1000
0100
0000
0100
0010
1000
,
0001
0000
0000
0001
0000
0000
0010
0000
0000
0000
0000
0000
1000
0000
0100
0000
,
0010
0000
0000
0010
0000
0000
0010
0000
0000
0000
0000
0000
0001
0000
0010
0000
,
0100
0000
1000
0100
0000
0100
0010
0000
,
1001
0000
0000
1000
0000
0000
1000
0000
0000
0000
0100
0000
0000
0000
0010
0000
,
0001
0000
0000
0001
0000
0000
0001
0000
0000
0000
1000
0000
0000
0000
0010
0000
,
0100
0000
0000
0100
0000
0000
0100
0000
0000
0000
0000
0000
0100
0000
1000
0000
,
0010
0000
0001
0010
0000
0010
0001
0000
,
1001
0000
0000
0001
0000
0000
0001
0000
0000
0000
0100
0000
0000
0000
0010
0000
,
1000
0000
0000
1000
0000
0000
1000
0000
0000
0000
0001
0000
0000
0000
0100
0000
,
0010
0000
0000
0010
0000
0000
0010
0000
0000
0000
0000
0000
0001
0000
1000
0000
,
0100
0000
1000
0010
0000
0010
0100
0000
,
0011
0000
0000
1000
0000
0000
1000
0000
0000
0000
0100
0000
0010
0000
0100
0000
,
1000
0000
0000
0001
0000
0000
0001
0000
0000
0000
0100
0000
0010
0000
0000
0000
,
0010
0000
0000
0100
0100
0000
0000
0000
,
1000
0100
0010
0001
,
0200
0000
0000
0000
,
0301
0000
0010
0001
0000
0001
1000
0100
,
0010
0000
0000
0100
0000
0000
0000
0000
,
1000
0000
0000
0010
0000
0000
1000
0000
,
0100
0000
0001
0010
0000
0000
1000
0100
,
0011
0000
0000
0001
0000
0000
0100
1000
,
0010
0000
0000
0010
0000
0000
0001
0000
,
0100
0000
0000
0100
0000
0000
0010
0001
,
1000
0000
0000
0100
0000
0010
1000
0100
,
0001
0000
0010
0001
0000
0001
1000
0100
,
0010
0000
0000
0001
0000
0000
0000
0000
,
1000
0000
0000
0100
0000
0000
0100
0000
,
0010
0000
0100
1000
0000
0100
0000
0000
,
0110
0000
0000
0010
0000
0000
1000
0100
,
0010
0000
0000
0001
0000
0000
0100
1000
,
0100
0000
0000
0001
0000
0000
0001
0010
,
0100
0000
1000
0100
0000
0000
0010
0000
,
1001
0000
0000
0010
0000
0000
0010
0000
0000
0000
1000
0000
0100
0000
0010
0000
,
0001
0000
0000
0100
0000
0000
0100
0000
0000
0000
1000
0000
0010
0000
0000
0000
,
0001
0000
0000
0010
0010
0000
0000
0000
,
1000
0100
0010
0001
,
2002
0000
0000
0000
,
0000
0000
0000
0000
,
3003
0000
0000
0000
;

//---------------dance-single - Lucy van Pelt----------------
#NOTES:
     dance-single:
     Lucy van Pelt:
     Medium:
     8:
     0.647,0.686,1.000,0.021,0.050,460.000,175.000,3.000,0.000,1.000:
0000
0000
0000
0000
,
0000
0000
0000
0000
,
0000
0000
0000
0000
,
0000
0000
0000
0000
,
0000
0000
0000
0000
,
0011
0000
0100
0011
0000
0010
1000
0100
,
1010
0000
0000
1001
0000
0000
0000
0000
,
0110
0000
0000
0101
0000
0000
0010
0000
,
1100
0000
1000
1010
0000
0000
1000
0100
,
0011
0100
0000
0011
0100
1000
0110
1100
,
0011
0010
0000
0011
0010
0100
1010
0000
,
1100
0010
0000
1100
0001
0100
1010
0110
,
0011
1000
0110
1100
0000
0110
1000
0100
,
1001
0000
0011
1001
0000
0101
1001
0100
,
0010
0000
0001
1001
0000
1000
0001
0000
,
0110
0000
0001
0101
0000
0100
0011
0000
,
0110
0000
1001
0110
0000
0100
0101
0010
,
1001
0000
0010
1001
0000
1000
0101
1000
,
0110
0000
0001
0110
0000
0100
1001
0000
,
1100
0000
0001
1100
0000
1000
0011
0001
,
1010
0100
0101
1010
0100
1000
0010
1000
,
0110
0001
0010
0100
0000
0101
1000
0100
,
0010
0001
0000
1000
0000
0010
0000
0000
,
1000
0001
0010
0100
0000
0001
1000
0100
,
0001
0000
0010
0100
0000
1000
0100
0001
,
0110
0000
0101
1010
0000
1010
0101
0010
,
1001
0000
0011
1010
0000
1000
0101
0010
,
1001
0000
0110
1010
0000
1000
1001
0000
,
0110
0000
0000
0010
0001
0000
1100
0000
0000
0000
0001
0000
0010
0000
0100
0000
,
1001
0010
0001
1100
0000
0110
1001
0100
,
1010
0000
0001
1100
0000
1000
1001
0010
,
0101
0000
1010
0101
0000
0100
0011
0010
,
1100
0000
0011
1010
0000
1000
0101
0000
,
1001
0000
0101
1100
0000
1100
0101
0010
,
1000
0001
0010
1100
0000
1100
0011
0000
,
0110
0000
0001
1100
1000
0100
0001
0000
,
0010
0000
0100
0010
,
1001
0000
0000
0010
1100
0000
0100
0010
,
1001
0000
0000
0010
1100
0000
1010
0100
,
0011
0000
0000
0100
1001
0000
0100
0000
,
1100
0000
0000
0100
0011
0000
0110
0000
,
1001
0000
0001
0100
1000
0000
0011
0000
,
1100
0000
0100
0010
1000
0000
0101
0000
,
1100
0010
0001
0010
0100
1000
0010
0001
,
0100
0000
1000
0100
0010
0000
0100
0000
1000
0000
0100
0000
0001
0000
0010
0000
,
0110
0000
1001
0100
1000
0100
0011
1000
,
0101
0000
0000
0001
0010
0000
0010
0000
0100
0000
0000
0000
1010
0000
0100
0000
,
1010
0000
0000
0010
0001
0000
0010
0000
1000
0000
0000
0000
0011
0000
0010
0000
,
1100
0000
1001
0100
1000
0100
0001
0000
,
1001
0000
0000
1000
0010
0000
1000
0000
0100
0000
0100
0000
0010
0000
0010
0000
,
0101
0000
0000
0001
0010
0000
0001
0000
0100
0000
1000
0000
0010
0000
0010
0000
,
1100
0000
0000
0100
0001
0000
0100
0000
1000
0000
0000
0000
0101
0000
1000
0000
,
0110
0000
1001
0010
0100
0010
0001
0000
,
1001
0000
0000
0001
0010
0000
0001
0000
1000
0000
0100
0000
0010
0000
0010
0000
,
1100
0000
0000
1000
0010
0000
1000
0000
0100
0000
0001
0000
0010
0000
0100
0000
,
0110
0000
0000
0010
0001
0000
0010
0000
0100
0000
0000
0000
0011
0000
1000
0000
,
0110
0000
1100
0010
0100
0010
0101
0000
,
0011
0000
0000
1000
0100
0000
1000
0000
0010
0000
0100
0000
1010
0000
0100
0000
,
1100
0000
0000
0001
0010
0000
0001
0000
0100
0000
0100
0000
0011
0000
0000
0000
,
1010
0000
0001
0100
1100
0000
0001
0000
,
1000
0100
0010
0001
,
0200
0000
0000
0000
,
1301
0000
0110
0001
1000
0001
1010
0100
,
0110
0000
0001
0100
0100
0000
0001
0000
,
1100
0000
0100
0010
1000
0000
1100
0000
,
0110
0000
1001
0010
0010
0000
1100
0100
,
0011
0000
0100
0001
1000
0000
0110
1000
,
0110
0000
0001
0010
0100
0000
0011
0000
,
1100
0000
0001
0100
1000
0000
0011
0001
,
1010
0000
1001
0100
1000
0010
1010
0100
,
1001
0000
0110
0001
1000
0001
1010
0100
,
1010
0000
0001
0001
1000
0000
0001
0000
,
1100
0000
0010
0100
1000
0000
0110
0000
,
1010
0000
0101
1000
1000
0100
0001
0000
,
0110
0000
0100
0010
1000
0000
1100
0100
,
1010
0000
0010
0001
0100
0000
0110
1000
,
1100
0000
0010
0001
1000
0000
0011
0010
,
0110
0000
1001
0100
0010
0000
0011
0000
,
1001
0000
0000
0010
0100
0000
0010
0000
0100
0000
1000
0000
0110
0000
0010
0000
,
1001
0000
0000
0100
1000
0000
0100
0000
1000
0000
1000
0000
1010
0000
0000
0000
,
0101
0000
0100
0010
0110
0000
0100
0000
,
1000
0100
0010
0001
0010
0100
1000
0100
,
2002
0000
0000
0000
,
0000
0000
0000
0000
,
3003
0000
0000
0000
;

//---------------dance-single - Schroeder----------------
#NOTES:
     dance-single:
     Schroeder:
     Hard:
     11:
     0.845,1.000,1.000,0.178,0.391,607.000,201.000,25.000,0.000,10.000:
0000
0000
0000
0000
,
0000
0000
0000
0000
,
0000
0000
0000
0000
,
0000
0000
0000
0000
,
0000
0000
0000
0000
,
0011
0000
0100
0011
0000
0010
1000
0100
,
1010
0000
0000
1001
0000
0000
0000
0000
,
0110
0000
0000
0101
0000
0000
0010
0000
,
1100
0000
1000
1010
0000
0000
1000
0100
,
0011
0000
0000
0000
0200
0300
0000
0000
0000
0000
0000
0000
0011
0000
0000
0000
0100
0000
0000
0000
2000
3000
0000
0000
0110
0000
0000
0000
1100
0000
0000
0000
,
0011
0000
0000
0000
0020
0030
0000
0000
0000
0000
0000
0000
0011
0000
0000
0000
0010
0000
0000
0000
0200
0300
0000
0000
1010
0000
0000
0000
0000
0000
0000
0000
,
1100
0000
0000
0000
0020
0030
0000
0000
0000
0000
0000
0000
1100
0000
0000
0000
0001
0000
0000
0000
0200
0300
0000
0000
1010
0000
0000
0000
0110
0000
0000
0000
,
0001
0000
0010
0000
0200
0300
1000
0000
0100
0000
0010
0000
0001
0000
0010
0000
0100
0000
1000
0000
0200
0300
0010
0000
0001
0000
0010
0000
0100
0000
0010
0000
,
1001
0000
0011
1001
0000
0101
1001
0100
,
0010
0000
0001
1001
0000
1000
0001
0000
,
0110
0000
0001
0101
0000
0100
0011
0000
,
0110
0000
1001
0110
0000
0100
0101
0010
,
1001
0000
0010
1001
0000
1000
0101
1000
,
0110
0000
0001
0110
0000
0100
1001
0000
,
1100
0000
0001
1100
0000
1000
0011
0001
,
1010
0000
0100
0000
0101
0000
1010
0100
0010
0000
1000
0000
0010
0000
1000
0000
,
0110
0002
0013
0100
1000
0102
1003
0100
,
0010
0002
0013
1000
0100
0020
0030
0000
,
1000
0002
0013
0100
1000
0002
1003
0100
,
1000
0100
0010
0001
1000
0100
0010
0001
0100
0010
1000
0001
0100
0010
1000
0001
,
0110
0000
0101
1010
0000
1010
0101
0110
,
1001
0000
0000
0100
0011
0000
1010
0000
0100
0000
1000
0000
0101
0000
0010
0000
,
1002
0000
0110
1010
0000
1000
1103
0000
,
0110
0000
0000
0010
0001
0000
1100
0000
0100
1000
0001
0000
0010
0001
0100
0010
,
1001
0000
0010
0100
0001
0000
1100
0000
0100
0000
0110
0000
1001
0000
0100
0000
,
1010
0000
0000
0100
0001
0000
1100
0000
0010
0000
1000
0000
1001
0000
0010
0000
,
0101
0000
0000
0100
1010
0000
0101
0000
1000
0000
0100
0000
0011
0000
0010
0000
,
1100
0000
0000
0100
0011
0000
1010
0000
0010
0000
1000
0000
0101
0000
0000
0000
,
1001
0000
0000
0010
0101
0000
1100
0000
0000
0000
1100
0000
0101
0000
0010
0000
,
1001
0001
0010
1100
0000
1100
0011
0000
,
0110
0000
0001
1100
1000
0100
0001
0000
,
0010
0000
0000
0000
0000
0000
0000
0000
0100
0010
1000
0000
0010
0000
0100
0000
,
1001
0000
0000
0010
1100
0000
0100
0010
,
1001
0000
0000
0010
1100
0000
1010
0100
,
0011
0000
0000
0100
1001
0000
0100
0000
,
1100
0000
0000
0100
0011
0000
0110
0000
,
1001
0000
0001
0100
1000
0000
0011
0000
,
1100
0000
0100
0010
1000
0000
0101
0000
,
1100
0000
0010
0000
0001
0000
0010
0000
1000
0010
0100
0001
1000
0010
0100
0001
,
1000
0100
0010
0001
0010
0100
1000
0100
0010
0001
0010
0100
1000
0100
0010
0001
,
0110
0000
1001
0100
1000
0100
0011
1001
,
0201
0000
0000
0001
0010
0000
0310
0000
0100
0000
0010
0100
1010
0000
0100
0000
,
1010
0000
0000
0010
0001
0000
0010
0000
1000
0010
0000
0000
0011
0000
0010
0000
,
1100
0000
0000
0000
1001
0000
0100
0000
1000
0010
0100
0010
0001
0010
0100
0010
,
1001
0000
0000
1000
0010
0000
1000
0000
0100
1000
0100
1000
0010
0000
0010
0000
,
0101
0000
0000
0001
0010
0000
0001
0000
0100
0010
1000
0100
0010
0000
0010
0000
,
1100
0000
0000
0100
0001
0000
0100
0000
1000
0100
1000
0010
0101
0000
1000
0000
,
0110
0000
0100
0000
1001
0100
0010
0000
0100
1000
0010
0100
0001
0000
0000
0000
,
1001
0000
0000
0001
0010
0000
0001
0000
1000
0010
0100
0001
0010
0000
0010
0000
,
1100
0000
0000
1000
0010
0000
1000
0000
0100
0010
0001
0100
0010
0000
0100
0000
,
0110
0000
0000
0010
0001
0000
0010
0000
0100
1000
0100
1000
0011
0000
1000
0000
,
0102
0000
1100
0010
2103
0010
3201
0000
,
0311
0000
0000
1000
0100
0000
1000
0000
0010
0001
0100
0001
1010
0000
0100
0000
,
1100
0000
0000
0001
0010
0000
0001
0000
0100
1000
0100
1000
0011
0000
0000
0000
,
1010
0000
0001
1100
1200
0000
0001
0000
,
1300
0100
0010
0001
1000
0100
0010
0001
0100
0010
1000
0001
0100
0010
1000
0001
,
0200
0000
0000
0000
0010
0000
0000
0001
0010
0000
1000
0000
1000
0010
0001
0010
,
1301
1000
0110
0001
1000
0001
1010
0100
,
0110
0000
0000
1000
0001
0000
1100
0000
0100
1000
0000
0000
0001
0000
0000
0000
,
1100
0000
0100
0010
1000
0000
1100
0000
,
0110
0000
1001
0010
0010
0000
1100
0100
,
0011
0000
0100
0001
1000
0000
0110
1000
,
0110
0000
0001
0010
0100
0000
0011
0000
,
1100
0000
0001
0100
1000
0000
0011
0001
,
1010
0000
0000
0000
1001
0000
0100
0000
1000
0000
0010
0000
1010
0100
0010
0100
,
1001
0001
0110
0011
1000
0011
1010
0101
,
1010
0100
0001
0101
1000
0100
0001
0100
,
1100
1000
0010
0101
1000
1000
0110
1000
,
1020
0000
0101
1000
2030
0000
0100
0000
,
3110
0100
1000
0110
1000
0100
1100
0100
,
1010
0001
0010
0011
0100
0001
0110
1001
,
1100
0001
0010
0011
1000
0001
0011
0011
,
0110
0000
0010
0100
1001
0000
0110
0000
0010
0100
1010
0000
0011
0100
0011
0100
,
1001
0000
1000
0010
0100
0000
1010
0000
0100
0000
1100
0000
0110
0000
1010
0000
,
1001
0000
0001
0100
1000
0000
0101
0000
1000
0000
1001
0000
1010
0000
0001
0000
,
0101
1000
0010
1000
0100
0001
0110
1000
0110
0000
1001
0010
0100
0010
1001
0010
,
1000
0100
0001
0010
0101
0010
0001
0100
1000
0000
1100
0010
0100
0010
0101
0010
,
2002
0000
0000
0000
,
0000
0000
0000
0000
,
3003
0000
0000
0000
;

//---------------dance-single - Linus van Pelt----------------
#NOTES:
     dance-single:
     Linus van Pelt:
     Challenge:
     12:
     0.877,1.000,1.000,0.206,0.408,612.000,221.000,29.000,0.000,13.000:
0000
0000
0000
0000
,
0000
0000
0000
0000
,
0000
0000
0000
0000
,
0000
0000
0000
0000
,
0000
0000
0000
0000
,
0011
0000
0100
0011
0000
0010
1000
0100
,
1010
0000
0000
1001
0000
0000
0000
0000
,
0110
0000
0000
0101
0000
0000
0010
0000
,
1100
0000
1000
1010
0000
0000
1000
0100
,
0011
0000
0000
0000
0200
0300
0000
0000
0000
0000
0000
0000
0011
0000
0000
0000
0100
0000
0000
0000
2000
3000
0000
0000
0110
0000
0000
0000
1100
0000
0000
0000
,
0011
0000
0000
0000
0020
0030
0000
0000
0000
0000
0000
0000
0011
0000
0000
0000
0010
0000
0000
0000
0200
0300
0000
0000
1010
0000
0000
0000
0000
0000
0000
0000
,
1100
0000
0000
0000
0020
0030
0000
0000
0000
0000
0000
0000
1100
0000
0000
0000
0001
0000
0000
0000
0200
0300
0000
0000
1010
0000
0000
0000
0110
0000
0000
0000
,
0001
0000
0010
0000
0200
0300
1000
0000
0100
0000
0010
0000
0001
0000
0010
0000
0100
0000
1000
0000
0201
0300
0010
0000
1001
0000
0110
0000
1000
0000
0110
0000
,
1001
0000
0011
1001
0000
0101
1001
0100
,
0010
0000
0001
1001
0000
1000
0001
0000
,
0110
0000
0001
0101
0000
0100
0011
0000
,
0110
0000
1001
0110
0000
0100
0101
0010
,
1001
0000
0010
1001
0000
1000
0101
1000
,
0110
0000
0001
0110
0000
0100
1001
0000
,
1100
0000
0001
1100
0000
1000
0011
0001
,
1010
0000
0100
0000
0101
0000
1010
0100
0010
0000
1000
0000
0010
0000
1000
0000
,
0110
0002
0013
0100
1000
0102
1003
0100
,
0010
0002
0013
1000
0100
0020
0030
0000
,
1000
0002
0013
0100
1000
0002
1003
0100
,
2000
0100
0010
0001
0010
0100
0010
0001
0100
0010
0001
0010
0100
0010
0001
0010
,
3101
0000
0101
1010
0000
1010
0101
0110
,
1001
0000
0000
0100
0011
0000
1010
0000
0100
0000
1000
0000
0101
0000
0010
0000
,
1002
0000
0110
1010
0000
1000
1103
0000
,
0110
0000
0000
0010
0001
0000
1100
0000
0100
1000
0001
0000
0010
0001
0100
0010
,
1001
0000
0010
0100
0001
0000
1100
0000
0100
0000
0110
0000
1001
0000
0100
0000
,
1010
0000
0000
0100
0001
0000
1100
0000
0010
0000
1000
0000
1001
0000
0010
0000
,
0101
0000
0000
0100
1010
0000
0101
0000
1000
0000
0100
0000
0011
0000
0010
0000
,
1100
0000
0000
0100
0011
0000
1010
0000
0010
0000
1000
0000
0101
0000
0000
0000
,
1001
0000
0000
0010
0101
0000
1100
0000
0000
0000
1100
0000
0101
0000
0010
0000
,
1001
0001
0010
1100
0000
1100
0011
0000
,
0110
0000
0001
1100
1000
0100
0001
0000
,
0012
0000
0000
0000
0000
0000
0000
0000
0100
0010
1000
0000
0010
0000
0100
0000
,
1013
0000
0000
0010
1100
0000
0100
0010
,
1001
0000
0000
0010
1100
0000
1010
0100
,
0011
0000
0000
0100
1001
0000
0100
0000
,
1100
0000
0000
0100
0011
0000
0110
0000
,
1001
0000
0001
0100
1000
0000
0011
0000
,
1100
0000
0100
0010
1000
0000
0101
0000
,
1100
0000
0010
0000
0001
0000
0010
0000
1000
0010
0100
0001
1100
0010
1100
0001
,
1010
0100
0010
0101
0010
0100
1010
0100
1010
0001
0010
0100
1010
0100
1010
0001
,
0110
0000
1001
0100
1000
0100
0011
1001
,
0201
0000
0000
0001
0010
0000
0310
0000
0100
0000
0010
0100
1010
0000
0100
0000
,
1010
0000
0000
0010
0001
0000
0010
0000
1000
0010
0000
0000
0011
0000
0010
0000
,
1100
0000
0000
0000
0000
0000
0000
0000
0100
0000
0010
0000
1001
0000
0100
0000
0010
0000
0100
0000
0010
0000
0100
0000
1000
0000
0000
0010
0000
0000
0100
0000
0000
0010
0000
0000
0001
0000
0000
0010
0000
0000
0100
0000
0000
0010
0000
0000
,
1001
0000
0000
1000
0010
0000
1000
0000
0100
1000
0100
1000
0010
0000
0010
0000
,
0101
0000
0000
0001
0010
0000
0001
0000
0100
0010
1000
0100
0010
0000
0010
0000
,
1100
0000
0000
0100
0001
0000
0100
0000
1000
0100
1000
0010
0101
0000
1000
0000
,
0110
0000
0100
0000
1001
0100
0010
0000
0100
1000
0010
0100
0001
0000
0000
0000
,
1001
0000
0000
0001
0010
0000
0001
0000
1000
0010
0100
0001
0010
0000
0010
0000
,
1100
0000
0000
1000
0010
0000
1000
0000
0100
0010
0001
0100
0010
0000
0100
0000
,
0110
0000
0000
0010
0001
0000
0010
0000
0100
1000
0100
1000
0011
0000
1000
0000
,
0102
0000
1100
0010
2103
0010
3201
0000
,
0311
0000
0000
1000
0100
0000
1000
0000
0010
0001
0100
0001
1010
0000
0100
0000
,
1100
0000
0000
0001
0010
0000
0001
0000
0100
1000
0100
1000
0011
0000
0000
0000
,
1010
0000
0001
1100
1200
0000
0001
0000
,
1300
0100
0010
0001
1000
0100
0010
1001
0110
0001
1010
0001
1100
0011
1100
0011
,
0200
0000
0000
0000
0010
0000
0000
0001
0010
0000
1000
0000
1000
0010
0001
0010
,
1301
1000
0110
0001
1000
0001
1010
0100
,
0110
0000
0000
1000
0001
0000
1100
0000
0100
1000
0000
0000
0001
0000
0000
0000
,
1100
0000
0100
0010
1000
0000
1100
0000
,
0110
0000
1001
0010
0010
0000
1100
0100
,
0011
0000
0100
0001
1000
0000
0110
1000
,
0110
0000
0001
0010
0100
0000
0011
0000
,
1100
0000
0001
0100
1000
0000
0011
0001
,
1010
0000
0000
0000
1001
0000
0100
0000
1000
0000
0010
0000
1010
0100
0010
0100
,
1001
0001
0110
0011
1000
0011
1010
0101
,
1010
0100
0001
0101
1000
0100
0001
0100
,
1100
1000
0010
0101
1000
1000
0110
1000
,
1020
0000
0101
1000
2030
0000
0100
0000
,
3110
0100
1000
0110
1000
0100
1100
0100
,
1010
0001
0010
0011
0100
0001
0110
1001
,
1100
0001
0010
0011
1000
0001
0011
0011
,
0110
0000
0010
0100
1001
0000
0110
0000
0010
0100
1010
0000
0011
0100
0011
0100
,
1001
0000
1000
0010
0100
0000
1010
0000
0100
0000
1100
0000
0110
0000
1010
0000
,
1001
0000
0001
0100
1000
0000
0101
0000
1000
0000
1001
0000
1010
0000
0001
0000
,
0101
1000
0010
1000
0100
0001
0110
1000
0110
0000
1001
0010
0100
0010
1001
0010
,
1000
0100
0001
0010
0101
0010
0001
0100
1000
0000
1100
0010
0100
0010
0101
0000
,
2222
0000
0000
0000
,
0000
0000
0000
0000
,
3333
0000
0000
0000
;

//---------------dance-single - Linus w/ teh blanket----------------
#NOTES:
     dance-single:
     Linus w/ teh blanket:
     Edit:
     15:
     0.931,1.000,1.000,0.284,0.416,614.000,260.000,40.000,10.000,40.000:
0000
0000
0000
0000
,
0000
0000
0000
0000
,
0000
0000
0000
0000
,
0000
0000
0000
0000
,
0000
0000
0000
0000
,
0011
0000
0100
0011
0000
0010
1000
0100
,
1010
0000
0000
1001
0000
0000
0000
0000
,
0110
0000
0000
0101
0000
0000
0010
0000
,
1100
0000
1000
1010
0000
0000
1000
0100
,
0011
0000
0000
0000
0200
0300
0000
0000
0000
0000
0000
0000
0011
0000
0000
0000
0100
0000
0000
0000
2000
3000
0000
0000
0110
0000
0000
0000
1100
0000
0000
0000
,
0011
0000
0000
0000
0020
0030
0000
0000
0000
0000
0000
0000
0011
0000
0000
0000
0010
0000
0000
0000
0200
0300
0000
0000
1010
0000
0000
0000
0000
0000
0000
0000
,
1100
0000
0000
0000
0020
0030
0000
0000
0000
0000
0000
0000
1100
0000
0000
0000
0001
0000
0000
0000
0200
0300
0000
0000
1010
0000
0000
0000
0110
0000
0000
0000
,
0101
0000
0010
0000
0200
0300
1000
0000
0110
0000
0010
0000
1100
0000
0010
0000
0101
0000
1000
0000
0210
0300
0010
0000
1100
0000
0011
0000
0110
0000
0011
0000
,
1001
0000
0011
1001
0000
0101
1001
0100
,
0010
0000
0001
1001
0000
1000
0001
0000
,
0110
0000
0001
0101
0000
0100
0011
0000
,
0110
0000
1001
0110
0000
0100
0101
0010
,
1001
0000
0010
1001
0000
1000
0101
1000
,
0110
0000
0001
0110
0000
0100
1001
0000
,
1100
0000
0001
1100
0000
1000
0011
0001
,
1010
0000
0100
0000
0101
0000
1010
0010
0100
0000
1000
0000
0010
0000
1000
0000
,
0110
0002
0013
0100
1000
0102
1003
0100
,
0010
0002
0013
1000
0100
0020
0030
0000
,
1000
0002
0013
0100
1000
0002
1003
0100
,
2000
0100
0010
0001
0010
0100
0010
0001
0110
0011
0101
0010
0011
0011
0011
0011
,
3101
0000
0101
1010
0000
1010
0101
0110
,
1001
0000
0000
0100
0011
0000
1010
0000
0100
0000
1000
0000
0101
0000
0010
0000
,
1002
0000
0110
1010
0000
1000
1103
0000
,
0110
0000
0000
0010
0001
0000
1100
0000
0100
1000
0001
0000
0010
0010
0100
0010
,
1001
0000
0010
0100
0001
0000
1100
0000
0100
0000
0110
0000
1001
0000
0100
0000
,
1010
0000
0000
0100
0001
0000
1100
0000
0010
0000
1000
0000
1001
0000
0010
0000
,
0101
0000
0000
0100
1010
0000
0101
0000
1000
0000
0100
0000
0011
0000
0010
0000
,
1100
0000
0000
0100
0011
0000
1010
0000
0010
0000
1000
0000
0101
0000
0000
0000
,
1001
0000
0000
0010
0101
0000
1020
0000
0000
0000
1100
0000
0132
0000
0010
0000
,
1203
0001
0310
2100
0000
0110
3011
0000
,
0120
0000
0001
1130
2000
0100
0001
0000
,
3012
0000
0000
0000
0000
0000
0000
0000
0100
0010
1000
0000
0010
0000
0100
0000
,
2013
0000
0000
0010
0101
0000
3100
0010
,
1002
0000
0000
0010
1100
0000
1013
0100
,
0021
0000
0000
0100
1001
0000
0130
0000
,
2100
0000
0000
0100
0011
0000
3110
0000
,
1001
0000
0001
0100
1000
0000
0011
0000
,
1100
0000
0100
0010
1000
0000
0101
0000
,
1100
0000
0010
0000
0001
0000
0010
0000
1000
0010
0100
0001
1100
0010
1001
0001
,
0110
0100
0010
0110
0010
0100
0110
0100
1100
0001
0010
0100
1100
0100
0110
0001
,
1101
0000
0000
0010
1100
0000
0100
0000
1000
0000
0100
0000
0011
0000
1001
0000
,
0201
0000
0000
0001
0010
0000
0310
0000
0100
0000
0010
0100
1010
0000
0100
0000
,
1010
0000
0000
0010
0001
0000
0010
0000
1000
0010
0000
0000
0011
0000
0010
0000
,
1100
0000
0000
0000
0000
0000
0000
0000
0100
0000
0010
0000
1001
0000
0100
0000
0010
0000
0100
0000
0010
0000
0100
0000
1000
0000
0000
1000
0000
0000
0100
0000
0000
0010
0000
0000
0010
0000
0000
0010
0000
0000
0100
0000
0000
0010
0000
0000
,
1001
0000
0000
1000
0010
0000
1000
0000
0100
0100
1000
0100
0010
0000
0010
0000
,
0101
0000
0000
0001
0010
0000
0001
0000
0010
0010
0100
0010
0100
0000
0010
0000
,
1100
0000
0000
0100
0001
0000
0100
0000
1000
1000
0100
1000
0101
0000
1000
0000
,
0110
0000
0100
0000
1001
0100
0010
0000
0100
0010
0010
0100
0010
0000
0000
0000
,
1001
0000
0000
0001
0010
0000
0001
0000
1000
1000
0100
1000
0010
0000
0010
0000
,
1100
0000
0000
1000
0010
0000
1000
0000
0001
0001
0010
0001
0010
0000
0100
0000
,
0110
0000
0000
0010
0001
0000
0010
0000
0100
0100
1000
0100
0011
0000
1000
0000
,
0102
0000
1100
0010
2103
0010
3201
0000
,
0311
0000
0000
1000
0100
0000
1000
0000
0010
0010
1000
0010
1010
0000
0100
0000
,
1100
0000
0000
0001
0010
0000
0001
0000
0100
0100
1000
0100
0011
0000
0000
0000
,
1020
0000
0001
1130
1200
0000
0001
0000
,
1310
0100
0010
0001
1001
0100
0010
1001
0110
0001
1010
0001
1001
1001
1001
1001
,
0200
0000
0000
0000
0010
0000
0000
0001
0010
0000
1000
0000
1010
1010
1010
1010
,
1301
1000
0110
0001
1000
0001
1010
0100
,
0110
0000
0000
1000
0001
0000
1100
0000
0100
1000
0000
0000
0001
0000
0000
0000
,
1100
0000
0100
0010
1000
0000
1100
0000
,
0110
0000
1001
0010
0010
0000
1100
0100
,
MM11
0000
0100
0001
1000
0000
0110
1000
,
0101
0000
0001
0010
0100
0000
0011
0000
,
1100
0000
0001
0100
1000
0000
0011
0001
,
1010
0000
0000
0000
1MM1
0000
0100
0000
1000
0000
0010
0000
1010
0010
0010
0010
,
1001
0001
M11M
0011
1000
0011
1010
0101
,
1010
0100
0001
0101
1000
0100
0001
0100
,
1100
1000
0010
0101
1000
1000
0110
1000
,
1020
0000
0101
1000
2030
0000
0100
0000
,
311M
0100
1000
0110
1000
0100
1100
0100
,
1010
0001
0010
0011
0100
0001
0110
1001
,
1100
0001
0010
0011
1000
0001
0011
0101
,
0110
0000
0001
0001
1001
0000
0110
0000
0010
0010
1010
0000
0011
0011
0011
0011
,
1M01
0000
1000
0010
0100
0000
1010
0000
0100
0000
1100
0000
0110
0000
1010
0000
,
1001
0000
0001
0100
10MM
0000
0101
0000
1000
0000
1001
0000
1010
0000
0001
0000
,
0101
1001
0010
1001
1100
1001
0110
1001
1100
0000
1001
0011
0011
1100
0011
0011
,
1100
0011
0001
0011
0110
1001
0001
1001
1001
0000
1100
0101
0101
0101
0101
0101
,
2222
0000
0000
0000
,
0000
0000
0000
0000
,
3333
0000
0000
0000
;

//---------------dance-single - Peppermint Patty----------------
#NOTES:
     dance-single:
     Peppermint Patty:
     Beginner:
     23:
     1.000,1.000,1.000,0.313,0.909,794.000,317.000,44.000,30.000,55.000:
0000
0000
0000
0000
0000
0000
0000
0000
0000
0000
0000
0000
0000
0000
0000
0000
0000
0000
0000
0000
0000
0000
0000
0100
,
0010
0000
0000
0000
0000
0000
1000
0000
0000
0000
0000
0000
0001
0000
0000
0000
0000
0000
1000
0000
0000
0000
0000
0000
0000
0110
0000
0000
0000
0000
0000
0000
,
0000
0000
0000
0000
0000
0000
0000
0000
0000
0000
0000
0000
0000
0000
0000
0000
0000
0000
0000
0000
0000
0000
0000
0000
0000
0000
0000
0000
0000
0000
0000
0000
0000
0000
0000
0000
0000
0000
0000
0000
0000
0000
1000
0000
0000
0000
0000
0000
0000
0000
0000
0000
0000
0000
0000
0000
0100
0000
0000
0000
0000
0000
0000
0000
0000
0000
0000
0000
0000
0000
0000
0000
0000
0000
0000
0000
0000
0000
0000
0000
0000
0000
0000
0000
0001
0000
0000
0000
0000
0000
0000
0000
0000
0000
0000
0000
0000
0000
0000
0000
0000
0000
0000
0000
0000
0000
0000
0000
0000
0000
0000
0000
0000
0000
0000
0000
0000
0000
0000
0000
0000
0000
0000
0000
0000
0000
0000
0000
0000
0000
0000
0000
0000
0000
0000
0000
0000
0000
0000
0000
0000
0000
0000
0000
0000
0000
0000
0000
0000
0000
0000
0000
0000
0000
0000
0000
0000
0000
0000
0000
0000
0000
0000
0000
0000
0000
0000
0000
0000
0000
0000
0000
0000
0000
0000
0000
0000
0000
0000
0000
0000
0000
0000
0000
0000
0000
0000
0000
0000
0000
0000
0000
,
1000
0100
1000
0100
1000
0100
0010
0001
0010
0001
0010
0001
1000
0100
1000
0100
1000
0100
0010
0001
0010
0001
0010
0001
1000
0001
1000
0001
1000
0001
1000
0001
,
1000
0001
1000
0001
1000
0001
1000
0001
1000
0001
1000
0001
1000
0001
1000
0001
1000
0001
1000
0001
1000
0001
1000
0001
0100
0010
0100
0010
0100
0010
0100
0000
0000
0000
0000
0000
0000
0000
0000
0000
0000
0000
0000
0000
0000
0000
0000
0000
,
0011
0000
0100
0011
0000
0010
1000
0100
,
1010
0000
0000
1001
0000
0000
0000
0000
,
0110
0000
0000
0101
0000
0000
0010
0000
,
1100
0000
1000
1010
0000
0000
1000
0100
,
0011
0000
0000
0000
0200
0300
0000
0000
0000
0000
0000
0000
0011
0000
0000
0000
0100
0000
0000
0000
2000
3000
0000
0000
0110
0000
0000
0000
1100
0000
0000
0000
,
0011
0000
0000
0000
0020
0030
0000
0000
0000
0000
0000
0000
0011
0000
0000
0000
0010
0000
0000
0000
0200
0300
0000
0000
1010
0000
0000
0000
0000
0000
0000
0000
,
1100
0000
0000
0000
0020
0030
0000
0000
0000
0000
0000
0000
1100
0000
0000
0000
0001
0000
0000
0000
0200
0300
0000
0000
1010
0000
0000
0000
0110
0000
0000
0000
,
0101
0000
0001
0000
0001
0000
0001
0000
0110
0000
0010
0000
1010
0000
0010
0000
0101
0000
0100
0000
0210
0300
0100
0000
1100
0000
1010
0000
1010
0000
1001
0000
,
1001
0000
0011
1001
0000
0101
1001
0100
,
0010
0000
0001
1001
0000
1000
0001
0000
,
0110
0000
0001
0101
0000
0100
0011
0000
,
0110
0000
1001
0110
0000
0100
0101
0010
,
1001
0000
0010
1001
0000
1000
0101
1000
,
0110
0000
0001
0110
0000
0100
1001
0000
,
1100
0000
0001
1100
0000
1000
0011
0001
,
1010
0000
0100
0000
0101
0000
1010
0010
0100
0000
1000
0000
0010
0000
1000
0000
,
0110
0002
0013
0100
1000
0102
1003
0100
,
0010
0002
0013
1000
0100
0020
0030
0000
,
1000
0002
0013
0100
1000
0002
1003
0100
,
2000
0100
0010
0001
0010
0100
0010
0001
0110
0011
0101
0010
0011
0011
0011
0011
,
3101
0000
0101
1010
0000
1010
0101
0110
,
1001
0000
0000
0100
0011
0000
1010
0000
0100
0000
1000
0000
0101
0000
0010
0000
,
1002
0000
0110
1010
0000
1000
1103
0000
,
0110
0000
0000
0010
0001
0000
1100
0000
0100
1000
0001
0000
0010
0010
0100
0010
,
1001
0000
0010
0100
0001
0000
1100
0000
0100
0000
0110
0000
1001
0000
0100
0000
,
1010
0000
0000
0100
0001
0000
1100
0000
0010
0000
1000
0000
1001
0000
0010
0000
,
0101
0000
0000
0100
1010
0000
0101
0000
1000
0000
0100
0000
0011
0000
0010
0000
,
1100
0000
0000
0100
0011
0000
1010
0000
0010
0000
1000
0000
0101
0000
0000
0000
,
1001
0000
0000
0010
0101
0000
1020
0000
0000
0000
1100
0000
0132
0000
0010
0000
,
1203
0001
0310
2100
0000
0110
3011
0000
,
0120
0000
0001
1130
2000
0100
0001
0000
,
3012
0000
0000
0000
0000
0000
0000
0000
1000
1000
1000
0000
0010
0000
0100
0000
,
2013
0000
0000
0010
0101
0000
3100
0010
,
1002
0000
0000
0010
1100
0000
1013
0100
,
0021
0000
0000
0100
1001
0000
0130
0000
,
2100
0000
0000
0100
0011
0000
3110
0000
,
1110
0010
0101
0110
1100
0010
0111
0010
,
1101
0010
0101
0011
1010
0001
0111
0001
,
1011
0000
0010
0000
0001
0000
0010
0000
0010
0010
0010
0010
0110
0010
0011
0010
,
1110
0100
0010
1110
0010
0100
1110
0100
1111
0001
0010
0100
1100
0100
0110
0001
,
2222
0000
3333
0010
1100
0000
0110
0001
1000
0000
0110
0000
0011
0000
1001
0000
,
0201
0000
0000
0001
0010
0000
0310
0000
0100
0000
0010
0100
1010
0000
0100
0000
,
1010
0000
0000
0010
1001
0000
0010
0101
1000
0010
1100
0000
0011
0000
0110
0000
,
1100
0000
0000
0000
0000
0000
0000
0000
0100
0000
0100
0000
0101
0000
0100
0000
0100
0000
0100
0000
0100
0000
0100
0000
1000
0000
0000
1000
0000
0000
0100
0000
0000
0010
0000
0000
0010
0000
0000
0010
0000
0000
0100
0000
0000
0010
0000
0000
,
1001
0000
0000
1000
0010
0000
1000
0000
0100
0100
1000
0100
0010
0000
0010
0000
,
0101
0000
0000
0001
0010
0000
0001
0000
0010
0010
0100
0010
0100
0000
0010
0000
,
1100
0000
0010
0100
0001
0010
0100
0000
1000
1000
0100
1000
0101
0000
1000
0000
,
0110
0000
0100
0000
1001
0100
0010
0000
0100
0010
0010
0100
0010
0000
0000
0000
,
1001
0000
0000
0001
0010
0000
0001
0000
1000
1000
0100
1000
0010
0000
0010
0000
,
1100
0000
0000
1000
0010
0000
1000
0000
0001
0001
0010
0001
0010
0000
0100
0000
,
0110
0000
0000
0010
0001
0000
0010
0000
0100
0100
1000
0100
0011
0000
1000
0000
,
0102
0000
1100
0010
2103
0010
3201
0000
,
0311
0000
0000
1000
0100
0000
1000
0000
0010
0010
1000
0010
1010
0000
0100
0000
,
1100
0000
0000
0001
0010
0000
0001
0000
0100
0100
1000
0100
0011
0000
0000
0000
,
1020
0000
0001
1130
1200
0000
0001
0000
,
1310
0100
0010
0001
1001
0100
0010
1001
0110
0001
1010
0001
1001
1001
1001
1001
,
0200
0000
0000
0000
0010
0000
0000
0001
0010
0000
1000
0000
1010
1010
1010
1010
,
1301
1000
1000
0000
0110
0100
0101
0000
1010
0010
0011
0000
1010
0010
0110
0000
,
0110
0100
0100
1000
0101
0100
1100
0000
0110
1010
0010
0000
0101
0100
0100
0000
,
1100
1000
1000
0000
0100
0100
0110
0000
1010
0010
0010
0000
1100
0100
0100
0000
,
0110
0010
0010
0000
1001
1000
1010
0000
0110
0100
0100
0000
1100
0100
0100
0000
,
MM11
0001
0001
0000
0110
0010
0011
0000
1100
0100
0100
0000
0110
0010
1010
0000
,
0101
0001
0001
0000
0101
0100
0110
0000
1100
1000
1000
0000
0011
0010
0010
0000
,
1100
1000
1000
0000
0001
0001
0101
0000
1000
1000
1000
0000
0011
0001
0001
0000
,
1010
1000
1000
0000
1MM1
0001
0101
0000
1000
1000
1010
0000
1010
0010
0010
0010
,
1001
0001
0001
0000
M11M
0010
0011
0000
1000
1000
0011
0000
1010
0010
0101
0000
,
1010
1000
0100
0000
0001
0001
0101
0000
1000
1000
0100
0000
0001
0001
0100
0000
,
1100
1000
1000
0000
0010
0010
0101
0000
1000
1000
1000
0000
0110
0010
1000
0000
,
1020
1000
1000
0000
0101
0100
1000
0000
2130
0100
0100
0000
0100
0100
0100
0000
,
311M
0010
0100
0000
1000
1000
0110
0000
1000
1000
0100
0000
1100
0100
0100
0000
,
1010
0010
0001
0000
0010
0010
0011
0000
0100
0100
0001
0000
0110
0100
1001
0000
,
2100
0100
0001
0000
0010
0010
0011
0000
0001
0001
0001
0000
0011
0001
0101
0000
,
0110
0010
0001
0001
3101
0100
0110
0000
0010
0010
1010
0000
0011
0011
0011
0011
,
1M01
0010
0000
0000
0000
0000
0000
0000
1000
0000
0000
0000
0010
0000
0000
0000
0100
0000
0000
0000
0000
0000
0000
0000
1010
0000
0000
0000
0000
0000
0000
0000
0100
0000
0000
0000
0000
0000
0000
0000
1100
0000
0000
0000
0000
0000
0000
0000
0110
0000
0000
0000
0000
0000
0000
0000
1010
0000
0000
0000
0000
0000
0000
0000
,
1001
0110
0000
0000
0000
0000
0000
0000
0001
0000
0000
0000
0100
0000
0000
0000
11MM
0000
0000
0000
0000
0000
0000
0000
0101
0000
0000
0000
0000
0000
0000
0000
1000
0000
0000
0000
0000
0000
0000
0000
1001
0000
0000
0000
0000
0000
0000
0000
1010
0000
0000
0000
0000
0000
0000
0000
0001
0000
0000
0000
0000
0000
0000
0000
,
0101
0011
0101
0110
1010
0110
1100
0110
1100
0101
0011
0101
0110
1010
0110
0011
0110
0000
MMMM
0000
1001
0000
0011
0000
0011
0000
1100
0000
0011
0000
0011
0000
,
1100
1010
1100
1010
0101
0110
0101
0110
1100
0110
1100
0101
0011
0101
1100
1010
1100
0000
MMMM
0000
11MM
0000
M1M1
0000
M1M1
0000
M1M1
0000
M1M1
0000
M1M1
0000
,
2222
0000
0000
0000
,
0000
0000
0000
0000
,
3333
0000
0000
0000
;
