#TITLE:Chaos;
#SUBTITLE:;
#ARTIST:De-Sire Retunes;
#TITLETRANSLIT:;
#SUBTITLETRANSLIT:;
#ARTISTTRANSLIT:;
#CREDIT:;
#BANNER:Chaos-bn2.png;
#BACKGROUND:Chaos-bg2.png;
#LYRICSPATH:;
#CDTITLE:cdtitle =).png;
#MUSIC:Chaos.mp3;
#OFFSET:-0.097;
#SAMPLESTART:15.654;
#SAMPLELENGTH:11.640;
#SELECTABLE:YES;
#BPMS:0.000=170.000,33.000=339.999,37.500=170.000,40.000=339.999,44.000=170.000,52.500=85.000,52.750=255.000,53.500=170.000,58.000=339.999,64.000=170.000,78.000=339.999,79.500=680.004,80.500=680.005,97.000=170.001,169.500=85.000,170.500=170.001,174.500=85.000,175.500=170.001,183.000=85.001,184.000=170.001,190.000=340.000,192.000=170.001,196.000=340.000,200.000=170.001,204.000=85.001,206.000=170.001,209.500=340.000,213.500=170.001,217.500=340.001,221.500=170.002,227.000=255.002,229.000=85.012,230.000=170.002;
#STOPS:33.000=0.260
,34.500=0.260
,36.000=0.260
,40.000=0.130
,40.750=0.130
,41.500=0.040
,41.750=0.040
,42.000=0.130
,42.750=0.130
,43.500=0.095
,58.000=0.135
,58.750=0.130
,59.500=0.090
,60.000=0.130
,60.750=0.130
,61.500=0.040
,61.750=0.040
,62.000=0.130
,62.750=0.130
,63.500=0.090
,78.000=0.150
,78.750=0.130
,97.000=0.040
,174.500=0.155
,183.000=0.030
,190.000=0.180
,191.000=0.180
,196.000=0.180
,197.000=0.180
,198.000=0.180
,199.000=0.180
,204.000=0.140
,209.500=0.180
,210.500=0.180
,211.500=0.180
,212.500=0.180
,217.500=0.180
,218.500=0.180
,219.500=0.180
,220.500=0.180
,229.000=0.040
;
#BGCHANGES:;
// cache tags:
#FIRSTBEAT:8.000;
#LASTBEAT:265.500;
#SONGFILENAME:Songs/KBU/Chaos (~Zero~)/Chaos.sm;
#HASMUSIC:1;
#HASBANNER:1;
#MUSICLENGTH:95.746;
// end cache tags

//---------------dance-single - ----------------
#NOTES:
     dance-single:
     :
     Challenge:
     10:
     0.952,1.000,1.000,0.272,0.428,448.000,164.000,26.000,34.000,0.000:
0000
0000
0000
0000
,
0000
0000
0000
0000
,
1001
0100
0011
0100
1001
0110
0001
1100
,
0000
0000
0000
0000
0011
0000
0100
0010
1000
0000
0011
0000
0100
0000
1001
0000
,
0011
0100
0010
0001
1100
0110
1000
0011
,
1001
0100
0010
1100
0011
0100
0000
1001
,
0101
0010
1000
0010
0101
1100
0001
0110
,
1000
0011
0100
0001
1100
0001
0010
0101
,
1001
0000
1010
0000
0000
0101
0000
0000
,
1001
0000
0000
0110
0000
0000
0000
0000
,
1001
0000
0000
0110
0000
0000
1010
0101
1010
0000
0000
0110
0000
0000
1001
0000
,
1010
0000
0100
0000
1001
0000
0010
0000
0100
0000
1000
0000
0010
0100
0001
0010
,
1100
0000
0010
0000
1001
0000
0100
0000
1010
0000
0001
0000
0010
1000
0100
0010
,
1001
0200
0000
0300
0000
0110
0000
0001
,
1010
0000
0100
0000
0000
0000
1000
0000
0011
0000
0000
0101
0000
0000
1100
0000
,
1001
0000
0000
1100
0000
0000
1001
0110
1001
0000
0000
0011
0000
0000
1001
0000
,
0110
0000
1000
0000
0011
0000
0100
0000
1001
0000
0010
0000
0100
0001
1000
0001
,
0110
0000
1000
0000
0011
0000
0100
0000
1001
0000
0010
0000
0100
0010
0001
1000
,
0110
0000
1001
0000
0000
0000
0010
0000
0000
0000
0210
0000
0000
0300
0011
0000
,
1010
0000
0100
0000
0000
0000
1000
0000
0110
0000
0000
0011
0000
0000
1001
0000
,
0000
0M00
00M0
0M00
00M0
0M00
00M0
0M00
,
00M0
0M00
00M0
0M00
00M0
0M00
00M0
0M00
,
00M0
0M00
00M0
0M00
00M0
0M00
00M0
0M00
,
00M0
0M00
00M0
0M00
00M0
0M00
00M0
0M00
,
00M0
0M00
00M0
0000
0000
0000
0000
0000
,
0100
0001
1000
0000
0010
0000
0000
0000
0001
0010
0100
0000
0010
0000
0000
0000
0001
0000
0000
0000
1000
0100
0010
0000
0000
0000
0000
0000
0000
0000
0000
0000
,
0100
0000
0001
0000
0110
0000
1000
0010
0100
0000
1000
0000
0011
0100
0001
0100
,
0001
0000
1000
0010
1100
0000
0001
0000
0100
0000
1001
0000
0000
0000
0000
0000
,
0011
0100
1000
0010
1100
0000
0001
0000
0110
0000
1000
0000
0101
0010
0100
0010
,
1000
0100
0010
0000
0001
0000
0000
0000
0010
1000
0100
0000
0001
0000
0000
0000
1000
0000
0000
0000
0010
0100
0001
0000
0000
0000
0000
0000
0000
0000
0000
0000
,
1001
0010
0100
0010
1001
0000
0100
0000
1010
0000
0001
0000
0101
0000
1010
0000
,
1001
0010
0100
1000
0011
0000
0100
0000
1000
0000
0011
0000
0000
0000
0000
0000
,
0110
1000
0001
1000
0110
0000
0001
0000
1100
0000
0010
0000
1001
0010
0001
0010
,
1001
0100
0000
0010
0100
0001
0000
0000
,
0000
0000
0100
0000
0000
0000
0010
0000
1000
0000
0100
0000
0000
0000
0022
0033
,
1001
0110
0000
0000
0010
0100
0000
0000
,
1001
1010
0000
0001
0100
0000
0010
2200
,
3300
1001
0000
0010
0001
1000
0000
0000
,
0000
0010
0100
0000
0010
1000
0100
0022
,
0033
1001
0000
0000
0010
0100
0000
0000
,
0000
0000
0001
0000
0100
0000
0000
0000
0010
0000
1000
0000
0100
0000
0022
0033
,
1001
0000
0010
0000
0200
0300
0010
0000
1001
0000
0100
0000
1001
0000
0010
0000
,
0101
1000
0011
1100
0000
0100
1001
0010
,
0002
0003
1000
0000
0011
0000
0100
0000
1001
0000
0011
0000
0000
0000
1001
0000
,
0200
0300
0011
0000
1100
0000
1001
0000
0010
0000
2200
3300
0011
0000
1001
0000
,
0100
0011
1000
0110
0001
1010
1000
0000
,
1001
0110
1000
0100
0010
1100
0001
0110
,
1000
0000
0011
0000
0100
0000
0010
0000
0001
0000
0000
0000
0002
0003
0000
0000
,
0002
0003
1100
0000
0010
0000
2000
3000
0010
0000
0101
0000
1000
0000
0011
0000
,
0100
0000
0000
0000
0100
0000
0000
0000
0100
0000
0000
0000
0200
0300
0000
0000
,
1001
1100
0010
0001
0100
0011
1000
0101
,
1001
0000
0000
0000
0000
0000
0000
0000
0110
0000
1000
0000
0002
0003
1100
0000
,
1001
0010
0011
1000
0000
1000
0000
1000
,
0000
0000
2000
3000
0000
0000
0110
0000
1001
0000
0100
0000
1000
0000
0001
0000
,
1001
0010
0100
0001
0000
0001
0000
0001
,
0000
0000
0002
0003
0000
0000
0002
0003
1100
0000
0000
0110
0000
1001
0110
0000
,
1100
0000
0011
1001
0000
0000
0020
0000
,
0000
0000
0000
0000
0030
0000
0000
0010
0110
0000
1000
0000
0001
1100
0010
0000
,
1001
0000
0010
0000
1100
0000
0000
0000
0010
0000
1001
0000
0100
1001
0010
0000
,
1100
0000
0010
0000
1001
0000
0000
0000
0011
0000
1010
0000
0100
0011
1000
0000
,
1100
0000
0010
0000
1001
0000
0000
0000
0101
0000
0010
0000
1000
0101
0010
0000
,
1100
0000
0001
0000
0110
0000
1001
0000
0000
0000
0010
0100
0010
1000
0001
0010
,
0100
1000
0100
0010
0001
0100
0001
1000
0010
0100
0001
0100
0010
1000
0100
0010
,
0001
0100
0010
1000
0001
0010
0001
0100
0010
1000
0001
0100
0010
1000
0100
0010
,
0001
1000
0010
0100
0001
0010
0100
1000
0001
0100
0010
0100
0010
0100
0010
0100
,
0010
0100
0010
0100
0010
0100
2002
0000
0000
0000
0000
0000
0000
0000
0000
0000
,
0000
0000
0000
3003
0000
0000
0000
0000
;
