#TITLE:Storming the Burnig Fields;
#SUBTITLE:;
#ARTIST:Dragonforce;
#TITLETRANSLIT:;
#SUBTITLETRANSLIT:;
#ARTISTTRANSLIT:;
#CREDIT:;
#BANNER:(cerdo_claro)Storming the burning fields-bn.jpg;
#BACKGROUND:(cerdo_claro)Storming the burning fields-bg.jpg;
#LYRICSPATH:;
#CDTITLE:!duktitle.png;
#MUSIC:(cerdo_claro)Storming the burning fields.mp3;
#OFFSET:-2.000;
#SAMPLESTART:100.000;
#SAMPLELENGTH:12.000;
#SELECTABLE:YES;
#BPMS:0.000=200.001,888.000=110.001,923.313=200.001;
#STOPS:;
#BGCHANGES:;
// cache tags:
#FIRSTBEAT:0.000;
#LASTBEAT:1012.250;
#SONGFILENAME:Songs/toune 2/(cerdo_claro)Storming the Burning Fields/Dragonforce - 03. storming the burning fields.sm;
#HASMUSIC:1;
#HASBANNER:1;
#MUSICLENGTH:319.791;
// end cache tags

//---------------dance-single - ----------------
#NOTES:
     dance-single:
     :
     Challenge:
     13:
     1.000,1.000,0.904,0.685,1.000,2336.000,289.000,219.000,0.000,7.000:
1100
0000
0000
0000
0000
0000
0000
0000
0000
0011
0000
0000
0000
0000
0000
0000
,
0000
0110
0000
0000
0000
0000
0000
0000
0000
1001
0000
0000
0000
0000
0000
0000
,
0000
0022
0000
0000
0000
0000
0000
0000
0000
0000
0000
0000
0000
0000
0000
0000
,
0000
0000
0000
0000
0000
0000
0000
0000
0030
1100
0000
0000
0000
1103
0000
0000
,
0000
0001
0010
0001
0010
0001
0010
0001
0010
0100
1000
0100
1000
0100
1000
0100
,
0010
0100
0010
0100
0010
0100
0010
0100
0010
0001
0010
0001
0010
0001
0010
0001
,
0010
0001
1000
0001
1000
0001
1000
0001
1000
0100
0001
0100
0001
0100
0001
0100
,
0002
0000
0000
0000
0023
0000
0000
0000
0230
0000
0000
0000
2300
0000
0000
0000
3020
0000
0000
0000
0230
0000
0000
0000
0302
0000
0000
0000
0023
0000
0000
0000
0230
0000
0000
0000
0300
0200
0000
0000
0000
0000
0000
0000
0000
0000
0000
0000
0000
0000
0000
0000
0000
0000
0000
0000
0000
0000
0000
0000
0000
0000
0000
0300
,
0000
0001
0010
0001
0010
0001
0010
0001
1000
0001
1000
0001
1000
0001
1000
0001
,
1000
0100
1000
0100
1000
0100
1000
0100
0010
0100
0010
0100
0010
0100
0010
0100
,
0001
1000
0010
0100
0001
1000
0010
0100
0010
0001
1000
0100
0010
0001
1000
0100
,
0010
0002
0003
0002
0003
0002
0003
0002
0003
0002
0003
0002
0000
0000
0003
0000
,
0000
1000
0100
0010
0001
1000
0100
0010
0001
0100
0010
1000
0001
0100
0010
1000
,
0001
0100
0010
0001
0010
0100
1000
0001
0010
0100
1000
0010
0100
0010
0100
1000
,
0100
0010
0001
0010
0001
0010
0100
1000
0100
1000
0100
0010
0001
0010
0100
1000
,
0100
0010
0002
0000
0000
0000
0000
0000
0000
0000
0000
0000
0000
0000
0003
0000
,
0001
0010
0001
0010
0001
0010
0001
0010
0100
1000
0100
1000
0100
1000
0100
1000
,
0100
0010
0100
0010
0100
0010
0100
0010
0001
0010
0001
0010
0001
0010
0001
0010
,
0001
2000
3000
0200
0300
0020
0030
0002
0003
0100
0000
0000
0001
0000
0001
0000
,
0000
0002
0000
0000
0000
0000
0000
0000
0000
0000
0000
0000
0000
0000
0000
0003
,
0000
0110
0000
0000
0000
1100
0000
0000
0000
0011
0000
0000
0000
1100
0000
0000
,
0010
0010
0010
0010
0010
0010
0010
0010
0010
0010
0010
0010
0010
0010
0000
0100
,
1000
0011
0000
0000
0000
0001
0010
1100
0000
0000
0000
0010
0100
1001
0000
0000
,
0000
0000
0000
0000
,
0101
1000
0001
0010
0001
0100
0010
1000
0100
0010
0001
0100
0010
1000
0001
0010
,
0001
0100
0010
1000
0100
1000
0001
0010
0100
0002
0000
0000
0003
1100
0000
0010
,
0001
1000
0100
1000
0010
0100
0001
0010
0100
1000
0010
0100
0001
1000
0100
1000
,
0010
0100
0001
0010
0001
1000
0100
0010
0100
2000
0000
0000
3000
0011
0000
0001
,
1000
0001
0010
0001
0100
0010
1000
0100
0010
0001
0100
0010
1000
0001
0010
0001
,
0100
0010
1000
0100
1000
0001
0010
0100
1000
0010
0001
0010
0100
0010
1000
0100
,
1000
0001
0010
0100
1000
0010
0001
0010
0100
0010
1000
0100
1000
0001
0010
0100
,
2000
0000
0002
0000
,
3113
0110
1100
0011
0100
0010
0001
0100
,
0010
0001
0100
0001
1000
0100
0010
0100
,
1100
0100
0011
0001
0100
1000
0010
0001
,
1100
0100
0101
1000
0110
0011
0011
0010
,
1000
0100
0110
0100
1100
1000
0010
0100
,
0011
1100
0011
1000
0010
0001
0100
0001
,
0010
1000
0011
0010
0011
1000
0001
0010
,
1100
1000
0011
0001
1100
0010
0001
0000
,
0000
0011
0000
0110
0000
1000
0100
1000
0100
0001
0010
0001
0100
0010
1000
0010
,
0100
0001
0010
0100
1000
0010
0100
0001
0010
0001
0010
0100
1000
0100
0001
0010
,
0100
1000
0010
0100
0001
0010
0100
1000
0010
0100
0001
1000
0010
0100
0001
0010
,
0100
1000
0100
0010
0100
0001
0010
0001
0010
0100
1000
0100
1000
0010
0100
0000
,
0000
0011
0000
1100
0000
0110
0000
0011
0000
1100
0000
0110
0000
1001
0000
1010
,
0000
0101
0000
1100
0000
0011
0000
0110
0000
1100
0000
0000
0000
0001
0000
0000
,
0002
0000
0000
0000
0000
0000
0000
0000
0000
0000
0000
1000
0000
0000
0000
0000
,
0000
2000
0000
0000
0000
0000
0000
0000
0000
0000
0000
0000
0000
0000
3003
0000
,
0001
0010
1100
0011
1100
0001
0100
1000
,
1100
0100
0011
1100
0101
0010
1000
0001
,
0011
1000
0110
0011
1001
0100
0011
0000
,
0011
0000
0000
0000
0000
0000
0000
0000
0011
0000
0000
0000
0100
0000
0000
1000
0000
0000
0001
0100
0000
0000
0000
0000
0000
2002
3003
0000
0000
0000
0000
0000
,
0010
1001
0011
1010
0101
0010
0100
0001
,
1100
0010
0101
0110
1010
0001
1000
0010
,
1010
0100
0101
1010
0110
0001
1100
0000
,
0002
0000
0000
0000
,
1000
0003
0001
0000
0010
0000
0100
0000
,
0011
1000
0010
0100
0001
1000
0010
0100
0001
1000
0010
0100
0001
1000
0010
0100
,
0001
0100
0010
1000
0001
0100
0010
1000
0001
0100
0010
1000
0001
0100
0010
1000
,
0000
0001
1000
0000
0100
0000
0010
0000
,
0001
0000
0000
1100
0000
0000
0000
0000
0011
0000
0000
0000
0010
0000
0000
0000
,
0110
1000
1100
0100
,
0010
0010
0010
0000
,
0001
1000
0001
0100
0001
0010
0100
0001
1000
0010
1000
0010
1000
0100
1000
0010
,
0001
0010
0100
0010
1000
0100
1000
0001
0010
0100
1000
0100
0010
0002
0000
0000
,
0003
1000
0000
0000
0000
0000
0001
0010
0001
1000
0100
1000
0100
0001
0010
0100
,
0010
1000
0100
1000
0001
0010
0100
1000
0100
0010
0001
0100
0010
0100
0001
0010
,
0001
1000
0100
1000
0010
0100
0001
0010
0001
1000
0100
0010
0001
0100
0010
1000
,
0100
1000
0001
0010
0001
0100
0010
0100
0010
1000
0100
1000
0010
0001
0010
0100
,
1000
0010
0001
0100
0010
0100
0001
0010
0001
1000
0100
1000
0010
0100
0010
0001
,
0010
0100
1000
0100
0010
0001
0100
0010
1000
0001
0100
0010
1000
0001
0010
0200
,
0000
0000
0000
0000
0000
0000
0000
0000
0000
0000
0000
0000
0000
0000
0000
0310
,
0010
0010
0010
0010
0010
0010
0010
0010
0010
0010
0010
0010
0010
0010
0000
0000
,
1100
0001
0010
0100
1000
0002
0000
0003
0010
0100
1000
0100
0020
0000
0030
0001
,
0010
0100
1000
0001
0010
0001
0100
0010
1000
0100
1000
0010
0001
0020
0000
0030
,
1000
0100
1000
0100
0001
0010
0001
0010
0100
0010
0001
0010
0100
1000
0100
0000
,
0011
0000
0000
0000
0000
0000
0000
0000
0000
0000
0000
0000
0000
0000
0000
0000
0000
0110
0000
0000
0000
0000
0000
0000
0000
0000
0000
0000
0000
0000
0000
0000
0000
0000
1100
0000
0000
0000
0000
0000
0000
0000
0000
0000
0000
0000
0000
0000
0000
0000
0000
2002
0000
0000
0000
0000
0000
0000
0000
0000
0000
0000
0000
0000
,
3003
0010
0100
0010
1000
0100
1000
0011
0000
0101
0000
1001
0010
0100
0001
1100
,
0000
1001
0000
1100
0010
0100
0001
1010
0000
0101
0000
1010
0000
0101
0000
1010
,
0000
0000
0000
0000
0000
0000
0001
0000
0000
0000
0000
0000
0000
0000
0000
0010
0000
0000
0000
0000
0000
0000
0000
0000
0000
0000
0000
0100
0000
0000
0000
0000
0000
0000
0000
0000
0000
0000
0000
0000
0000
0000
0001
0000
0000
0000
0000
0000
0000
0000
0000
0000
0000
0000
0000
0000
0000
0000
0000
0000
0001
0000
0000
0000
,
0000
0010
0000
0100
0000
1000
0000
0002
0000
0000
0000
0000
0003
0000
0000
0000
,
0000
1001
0000
1001
0000
0000
0000
0100
0000
0000
0000
2000
3000
0020
0030
0200
,
0300
0002
0003
0100
0000
0000
0000
0001
0000
0000
0000
1000
0000
0000
0000
0000
,
0000
1001
0000
1001
0000
0010
1000
0010
0000
0000
0000
0001
0000
0000
0100
0000
,
0010
0000
0001
0000
0000
0000
0002
0000
0003
1000
0000
0100
0000
0011
0000
0000
,
0000
0002
0003
0200
0300
0020
0030
2000
3000
0000
0011
0000
0000
0000
0000
0001
,
0000
0010
0000
0100
0000
0100
0000
0001
0000
1000
0100
0000
0010
0000
0000
0001
,
0000
0001
0100
0010
1000
0001
0100
0011
0000
1000
0010
0100
0001
1100
0000
0010
,
0001
0010
1000
0100
2002
0000
0000
0000
3003
0000
0000
0000
0000
0000
0000
0000
,
1100
0001
0010
0001
0100
0010
1000
0100
1000
0001
0010
0100
1000
0001
0100
0001
,
1000
0010
1000
0001
0010
0100
1000
0010
0002
0000
0000
0000
0003
1100
0000
0000
,
0000
0011
0100
1000
0010
0001
0010
1000
0100
1000
0010
0100
0001
0010
0100
1000
,
0010
0100
1000
0010
0100
0001
0010
0001
2000
0000
0000
3000
0011
0000
0000
0000
,
1000
0100
0010
0001
0100
0010
1000
0100
1000
0010
0100
0010
1000
0100
1000
0001
,
0010
0001
0100
0010
0100
0001
0010
0100
1000
0010
0001
0010
0100
1000
0010
0100
,
0000
1000
0100
0010
0001
1000
0100
0010
0001
1000
0100
0010
0001
1000
0100
0010
,
0001
0010
0100
1000
0001
0010
0100
1000
0010
0200
0000
0000
0000
0000
0300
0000
,
0000
0011
0000
0000
0000
0011
0000
0000
1000
0001
1000
0000
0000
0011
0000
0000
,
0010
0100
0010
0000
0000
1100
0000
0000
0001
1000
0010
0000
0000
0011
0000
0000
,
0001
0100
1000
0000
0000
0101
0000
0000
0010
0100
0010
0000
0000
0011
0000
0000
,
0100
1000
0001
0000
0000
1001
0010
0100
0000
0011
0000
0011
0000
1100
0000
0110
,
0000
1001
0000
2000
0000
3002
0000
0200
0303
0000
0000
0000
0000
1000
0000
0000
,
0001
0000
0000
0000
0000
0100
0001
0000
0000
0000
0000
0000
0100
0000
0000
0000
,
1100
0011
0110
1001
,
2000
0000
0000
0000
0002
0000
0000
3003
,
0000
0001
0010
0001
1000
0100
1000
0010
0100
0010
1000
0100
1000
0001
0010
0001
,
1000
0100
0010
0001
0100
0010
1000
0100
1000
0001
0010
0100
1000
0001
0010
0100
,
0001
0100
0010
1000
0001
0100
0010
1000
0001
0100
0010
1000
0001
1000
0010
0100
,
0001
0000
2000
0000
0000
3002
0000
2000
0000
0000
0000
0000
0000
0000
3003
0000
,
0000
0011
0000
1010
0000
0011
0000
0110
0000
0011
0000
1010
0000
0011
0000
0110
,
0000
0011
0000
1100
0000
0101
0000
1100
0000
0110
0000
1001
0000
0000
0000
0002
,
0000
0000
0000
0000
0000
0000
0000
0000
0000
0000
0000
0000
0000
0000
0000
0003
,
1001
0000
0000
0001
0100
0010
0000
0001
1000
0010
0001
1100
0001
1100
0001
1100
,
0002
0000
1103
0110
0011
1000
0010
0100
,
0011
0001
1100
0011
1100
0010
0001
1000
,
0010
0011
0110
1100
1001
0010
0101
0100
,
0011
1100
0011
0100
0010
1001
1001
1000
,
0010
0011
0100
0011
1100
0010
0100
0000
,
0001
0000
0001
1000
0010
0000
0000
0000
,
0001
0100
0010
1000
,
0020
0000
0000
0000
0000
0000
0000
0030
,
1001
0000
0000
0000
0000
0002
0000
0000
2003
0000
0000
0000
0020
0000
3030
0000
,
0000
0011
0000
0011
0000
0011
0000
0011
0000
0011
0000
0011
0000
0011
0000
0011
,
0000
1001
0000
1001
0000
1001
0000
1001
0000
1001
0000
1001
0000
1001
0000
1001
,
0000
0011
0100
1100
0011
0100
0010
1100
,
0011
0010
1001
0100
0110
0001
1100
0100
,
0011
0100
0010
1000
0101
1000
0011
0010
,
0110
0100
1100
0011
0100
0011
1100
0000
,
0000
0001
1000
0001
1000
0000
0000
0000
0100
0010
0100
0010
0000
0000
0000
0000
,
0001
1000
0100
0001
0010
0001
1000
0100
1000
0010
0100
0010
0100
1000
0100
0010
,
0001
2000
0101
0000
3101
0000
1010
0000
1010
0000
0001
0010
0001
1000
0100
1000
,
0010
0100
0001
0010
0100
1000
0001
0010
0001
1000
0100
1000
0010
0100
0010
0001
,
1000
0001
0100
0010
0100
0001
0010
0100
1000
0010
0100
0001
1000
0100
0010
0001
,
1000
0100
0010
0001
1000
0100
1000
0010
0100
0010
1000
0100
1000
0001
0010
0001
,
0100
0010
0100
0001
0010
0001
1000
0100
0010
0001
0100
0010
1000
0100
1000
0001
,
0100
0001
1000
0010
0100
0001
1000
0001
0100
0010
1000
0100
1000
0001
0010
0001
,
2000
3002
0000
0000
0000
0000
0000
0000
0000
0000
0000
0000
0000
0000
0000
0000
,
1003
0000
0000
0000
0000
0000
0001
0000
0000
0110
0000
0000
0000
0100
0000
0000
,
0000
2002
3003
0000
0000
0000
0000
0000
0000
0011
0000
0000
0000
0001
0000
1000
,
0000
0000
0000
0000
0000
1100
0000
0000
0000
0001
0000
0000
0000
1000
0000
0000
,
0000
0000
0000
0000
0000
0110
0000
0000
0000
0010
0000
0010
0000
1100
0000
0001
,
0000
0000
0000
0000
0100
0000
0000
0000
0000
0000
0000
0000
0000
0000
0000
0000
0100
0000
0000
0000
0001
0000
0000
0000
0000
0000
0000
0000
2000
0000
0000
0000
0000
0000
3200
0000
0000
0000
0000
0000
0000
0320
0000
0000
0000
0000
0000
0000
0000
0000
0032
0000
0000
0000
0000
0000
0000
0203
0000
0000
0000
0000
0000
0000
,
0320
0000
0000
0000
0000
0000
0000
0000
0000
0000
2030
0000
0000
0000
0000
0000
0000
0000
3002
0000
0000
0000
0000
0000
0000
0000
0203
0000
0000
0000
0000
0000
0000
0302
0000
0000
0000
0000
0000
0000
0000
0000
0023
0000
0000
0000
0000
0000
0000
0000
0230
0000
0000
0000
0000
0000
0000
0000
2300
0000
0000
0000
0000
0000
,
0000
3002
0000
0000
0000
0000
0000
0000
0000
2000
0000
0000
0000
0000
0000
0000
,
0000
0000
0000
0000
0000
0000
0000
0000
0000
0000
0000
0000
0000
3003
0000
0000
,
0000
2000
0000
0000
0000
0000
0000
0000
0000
0000
0000
0000
0000
0000
0100
0010
,
0002
0000
0000
0000
0000
0000
0000
0000
0000
0000
0000
0000
0000
3003
0000
0000
,
0101
0000
0110
0000
0011
0000
1000
0010
1000
0001
0010
0001
0100
0010
0100
0001
,
1000
0001
0100
0000
1010
0000
0101
0000
1001
0000
0001
0010
0100
1000
0001
0010
,
0000
1010
0000
0011
0000
1100
0000
0001
0100
0001
1000
0100
1000
0010
0100
0010
,
1000
0100
1000
0000
1001
0000
0110
0000
0011
2000
3000
2000
3000
2000
3000
2000
,
0000
0000
3002
0000
0000
0000
0000
0000
0000
0000
0000
0000
0020
0030
0000
0000
,
0000
0200
0000
0000
0000
0000
0000
0000
0000
0000
0000
0000
0000
0303
0000
0000
,
0000
2000
0000
0000
0000
0000
0000
0200
0300
0000
0000
0000
0000
0020
0030
0000
,
0000
0200
0300
0000
0000
0000
0000
0002
0000
0000
3003
0000
0000
0000
0000
0000
,
0000
0011
0000
1100
0000
0011
0000
0002
0003
2000
3000
0200
0300
0020
0030
0002
,
0003
0200
0300
0002
0003
1100
0000
0011
0000
1100
0000
0000
0000
0000
0000
0000
,
1100
0000
1100
0000
0011
0000
2000
3000
0020
0030
0200
0300
0002
0003
2000
3000
,
0020
0030
0200
0300
0000
0011
0000
0011
0000
1100
0000
0000
0000
0000
0000
0000
,
0000
0001
1000
0001
1000
0001
1000
0001
1000
0010
0100
0010
0100
0010
0100
0010
,
0100
0010
1000
0001
0100
0010
1000
0001
1000
0002
0000
0000
0000
0013
0000
0000
,
0000
0100
0001
0100
0001
0100
0001
0100
0001
1000
0010
1000
0010
1000
0010
1000
,
0100
0010
1000
0001
0100
0010
1000
0001
0000
0002
0000
0000
0000
0000
0013
0000
,
0000
0010
1000
0010
1000
0010
1000
0010
1000
0001
0100
0001
0100
0001
0100
0001
,
0100
0010
0100
0010
0100
0010
0100
0010
0000
0002
0000
0000
0000
0013
0000
0000
,
0000
0100
0001
0100
0001
0100
0001
0100
0001
1000
0010
1000
0010
1000
0010
1000
,
0010
0100
0001
1000
0010
0100
0001
1000
0000
0110
0000
0000
0110
0000
0000
0000
,
0000
2000
0000
0000
0000
0000
0000
0000
0000
0000
0000
0000
0000
0000
0000
0000
,
0000
0000
0000
0000
,
0000
0000
0000
0000
,
0000
0000
0000
3000
,
0100
1001
0000
0000
0000
0000
0000
0000
0000
1001
0000
0000
0000
0000
0000
0000
,
0000
0000
0010
0001
0000
0000
0000
0000
0000
0000
0000
0000
0000
0000
0001
0010
0000
0000
0000
0000
0000
0000
0000
0000
0000
0000
0010
0100
0000
0000
0000
0000
0000
0000
0000
0000
0000
0000
0100
1000
0000
0000
0000
0000
0000
1001
0000
0000
,
0000
0002
0023
0230
,
2300
0000
0000
0000
3000
0000
0000
0001
0010
0001
0000
0000
0000
2000
0000
0000
,
3000
2000
3200
0320
,
0032
0000
0000
0000
0003
0000
0000
1000
0100
1000
0000
0000
0002
0000
0000
0000
,
0003
0000
0000
0000
0000
2000
0000
0000
0000
3020
0000
0000
0000
0230
0000
0000
,
0300
0010
0000
0010
0000
0010
0000
0010
0000
1000
0000
1000
0000
1000
0000
1000
,
0000
0001
0000
0000
0000
0000
0000
0000
0000
0000
0000
0100
0000
0000
0000
0000
0000
0000
0000
0000
0000
0010
0000
0000
0000
0000
0000
0000
0000
1000
0000
0000
0000
0000
0000
0000
0000
0100
0000
0000
0000
0000
0000
0000
0010
0000
0000
0000
0000
0000
0000
0000
0000
0000
0001
0000
0000
0000
0000
0000
0000
0100
0000
0000
,
0000
0000
0000
0000
0010
0000
0000
0000
0000
0000
0000
1000
0000
0000
0000
0000
0000
0000
0100
0000
0000
0000
0000
0000
0000
0000
0002
0000
0000
0000
0000
0000
0000
0000
0000
0000
0000
0000
0000
0000
0000
0000
0000
0000
0000
0000
0000
0000
0000
0000
0000
0000
0000
0000
0000
0000
0003
0000
0000
0000
0000
0000
0000
0000
,
0000
1100
0000
0000
0000
0000
0000
0000
0000
0000
0000
1100
0000
0000
0000
0000
0000
0000
0000
0000
0000
0020
0000
0000
0000
0000
0000
0032
0000
0000
0000
0000
0000
0003
0000
0110
0000
0000
0000
0000
0000
0000
0000
0110
0000
0000
0000
0000
0000
0000
0000
0000
0000
2000
0000
0000
0000
0000
0000
3200
0000
0000
0000
0000
,
0300
0011
0000
0000
0000
0000
0000
0000
0000
0011
0000
0000
0000
0000
0000
0000
0000
0000
0000
0200
0000
0000
0000
0000
0000
0320
0000
0000
0000
0000
0000
0030
0000
1100
0000
0000
0000
0000
0000
0000
0000
1100
0000
0000
0000
0000
0000
0000
0000
0001
0000
0000
0000
0000
0000
0000
0000
0000
0000
0000
0000
0000
0000
0000
,
0000
0001
0010
0001
1000
0100
1000
0010
0100
1000
0100
0010
0001
0100
0010
1000
,
0100
1000
0100
0010
0001
0010
0100
0010
1000
0100
1000
0001
0200
0000
0000
0300
,
0000
0000
0001
0010
0100
1000
0100
0010
0001
0100
0010
1000
0001
0100
0010
1000
,
0001
0000
0000
1000
0000
0000
0100
0000
0000
0010
0000
0000
0001
0000
0000
0010
0000
0000
0100
0000
0000
1000
0000
0000
0100
0000
0000
0010
0000
0000
0100
0000
0000
0001
0000
0000
1000
0000
0000
0010
0000
0000
0100
0000
0000
0000
0001
0000
,
0010
0000
0001
0000
0010
0000
0001
0000
0010
0000
0001
0000
0010
0000
0001
0000
0010
0000
0001
0000
0010
0000
0001
0000
0010
0000
0000
0001
0000
0000
0000
0000
0000
0100
0000
0000
0000
0000
0000
1000
0000
0000
0000
0000
0000
0010
0000
0000
,
0000
0000
0000
0000
1000
0000
0100
0000
1000
0000
0100
0000
1000
0000
0100
0000
1000
0000
0100
0000
1000
0000
0100
0000
1000
0000
0000
0100
0000
0000
0010
0000
0000
0001
0000
0000
0010
0000
0000
0001
0000
0000
0010
0000
0000
0000
0000
0000
,
0000
0011
0000
0011
0000
0000
0000
2000
3000
0200
0300
0020
0030
0002
0003
0000
,
0000
1100
0000
1100
0000
0000
0000
0002
0003
0020
0030
0200
0300
2000
3000
0000
,
0000
1001
0000
1001
0000
0200
0300
0020
0030
2000
3000
0200
0300
0020
0030
0002
,
0003
0200
0300
0020
0032
2003
0000
0000
0000
0000
0000
3000
0000
0000
0000
0000
,
0001
0000
0000
0100
0000
0001
1000
0001
1000
0001
1000
0001
1000
0001
1000
0001
1000
0001
1000
0001
1000
0001
0000
0000
,
1000
0000
0000
0010
0100
0010
0100
0010
0100
0010
0100
0010
0100
0010
0100
0010
0100
0010
0100
0010
0100
0010
0100
0000
,
0000
0001
0010
0100
1000
0100
0010
0001
0100
0010
1000
0001
0100
0010
1000
0001
,
0010
0100
1000
0100
0010
0001
0010
0100
2000
0000
0000
0000
0000
0000
3000
0000
,
0000
0001
0010
0001
0010
0001
0010
0001
1000
0100
1000
0100
1000
0100
1000
0100
,
1000
0000
0100
0000
0010
0000
0100
0000
0001
0000
1000
0000
0010
0000
0100
0000
0001
0000
1000
0000
0010
0000
0100
0000
0010
0000
0000
0002
0000
0000
0000
0000
,
0003
0000
0000
1000
0000
0000
0000
0000
0000
0000
0000
0000
0000
0000
0000
0100
0000
0000
0000
0000
0010
0000
0000
0000
0000
0000
0000
0000
0001
0000
0000
0000
0000
0000
0000
0100
0000
0000
0000
0000
0000
0000
0000
0010
0000
0000
0000
0000
0000
0000
0000
1000
0000
0000
0000
0000
0000
0000
0100
0000
0000
0000
0000
0000
,
0000
0000
0000
2000
0000
0000
3000
0000
0000
0200
0000
0000
0300
0000
0000
0020
0000
0000
0030
0000
0000
0002
0000
0000
0003
0000
0000
0200
0000
0000
0300
0000
0000
0000
0000
0000
0000
0000
0001
0000
1000
0000
0001
0000
1000
0000
0001
0000
,
0000
1000
0100
0010
0001
0010
0100
1000
0100
0001
0100
0010
1000
0001
0100
0010
,
1000
0100
0010
0001
0010
0100
1000
0100
0010
0001
1000
0010
0200
0000
0000
0300
,
0000
1000
0100
0010
0001
0010
0100
1000
0100
0022
0033
0022
0033
0000
0000
0000
,
0000
1000
0100
0010
1000
0100
0010
0001
0000
0000
0001
0010
0100
0001
0010
0100
,
1000
0000
0100
0010
0100
1000
0100
0010
0001
0010
0100
1000
0010
0001
0100
1000
,
0010
2000
0000
0000
0000
3002
0000
0000
0000
0203
0000
0000
0000
0320
0030
0020
,
0030
2000
3000
2000
3000
0000
0002
0000
0000
0000
0000
0000
0000
0203
0000
0000
,
0320
0000
0000
0000
0000
0000
0000
2030
0000
0000
0000
0000
0000
0002
0000
0000
,
0000
3223
0000
0000
0000
0000
0000
0000
0000
0000
0000
0000
0000
0000
0330
0000
,
0001
0010
0100
1000
0100
0010
0001
0010
0100
1000
0100
0010
0001
0010
0100
1000
,
0100
0001
1000
0010
0100
0001
1000
0010
0100
0001
1000
0010
0100
0001
1000
0010
,
0000
0000
0001
0000
0000
0000
0000
0000
0000
0000
0000
0000
1000
0000
0000
0000
0000
0000
0000
0000
0000
0100
0000
0000
0000
0000
0000
0000
0010
0000
0000
0000
0000
0000
0001
0000
0000
0000
0000
0000
0000
0000
0000
0100
0000
0000
0000
0000
0000
0000
0000
0010
0000
0000
0000
0000
0000
0000
1000
0000
0000
0000
0000
0000
,
0000
0000
0100
0000
0000
0000
0000
0000
0000
0000
0000
0000
0000
0000
0000
0000
0000
0000
0000
0011
0000
0000
0000
0000
0000
0000
0000
0000
1001
0000
0000
0000
0000
0000
0000
0000
0000
0000
0000
0000
0000
0000
0000
0000
0000
0000
0000
0000
0000
0000
0000
0000
0000
0000
0000
0000
0000
0000
0000
0000
0000
0000
0000
0000
,
0000
0001
1000
0001
1000
0001
1000
0001
1000
0001
1000
0001
1000
0001
1000
0001
,
0100
0010
0100
0010
0100
0010
0100
0010
0100
0010
0100
0010
0100
0010
0100
0001
,
1100
0000
0000
0000
0000
0001
0000
0000
0000
0000
0000
0000
0000
0000
0010
0000
0000
0000
0000
0000
0100
0000
0000
0000
0000
0000
0000
0000
0000
1000
0000
0000
0000
0000
0000
0000
0001
0000
0000
0000
0000
0000
0000
0000
0000
0100
0000
0000
0000
0000
0000
0000
0000
0010
0000
0000
0000
0000
0000
0000
1000
0000
0000
0000
,
0000
0000
0000
0000
0000
0100
0000
0000
0000
0000
0000
0000
0010
0000
0000
0000
0000
0000
0000
0000
0001
0000
0000
0000
0000
0000
0000
0100
0000
0000
0000
0000
0000
0000
0000
0010
0000
0000
0000
0000
0000
0000
1000
0000
0000
0000
0000
0000
0000
0200
0000
0000
0000
0000
0000
0000
0000
0000
0000
0000
0300
0000
0000
0000
,
0000
0000
1001
0000
0000
0000
0000
0000
0000
0000
1001
0000
0000
0000
0000
0000
0000
0000
1001
0000
0000
0000
0000
0000
0000
0000
0001
0000
0000
0000
0000
0000
0000
0000
0000
0000
0000
0000
0000
0000
0000
0100
0000
0000
0000
0000
0000
0000
0000
0000
0001
0000
0000
0000
0000
0000
0000
0000
0000
0000
0000
0000
0000
0000
,
0000
0000
0001
0000
1000
0000
0010
0000
0100
0000
0001
0000
1000
0000
0010
0000
0100
0000
0001
0000
1000
0000
0010
0000
0100
0000
0001
0000
1000
0000
0010
0000
0100
0000
0001
0000
0200
0000
0000
0000
0000
0000
0000
0000
0000
0300
0000
0000
,
0001
0010
0100
1000
0010
0100
0001
0010
0001
1000
0100
1000
0010
0100
0001
1000
,
0000
0011
0000
0110
0000
1100
0000
1001
0000
0000
0000
0110
0000
0000
0000
0000
,
0000
0000
0000
0000
0002
0000
0000
0000
0000
0000
0000
0000
0000
0000
0000
0000
0203
0000
0000
0000
0000
0000
0000
0000
0000
0000
0000
0000
0320
0000
0000
0000
0000
0000
0000
0000
0000
2030
0000
0000
0000
0000
0000
0000
0000
0000
0000
0000
0000
0000
0000
0000
0000
3000
0000
0000
0000
0000
0000
0000
0000
0000
0000
0000
,
0000
0000
0000
0000
0000
0000
0000
0000
0000
0002
0000
0000
0000
0000
0000
0000
0000
0000
0000
0000
0000
0000
0203
0000
0000
0000
0000
0000
0000
0000
0000
0000
0000
0000
0320
0000
0000
0000
0000
0000
0000
0000
0000
2030
0000
0000
0000
0000
0000
0000
0000
0000
3000
0000
0000
0000
0000
0000
0000
0000
2000
0000
0000
0000
,
0000
0000
0000
0000
0000
0000
0000
0000
0000
0000
0000
0000
0000
0000
3020
0000
0000
0000
0000
0000
0000
0000
0000
0000
0000
0000
0200
0030
0000
0000
0000
0000
0000
0000
0000
0000
0000
0000
0000
0302
0000
0000
0000
0000
0000
0000
0000
0000
2003
0000
0000
0000
0000
0000
0000
0000
0000
0000
0000
0000
0000
0000
3002
0000
,
0000
0000
0000
0000
0000
0000
0000
0000
0000
0000
0203
0000
0000
0000
0000
0000
0000
0000
0000
0000
0020
0300
0000
0000
0000
0000
0000
0000
0000
0000
0000
0000
0000
0000
0000
0000
0000
0000
0000
0000
0000
0000
0000
0000
0000
0000
0000
0000
0000
0000
0000
0000
0000
0000
0000
0000
0000
0000
0000
0000
0000
0000
0000
0000
,
0000
0000
0000
0000
0000
0000
0000
0000
0000
0000
0000
0000
0000
0030
0000
0000
0000
0000
0000
0000
0000
0000
0000
0000
0000
0000
0000
0000
0000
0011
0000
0000
0000
0000
0000
0000
0000
0000
0000
0000
0000
0000
0000
0000
0010
0000
0000
0000
0000
0000
0000
0000
0000
0000
0000
0000
0000
0000
0000
0000
0000
0000
0000
0000
,
0000
0000
0000
1001
0000
0000
0000
0110
0000
0000
0000
0000
0000
0000
0000
0000
0001
0000
0000
0000
0000
0000
0000
0000
0000
1000
0000
0000
0000
0000
0000
0000
,
0000
0000
0000
0000
0000
0000
0000
0000
0000
0000
0000
1010
0000
0000
0000
0000
0000
0000
0000
0000
0000
0101
0000
0000
0000
0000
0000
0000
0000
0000
0000
0000
0000
0000
0000
0000
0000
0000
0000
0020
0000
0000
0000
0000
0000
0000
0000
0000
0000
0000
0000
0000
0000
0000
0230
0000
0000
0000
0000
0000
0000
0000
0000
0000
,
0000
0302
0000
0000
0000
0000
0000
0000
0000
0000
2003
0000
0000
0000
0000
0000
0000
0000
0000
0000
0000
0000
0000
3002
0000
0000
0000
0000
0000
0000
0000
0000
0000
0000
0000
0000
0000
2003
0000
0000
0000
0000
0000
0000
0000
3020
0000
0000
0000
0000
0000
0000
0000
0000
0000
0000
0000
0000
0000
0000
0000
0000
0000
0000
,
0000
0000
0000
0000
0000
0000
0000
0000
0000
0000
0000
0030
0000
0000
0000
0000
0000
0000
1001
0000
0000
0000
0000
0000
0000
0000
0000
0001
0000
0000
0000
0000
0000
0000
0000
0010
0000
0000
0000
0000
0000
0000
0000
0000
0100
0000
0000
0000
0000
0000
0000
0000
0001
0000
0000
0000
0010
0000
0000
0000
0001
0000
0000
0000
,
1000
0100
1000
0010
0100
0010
1000
0100
1000
0001
0010
0001
1000
0100
0010
0001
,
1000
0100
1000
0010
0100
0001
0010
0001
1000
0100
1000
0100
0001
0010
0100
1000
,
0001
0010
0001
1000
0100
1000
0010
0100
0010
1000
0001
0010
0100
1000
0100
0001
,
0010
0001
1000
0100
1000
0010
0001
0010
1000
0100
0010
0001
0010
0100
1000
0010
,
0100
0001
0010
0100
1000
0100
0010
0001
0100
0010
1000
0001
0010
0001
1000
0100
,
1000
0001
0100
0001
1000
0010
1000
0001
1000
0100
0010
0001
0010
0200
0000
0000
,
0000
0000
0000
0000
0000
0000
0000
0000
0000
0001
0000
0001
0000
0320
0000
0000
,
0000
0000
0000
0000
0000
0000
0000
0000
0000
0000
0000
0030
0000
0001
1000
0001
,
0100
0010
0100
0001
0010
0100
1000
0001
0010
0001
1000
0100
1000
0010
0100
0010
,
1000
0100
1000
0001
0010
0100
1000
0010
0001
0100
1000
0100
1000
0010
0100
0010
,
1000
0100
1000
0010
0001
0010
0100
1000
0100
0010
0001
0100
0010
0000
1000
0001
,
0100
0010
1000
0001
0010
0100
1000
0001
0010
0001
1000
0100
1000
0010
0100
0001
,
0010
0001
1000
0100
1000
0010
0100
0001
0010
0100
1000
0010
0100
1000
0100
0010
,
0001
0100
0010
1000
0100
1000
0010
0100
0001
0010
0001
1000
0100
0020
0000
0000
,
0000
0000
0000
0000
0000
0030
2002
0000
,
0000
0000
0000
0000
0000
0000
0000
0000
0000
0000
0000
3003
0000
0000
1000
0100
,
1000
0010
0100
0001
0010
0100
1000
0100
0010
0001
0010
0100
1000
0011
1000
0100
,
0010
0001
0010
0100
1000
0001
0010
0001
1000
0100
1000
0002
0003
1000
1000
1000
,
1000
1000
1000
0000
0001
0001
0001
0001
0001
0001
0001
0001
0000
0100
0100
0100
,
0100
0100
0100
0100
0000
0010
0010
0010
0010
0010
0010
0010
0010
2002
0000
0000
,
0000
0000
0000
0000
0000
0000
0000
0000
0000
0000
3003
0000
0000
0011
0000
0011
,
0000
1001
0000
1001
0000
1100
0000
1100
0000
1100
0001
1100
0000
0110
0000
0000
,
0000
1001
0000
0000
0000
0000
0000
0000
0000
0000
0000
0000
0000
0000
0000
0000
;
