#TITLE:FLA♮H IN THE NIGHT;
#SUBTITLE:(IVKAS Style);
#ARTIST:FlashMan;
#TITLETRANSLIT:Flash in the Night;
#SUBTITLETRANSLIT:;
#ARTISTTRANSLIT:;
#CREDIT:;
#BANNER:Flash In The Night.png;
#BACKGROUND:Flash In The Night-bg.png;
#LYRICSPATH:;
#CDTITLE:Kilgacdtitle.png;
#MUSIC:Flash In The Night.mp3;
#OFFSET:1.269;
#SAMPLESTART:50.280;
#SAMPLELENGTH:12.000;
#SELECTABLE:YES;
#BPMS:0.000=158.000;
#STOPS:;
#BGCHANGES:;
// cache tags:
#FIRSTBEAT:8.000;
#LASTBEAT:238.000;
#SONGFILENAME:Songs/Community Keyboard Megapack - Volume 1/(Kilgamayan) Flash in The Night/Flash In The Night (FFR).sm;
#HASMUSIC:1;
#HASBANNER:1;
#MUSICLENGTH:89.526;
// end cache tags

//---------------dance-single - Hard----------------
#NOTES:
     dance-single:
     Hard:
     Hard:
     10:
     1.000,1.000,1.000,0.022,1.000,636.000,150.000,2.000,0.000,0.000:
0000
0000
0000
0000
,
0000
0000
0000
0000
,
1000
0100
0010
0100
1001
0000
0001
0010
0100
0010
1001
0000
0100
0010
1000
0001
,
0110
0000
0010
1000
0100
0001
0110
0000
0100
0010
0001
0010
0100
1000
0100
0010
,
0001
1000
0100
1000
0011
0000
1000
0001
0010
0001
1100
0000
0010
0100
0001
0100
,
1010
0000
0100
0001
1000
0010
0101
0000
0001
0100
0010
1000
0001
0010
1000
0100
,
0010
1000
0010
1000
0011
0000
0100
0001
0100
0001
1100
0000
0001
1000
0001
1000
,
1001
0000
0100
0010
0100
0010
0110
0000
0001
1000
0010
1000
0100
0001
1000
0001
,
1000
0100
0010
0001
1010
0000
0001
0010
0100
1000
0101
0000
0100
0010
0100
0010
,
1000
0100
0010
0001
0100
0010
0001
1000
0001
0010
0100
1000
0010
0100
1000
0001
,
1000
0100
0010
0001
1100
0000
1000
0000
0100
0000
0010
0000
0001
0000
1010
0000
,
0000
1001
0011
0001
0010
0100
1000
0101
,
0000
1100
0001
0110
1000
0011
0100
1001
,
0010
0100
0010
0100
1001
1000
0100
0010
,
0101
0000
0000
1001
0000
0000
1010
0000
,
0001
1000
0001
1000
0010
0010
0100
1000
,
0011
0000
0000
0110
0000
0000
1100
0000
,
1000
0100
0001
0010
0100
1000
0010
0001
0100
0010
0100
0010
1000
0001
1000
0001
,
0110
0100
0011
1000
0001
0010
0100
0011
,
0000
1000
1100
0001
1000
0100
0010
1100
,
0000
0101
0010
1001
0100
1010
0001
0110
,
1000
1000
0001
0001
1100
0011
1100
0011
,
1010
0000
0000
0110
0000
0000
0101
0000
,
1010
0000
0001
0100
0001
0000
0101
0000
1100
0001
0100
1000
0001
1000
0001
0010
,
1100
0000
0000
1001
0000
0000
0011
0000
,
1000
0000
0110
0000
0000
0000
0001
0000
1000
0001
1000
0010
0001
0100
0001
1000
,
0011
0000
0010
1100
0000
0100
0011
0000
,
1000
0001
0110
0110
,
1010
0000
1000
0101
0000
0001
1010
0000
,
0100
0000
0000
0000
1010
0000
0000
0000
0101
1000
0010
1000
0101
1000
0010
1000
,
0011
0000
1000
0110
0000
0001
1100
0000
,
0001
0100
0010
1000
,
0101
0000
0010
1001
0000
0100
1010
0000
,
1001
0110
1001
0110
1100
0011
1100
0011
,
1001
0010
0100
1000
0100
0010
1000
0001
1100
0010
0001
0010
1100
0000
0011
1000
,
0001
1000
0010
0100
0001
0010
0100
1000
0101
1000
0100
0010
1100
0000
0011
1000
,
0100
1000
0010
1000
0001
1000
0001
0010
1100
0000
0101
0000
1010
0000
0011
0100
,
1000
0001
0110
1000
0010
0001
1100
0001
0010
0100
1001
0100
1000
0001
1000
0100
,
0011
0100
0001
0010
0100
1000
0010
0001
1010
0100
0001
0100
1010
0000
0101
0010
,
0100
0010
0001
0100
1000
0100
0010
0001
1100
0000
0110
0001
0100
1000
0011
0100
,
1000
0010
0101
1000
0100
0001
1010
0100
0001
0100
0011
0000
1100
0000
0101
0000
,
1010
0100
0010
0001
0100
0010
0001
1000
0001
0010
0100
1000
0010
0100
1000
0001
,
0110
0001
1000
0001
0010
0100
1000
0100
0011
1000
0001
1000
0011
0000
1010
0100
,
0001
0100
0010
1000
0010
1000
0100
0010
0101
0010
0100
1000
0011
0000
1100
0001
,
0010
0100
1000
0100
0010
0001
0010
0100
1010
0000
1100
0000
0011
0000
0101
1000
,
0010
0100
1001
0100
0010
0001
1010
0100
0001
1000
0110
0001
1000
0001
0010
1000
,
0101
0010
0100
1000
0001
0010
0100
0010
1100
0001
0010
0001
1100
0000
0101
0010
,
1000
0001
1000
0010
1000
0100
1000
0010
1001
0000
1001
0010
0100
1000
0011
1000
,
0100
0001
1100
0010
0001
0010
0101
0010
1000
0001
1010
0000
0011
0100
0010
0001
,
1100
0001
1100
0010
0011
1000
0011
0100
,
1000
0100
0010
0001
1100
0000
0001
0010
0100
1000
0011
0000
0100
1000
0001
0010
,
1100
0000
0010
0001
1000
0100
0011
0000
0001
0010
0001
0010
0100
1000
0100
1000
,
0010
0100
0001
1000
0110
0000
0100
0010
1000
0001
0110
0000
0001
1000
0100
0001
,
0110
0000
1000
0010
0001
0100
1001
0000
0010
0001
1000
0100
0010
0001
1000
0100
,
0010
1000
0010
1000
1010
0000
0100
0001
0100
0001
0101
0000
1000
0001
0010
0100
,
1010
0000
0001
1000
0100
0010
0101
0000
0010
0100
1000
0100
0010
0001
0010
0100
,
1000
0010
0100
0010
1001
0000
0001
0100
0010
0100
1001
0000
0100
1000
0010
0001
,
1000
0100
0010
0001
1000
0100
0010
1000
0001
0010
0100
1000
0001
0010
0100
0001
,
1000
0010
0100
1000
0001
0100
0010
0001
0000
0000
0000
0000
0000
0000
0000
0000
,
2002
0000
0000
3003
0110
0000
0000
0000
;
