#TITLE:The legend of MAX;
#SUBTITLE:(From Nonstop Megamix) v2;
#ARTIST:;
#TITLETRANSLIT:;
#SUBTITLETRANSLIT:;
#ARTISTTRANSLIT:ZZ;
#CREDIT:;
#BANNER:LOMmega.png;
#BACKGROUND:LOMmega-bg.png;
#LYRICSPATH:;
#CDTITLE:!hiryuu.png;
#MUSIC:LOMmega.mp3;
#OFFSET:-2.007;
#SAMPLESTART:13.520;
#SAMPLELENGTH:23.060;
#SELECTABLE:YES;
#BPMS:0.000=333.200,320.000=666.400,336.000=333.200,336.500=166.500,337.000=83.250,346.000=333.200;
#STOPS:337.750=0.460
;
#BGCHANGES:;
// cache tags:
#FIRSTBEAT:32.000;
#LASTBEAT:542.000;
#SONGFILENAME:Songs/toune 2/LOMmega/LOMmega.sm;
#HASMUSIC:1;
#HASBANNER:1;
#MUSICLENGTH:103.627;
// end cache tags

//---------------dance-single - MANIAC----------------
#NOTES:
     dance-single:
     MANIAC:
     Hard:
     11:
     1.000,1.000,0.618,0.135,0.024,651.000,64.000,14.000,0.000,0.000:

0000
0000
0000
0000
,
0000
0000
0000
0000
,
0000
0000
0000
0000
,
0000
0000
0000
0000
,
0000
0000
0000
0000
,
0000
0000
0000
0000
,
0000
0000
0000
0000
,
0000
0000
0000
0000
,
1000
0100
0010
0001
,
0100
0010
1000
0001
,
0010
0010
1000
0010
,
0001
0001
0100
1000
,
0100
0001
0010
0100
,
1000
0000
0010
0000
0100
0001
0010
0000
,
1000
0010
0001
1000
,
0001
0000
1000
0000
0001
0010
0100
0000
,
1000
0001
1000
0000
0001
0000
0100
0000
,
0010
1000
0010
0000
0100
0000
0001
0000
,
1000
0010
1000
0000
0001
0000
1000
0000
,
1001
0000
0000
0101
0000
0000
1010
0000
,
0001
0100
0001
0000
0010
0000
1000
0000
,
0010
1000
0010
0000
0001
0000
0100
0000
,
0010
1000
0001
0000
1000
0000
0001
0000
,
0110
0000
0000
1001
0000
0000
1001
0000
,
1000
0010
0100
0000
0010
0000
1000
0000
,
0001
0010
0100
0000
1000
0000
0010
0000
,
0100
0001
1000
0000
0001
0000
0010
0000
,
0110
0000
0000
1010
0000
0000
0110
0000
,
0001
0100
0010
0000
1000
0000
0001
0000
,
0010
1000
0010
0000
0001
0000
0100
0000
,
0010
0100
0001
0010
1000
0010
0001
0000
,
0101
0000
0001
0100
0000
0100
0010
0000
,
0010
1000
0010
0100
0010
0000
1000
0000
,
0001
0100
0001
0010
0001
0000
0100
0000
,
0001
1000
0001
0100
0010
1000
0010
0100
,
0010
0000
1000
0001
0000
0001
0010
0000
,
0010
0100
0010
1000
0010
0000
0001
0000
,
1000
0010
0100
0001
0010
0000
0100
0000
,
1000
0010
0100
0001
0010
0001
0010
0100
,
0010
0000
0001
0100
0000
0100
0010
0000
,
1000
0001
0010
0100
1000
0000
0001
0000
,
1000
0010
0100
0010
1000
0000
0001
0000
,
1000
0001
0010
0100
1000
0000
0001
0000
,
1000
0000
0001
1000
0000
1000
0001
0000
,
0001
0010
0100
1000
0100
0010
0001
0010
,
0100
1000
0100
0010
0001
1000
0001
1000
,
1001
0110
1001
0110
,
1001
0000
0000
0000
1000
0001
0100
0010
,
2000
3010
0200
0001
,
0301
1002
1003
2001
,
3001
0000
0001
0010
0200
0000
1300
0000
,
0020
0031
0110
0100
,
0002
0013
0200
1000
,
1300
2001
3001
0102
,
0103
0000
0001
0010
0100
0000
1000
0000
,
0001
1000
0010
0000
0010
0100
0001
0000
,
1000
0000
0010
1000
0001
0000
1000
0001
,
0100
0101
0001
1001
,
1000
0000
0001
0100
0010
0000
1010
0000
,
1000
0010
0100
0000
0001
0010
0100
0000
,
1000
0000
0010
1000
0100
0000
0010
0001
,
0100
0110
0010
1010
,
1000
0000
0001
1000
0001
0000
1001
0000
,
1000
0001
1000
0000
0010
1000
0001
0100
,
0001
0000
1000
0001
0100
0001
1000
0000
,
1001
0000
0100
0001
0010
0100
1000
0000
,
0110
0000
0001
0010
0100
1000
0001
0000
,
1001
0000
1000
0010
0100
0001
1000
0000
,
1001
0000
0001
1000
0010
1000
0001
0000
,
1001
0000
1000
0100
0010
0001
1001
0000
,
1000
0001
0100
0000
0001
0000
1000
0000
,
1000
0010
0000
0010
1000
0000
1001
0000
,
0100
0110
0001
1001
,
1000
1010
0001
0101
,
1000
1100
0001
0101
,
1001
0101
1001
1010
,
1001
1000
0001
0000
,
1001
0001
1000
0000
,
0010
0100
0001
1000
,
0001
1000
0000
1000
0100
0000
0010
0000
,
2002
0000
0000
0000
,
0000
0000
0000
0000
,
0000
0000
0000
0000
,
0000
0000
0000
0000
,
0000
0000
0000
0000
0000
0000
0000
3003
1000
0000
0000
0000
0001
0000
0000
0010
,
0010
0000
0001
0000
0100
0000
0001
0000
0010
0000
0000
0000
1000
0000
0000
0010
,
0010
0000
0001
1000
0100
1000
0001
0001
1000
0000
0000
0000
0001
0000
0000
0000
,
0100
0001
1000
0010
,
1000
0010
0100
0000
0001
0000
1000
0000
,
0100
0010
0001
1000
,
0010
0100
0001
0000
1000
0000
1001
0000
,
0001
0010
0100
0000
1000
0000
1001
0000
,
1000
0100
0010
0000
0001
1000
0010
0100
,
0001
0000
1000
0000
0100
0010
0001
0010
,
1000
0010
0001
0000
0100
0001
1000
0000
,
0010
0000
0001
0000
0010
1000
0010
0000
,
1010
0000
1000
0000
0001
0000
0010
1000
,
0000
0010
0001
0000
1001
0000
1000
0001
,
0000
0001
0100
0000
0001
0010
0100
0000
,
1000
0000
0001
0000
1000
0010
0100
0000
,
0001
0000
0101
0000
0001
0000
0010
0100
,
0000
0100
1000
0000
1001
0000
1000
0001
,
0000
0001
0100
0000
0010
1000
0100
0000
,
0010
0000
0001
0000
1000
0010
0100
0000
,
0001
0000
0010
0000
0100
1000
0001
0000
,
1000
0000
0010
0000
0100
0001
1000
0000
,
0001
0000
1000
0000
0001
0010
0000
0010
,
0100
0000
1001
0000
1000
0010
0000
0010
,
0100
0000
0110
0000
0001
0010
0000
0010
,
0100
0000
1001
0000
0100
0010
0001
1000
,
0100
0010
0001
1000
0001
0100
0001
0000
,
0001
0100
0001
0000
0001
0010
0001
0000
,
0001
0010
0001
0000
0001
1000
0001
0000
,
0001
1000
0001
0000
0001
0100
0001
0000
,
0001
0100
0001
0000
1000
0010
1000
0000
,
1000
0100
1000
0000
1000
0001
1000
0000
,
1000
0100
1000
0000
1000
0001
1000
0000
,
1000
0010
1000
0000
1000
0001
1000
0000
,
1000
0010
1000
0000
1000
0010
0100
0001
,
0010
0001
0100
0000
0001
0100
0010
1000
,
0010
0100
0001
0000
1000
0100
0010
0001
,
0010
0100
1000
0000
0010
0100
0010
1000
,
0001
1000
0100
0000
0100
0010
0000
0010
,
0001
0000
0001
0000
0100
0010
0000
0010
,
1000
0000
1000
0000
0100
0010
0001
0000
,
1000
0010
0100
0000
0001
0010
0100
1000
,
0001
0100
0010
1000
1001
0000
0000
0101
,
0000
0000
1001
0000
0101
0000
0001
1000
,
0000
1000
0001
0000
0101
0000
0001
0010
,
0000
0010
0100
0000
0110
0000
0010
0100
,
0000
0100
1000
0000
1001
0000
1000
0001
,
0000
0001
0100
0000
0101
0000
0001
1000
,
0000
1000
0001
0000
1000
0001
0010
0100
,
0010
0001
0100
0010
1000
0001
0010
0100
,
1000
0010
0100
0001
2002
0000
0000
0000
,
0000
0000
3003
0000
;

//---------------dance-single - TRICKY----------------
#NOTES:
     dance-single:
     TRICKY:
     Medium:
     9:
     0.724,0.719,0.251,0.232,0.010,475.000,26.000,24.000,0.000,0.000:


0000
0000
0000
0000
,
0000
0000
0000
0000
,
0000
0000
0000
0000
,
0000
0000
0000
0000
,
0000
0000
0000
0000
,
0000
0000
0000
0000
,
0000
0000
0000
0000
,
0000
0000
0000
0000
,
1000
0100
1000
0000
,
0001
0010
0001
0000
,
0100
0010
0100
0010
,
0100
0001
1000
0000
,
0100
0010
0001
0000
,
0010
0100
0010
0001
,
1000
0001
0100
0001
,
1000
0000
0010
0000
1000
0001
1000
0000
,
0001
0100
0001
0100
,
0001
1000
0010
0100
,
0001
0010
0001
0100
,
0001
0000
0000
0010
0000
0000
0100
0000
,
1000
0001
0010
1000
,
0010
0001
0010
1000
,
0010
0001
0100
1000
,
0100
0000
0000
0100
0000
0000
0100
0000
,
0001
0010
0100
1000
,
0100
0010
1000
0010
,
0001
1000
0001
0100
,
0010
0000
0000
1000
0000
0000
1000
0000
,
0001
0010
0100
1000
,
0001
0100
0010
1000
,
0001
0000
1000
0000
0001
1000
0001
0000
,
0100
0000
0000
0100
0000
0000
0100
0000
,
0010
1000
0010
1000
,
0010
0000
1000
0000
0001
0100
0001
0000
,
0010
0001
0010
0001
,
1000
0000
0000
0010
0000
0000
0100
0000
,
0001
0010
0100
1000
,
0001
0000
1000
0000
0010
1000
0010
0000
,
0100
0001
1000
0001
,
0010
0000
0000
1000
0000
0000
0010
0000
,
0001
1000
0010
0001
,
0010
0000
1000
0000
0001
0100
0001
0000
,
0010
1000
0010
0001
,
0010
0000
0000
0010
0000
0000
0001
0000
,
1000
0001
1001
0000
,
0100
0010
0110
0000
,
1001
0001
1001
1000
,
1001
0000
0000
0000
,
2000
3020
0230
0000
,
0300
0002
0000
2000
,
0003
3002
0023
0230
,
2300
0000
0002
3003
,
0020
0230
0320
0000
,
0030
2000
0000
0020
,
3000
0032
2003
3002
,
2003
0000
0002
3003
,
1000
0001
0100
1000
,
0100
0001
0000
1001
,
0000
0001
0010
1000
,
0010
0001
1000
0001
,
0100
0010
0001
0010
,
1000
0001
0000
1001
,
0000
0001
1000
0100
,
0001
0000
0100
0000
1000
0001
1000
0000
,
0001
0100
1000
0100
,
0001
1000
0001
1000
,
0001
0010
1000
0010
,
0001
0100
0010
1000
,
0010
0001
0010
0100
,
0001
0010
1000
0010
,
0001
0100
0010
1000
,
0010
0100
0001
1000
,
0001
0001
1000
1000
,
0010
0010
0100
0100
,
0001
0001
0010
0010
,
0100
0100
1000
1000
,
0001
0100
0001
0000
,
1000
0010
1000
0000
,
0010
0100
0001
1000
,
0001
0000
1000
0000
,
2002
0000
0000
0000
,
0000
0000
0000
0000
,
0000
0000
0000
0000
,
0000
0000
0000
0000
,
0000
0000
0000
0000
0000
0000
3003
0000
1000
0000
0000
0000
0001
0000
0000
0010
,
0010
0000
0000
0000
0100
0000
0000
0000
0010
0000
0000
0000
0001
0000
0000
0100
,
0100
0001
0010
0100
1000
0000
0100
0000
,
0001
0100
0001
0100
,
0001
0100
0001
0000
0100
0000
1000
0000
,
0100
1000
0100
1000
,
0100
1000
0100
0000
1000
0000
0001
0000
,
1000
0001
1000
0001
,
1000
0001
1000
0000
0010
0000
0100
0000
,
0010
0100
0010
0100
,
0010
0100
0010
0000
1000
0000
1000
0000
,
0100
0100
0010
0010
,
0001
0000
0001
0000
1000
0001
1000
0000
,
0001
0000
0001
0000
1000
0001
1000
0000
,
0001
0001
0010
0010
,
0100
0100
1000
1000
,
0001
0000
0001
0000
1000
0010
1000
0000
,
0010
0000
0010
0000
0100
0001
0100
0000
,
0001
0001
1000
0100
,
1000
0100
0010
0001
,
0010
0000
0001
0000
0100
0010
0100
0000
,
0010
0000
0010
0000
1000
0001
1000
0000
,
0001
0001
1000
0100
,
0010
0001
1000
0001
,
1000
0100
0010
0001
,
0100
0010
1000
0100
,
0010
0001
1000
0001
,
1000
0001
0100
0000
0001
0000
0010
0000
,
0001
0100
0010
0000
1000
0000
0001
0000
,
1000
0001
0010
0000
1000
0000
0010
0000
,
0001
1000
0001
0000
0100
0000
0010
0000
,
1000
0001
1000
0000
0010
0000
0100
0000
,
0010
0100
0010
0000
1000
0000
0100
0000
,
0010
0001
0100
0000
0010
0000
0100
0000
,
0001
1000
0100
0000
0010
0000
0001
0000
,
1000
0001
1000
0100
,
0010
0001
0010
0100
,
1000
0100
0010
0001
,
1000
0001
0010
0010
,
0100
0100
1000
1000
,
0001
0001
0100
0010
,
0001
0010
1000
0001
,
1000
0000
0001
0000
1001
0000
0000
0101
,
0000
1001
1000
0001
,
1000
0000
0001
0000
1010
0000
0000
0101
,
0000
0000
0001
0000
1001
0000
0000
0011
,
0000
0000
0010
0000
0110
0000
0000
0101
,
0000
0000
0001
0000
0101
0000
0000
0110
,
0000
0000
0001
0000
1001
0000
0000
0101
,
0000
0000
1001
0000
0110
0000
0000
0101
,
0000
1001
0220
0000
,
0000
0000
0330
0000
;

//---------------dance-single - BASIC----------------
#NOTES:
     dance-single:
     BASIC:
     Easy:
     6:
     0.469,0.588,0.058,0.164,0.000,317.000,6.000,17.000,0.000,0.000:




0000
0000
0000
0000
,
0000
0000
0000
0000
,
0000
0000
0000
0000
,
0000
0000
0000
0000
,
0000
0000
0000
0000
,
0000
0000
0000
0000
,
0000
0000
0000
0000
,
0000
0000
0000
0000
,
1000
0000
0001
0000
,
1000
0000
0001
0000
,
0100
0000
0010
0000
,
0100
0000
0010
0000
,
1000
0000
0100
0000
,
0010
0000
0001
0000
,
0001
0000
0100
0000
,
0010
0000
1000
0000
,
1000
0000
1000
0000
,
0010
0000
0010
0000
,
0100
0000
0100
0000
,
0001
1000
0001
0000
,
1000
0000
0100
0000
,
0010
0000
0001
0000
,
1000
0000
0010
0000
,
0100
0001
0100
0000
,
0001
0000
0010
0000
,
0100
0000
1000
0000
,
0001
0000
0100
0000
,
0010
1000
0010
0000
,
0100
0000
0001
0000
,
0010
0000
0100
0000
,
1000
0000
0001
0000
,
1000
0000
0000
1000
0000
0000
1000
0000
,
0010
0000
1000
0000
,
0010
0000
0001
0000
,
0010
0000
1000
0000
,
0001
0000
0000
1000
0000
0000
0001
0000
,
1000
0000
0100
0000
,
0010
0000
0001
0000
,
0010
0000
1000
0000
,
0010
0000
0000
0001
0000
0000
0100
0000
,
1000
0000
0100
0000
,
0001
0000
0001
0000
,
1000
0000
1000
0000
,
0010
0000
0000
0001
0000
0000
0010
0000
,
1000
0000
0001
0000
,
0010
0000
0100
0000
,
1000
0000
0001
0000
,
1001
0000
0000
0000
,
2000
0000
0000
0000
,
0000
3002
0000
2003
,
0000
0000
3020
0000
,
0230
0000
0302
0000
,
2003
0000
0000
0000
,
0000
3020
0000
0230
,
0000
0000
0302
0000
,
2003
3000
2002
3003
,
1000
0000
1000
0000
,
0001
0000
0001
0000
,
0100
0000
0100
0000
,
0010
0000
0010
0000
,
0010
1000
0010
0000
,
1000
0001
1000
0000
,
0100
0010
0100
0000
,
0001
1000
0001
0000
,
0001
0000
0001
0000
,
1000
0000
1000
0000
,
0100
0000
0100
0000
,
0010
0000
0010
0000
,
0001
1000
0001
0000
,
0100
0010
0100
0000
,
0001
1000
0001
0000
,
0010
0100
0010
0000
,
0001
0010
0001
0000
,
1000
0100
1000
0000
,
0001
0010
0001
0000
,
1000
0100
1000
0000
,
0001
0100
0001
0000
,
1000
0010
1000
0000
,
0001
1000
0001
0000
,
0001
0000
1001
0000
,
2002
0000
0000
0000
,
0000
0000
0000
0000
,
0000
0000
0000
0000
,
0000
0000
0000
0000
,
0000
0000
0000
3003
1000
0000
0001
0000
,
0010
1000
0010
0001
,
0100
0001
1000
0000
,
0001
0000
1000
0000
,
0001
0000
0100
0000
,
0010
0000
0100
0000
,
0010
0000
1000
0100
,
0010
0000
0001
0100
,
0010
0000
1000
0100
,
0010
0000
0001
1000
,
0001
0000
1000
0000
,
0100
0000
0010
0000
,
0001
0000
0010
0100
,
0010
0000
0001
1000
,
0001
0000
0100
0000
,
0010
0000
0001
0000
,
0010
0000
1000
0001
,
1000
0000
0100
0010
,
0100
0000
0010
0000
,
0001
0000
1000
0000
,
0010
0000
0100
0001
,
0010
0000
0100
1000
,
0010
0000
1000
0001
,
1000
0000
0001
0010
,
0001
0000
1000
0100
,
1000
0000
1001
0000
,
0000
0000
1000
0001
,
1000
0001
0100
0010
,
0100
0010
1000
0001
,
1000
0001
0100
0010
,
0100
0010
1000
0010
,
1000
0010
0100
0001
,
0100
0001
1000
0100
,
1000
0100
0010
0001
,
0010
0001
1000
0100
,
1000
0100
1000
0001
,
1000
0001
1000
0010
,
1000
0010
1000
0001
,
1000
0001
1000
1000
,
0001
0001
0100
0100
,
0010
0010
1000
0001
,
1000
0001
1000
0001
,
1000
0000
0001
0000
1000
0000
0000
0001
,
0000
1000
0000
0000
,
0000
0000
1000
0000
0100
0000
0000
1000
,
0000
0000
0001
0000
0100
0000
0000
0001
,
0000
0000
0100
0000
0010
0000
0000
0100
,
0000
0000
0010
0000
0100
0000
0000
0010
,
0000
0000
0100
0000
1000
0000
0000
0010
,
0000
0000
0001
0000
0100
0000
0000
0001
,
0000
1000
2002
0000
,
0000
0000
3003
0000
;

//---------------dance-single - SIMPLE----------------
#NOTES:
     dance-single:
     SIMPLE:
     Beginner:
     3:
     0.365,0.523,0.077,0.019,0.000,255.000,8.000,2.000,0.000,0.000:

0000
0000
0000
0000
,
0000
0000
0000
0000
,
0000
0000
0000
0000
,
0000
0000
0000
0000
,
0000
0000
0000
0000
,
0000
0000
0000
0000
,
0000
0000
0000
0000
,
0000
0000
0000
0000
,
1000
0000
1000
0000
,
0001
0000
0001
0000
,
1000
0001
1000
0000
,
0001
0000
0000
0000
,
0100
0000
0100
0000
,
0010
0000
0010
0000
,
0100
0010
0100
0000
,
0110
0000
0000
0000
,
1000
0000
1000
0000
,
0100
0000
0100
0000
,
0010
0000
0010
0000
,
0001
0000
0001
0000
,
1000
0001
1000
0000
,
0001
1000
0001
0000
,
0100
0000
0010
0000
,
0110
0000
0000
0000
,
1000
0100
0010
0000
,
0001
0000
1000
0000
,
0001
0000
1000
0000
,
0001
0000
0000
0000
,
0100
0001
0010
0000
,
0100
0000
1000
0000
,
0010
0000
0100
0000
,
0110
0000
0000
0000
,
1000
0001
1000
0000
,
0001
1000
0001
0000
,
1000
0000
0001
0000
,
1000
0000
0000
0000
,
0010
0100
0010
0000
,
0100
0010
0100
0000
,
0010
0000
0100
0000
,
0010
0000
0000
0000
,
1000
0100
1000
0000
,
0010
0000
0100
0000
,
0001
0010
0001
0000
,
0100
0000
0010
0000
,
1000
0001
1000
0000
,
0010
0100
0010
0000
,
1000
0001
1000
0001
,
1000
0000
0000
0000
,
0001
0000
0001
0000
,
0001
0000
0001
0000
,
0001
0000
0001
0000
,
0001
0000
0001
0000
,
1000
0000
1000
0000
,
1000
0000
1000
0000
,
1000
0000
1000
0000
,
1000
0000
1000
0000
,
0010
0100
0010
0000
,
0100
0000
0010
0000
,
1000
0001
1000
0000
,
0001
0000
1000
0000
,
0001
0000
0001
0000
,
1000
0000
1000
0000
,
0010
0000
0100
0000
,
1001
0000
0000
0000
,
1000
0000
0100
0000
,
0010
0000
0001
0000
,
1000
0000
0010
0000
,
0100
0000
0001
0000
,
1000
0000
0100
0000
,
0010
0000
0001
0000
,
1000
0001
1000
0000
,
1001
0000
0000
0000
,
0001
0010
0001
0000
,
0100
0000
0010
0000
,
1000
0100
1000
0000
,
0010
0000
0100
0000
,
0001
1000
0001
0000
,
0100
0010
0100
0000
,
1000
1000
0001
0001
,
1000
0000
0001
0000
,
1001
0000
0000
0000
,
0000
0000
0000
0000
,
0000
0000
0000
0000
,
0000
0000
0000
0000
,
0000
0000
0000
0000
,
0000
0000
0000
0000
,
0000
0000
1000
0000
,
1000
0000
0001
0000
,
0001
0000
1000
0000
,
1000
0000
0001
0000
,
0001
0000
0100
0000
,
0100
0000
0010
0000
,
0010
0000
1000
0001
,
1000
0000
1001
0000
,
0000
0000
0001
0000
,
0001
0000
0001
0000
,
0001
0000
0001
1000
,
0001
0000
0001
0000
,
0000
0000
1000
0000
,
1000
0000
1000
0000
,
1000
0000
1000
0001
,
1000
0000
1000
0000
,
0000
0000
0010
0000
,
0100
0000
0010
0000
,
0100
0000
0001
0000
,
1000
0000
0001
0000
,
1000
0000
0001
0000
,
0010
0000
0100
0000
,
1000
0000
0001
0000
,
0100
0000
0010
0000
,
1000
0000
0001
0000
,
0001
0000
1000
0000
,
1000
0000
0001
1000
,
0001
0000
1000
0001
,
1000
0000
0010
0000
,
0010
0000
0100
0000
,
0100
0000
0010
0100
,
0010
0000
0100
0010
,
0100
0000
0001
0000
,
1000
0000
0001
0000
,
1000
0000
0010
0000
,
0100
0000
0010
0000
,
0100
0000
0001
0000
,
0100
0000
0010
0000
,
1000
0000
0100
0000
,
1000
0000
0010
0000
,
0100
0000
0001
0000
,
0000
0000
0001
0000
,
0000
0000
1000
0000
,
0000
0000
1000
0000
,
0000
0000
0010
0000
,
0000
0000
0100
0000
,
0000
0000
0001
0000
,
1000
0000
0001
0000
,
1000
0000
2002
0000
,
0000
0000
3003
0000
;
