#TITLE:The Last Crusade;
#SUBTITLE:Consign to Oblivion (2005);
#ARTIST:Epica;
#TITLETRANSLIT:;
#SUBTITLETRANSLIT:;
#ARTISTTRANSLIT:;
#CREDIT:;
#BANNER:The Last Cruisade.png;
#BACKGROUND:The Last Cruisade.jpg;
#LYRICSPATH:;
#CDTITLE:KS.png;
#MUSIC:The Last Crusade.mp3;
#OFFSET:-0.640;
#SAMPLESTART:33.293;
#SAMPLELENGTH:11.800;
#SELECTABLE:YES;
#BPMS:0.000=124.000;
#STOPS:;
#BGCHANGES:;
// cache tags:
#FIRSTBEAT:3.000;
#LASTBEAT:413.000;
#SONGFILENAME:Songs/Astronomic Metal Collection/The Last Crusade (KangXIX)/The Last Cruisade.sm;
#HASMUSIC:1;
#HASBANNER:1;
#MUSICLENGTH:210.050;
// end cache tags

//---------------dance-single - ----------------
#NOTES:
     dance-single:
     :
     Hard:
     12:
     0.931,1.000,0.519,0.847,1.000,1082.000,109.000,178.000,0.000,15.000:
0000
0000
0000
2000
,
0000
3200
0000
0320
,
0000
0032
0000
2003
,
0000
0200
0302
3023
,
0002
0203
0332
2003
,
0000
3002
0200
0323
,
0000
0230
0000
0320
,
2030
3002
0020
2033
,
0000
0000
0000
0000
0200
0000
0000
0000
0000
0000
0000
3000
2000
0000
0000
0000
,
3020
0032
0000
0000
,
0000
0000
0000
0000
0000
0000
0000
0000
0300
0003
0000
0000
1100
0000
0000
0000
0000
0000
0000
0000
0000
0000
0000
0000
1100
0000
0000
0000
0000
0000
0000
0000
0000
0000
0000
0000
0100
0000
0000
0000
0000
0000
0001
0000
0000
0000
0000
0000
,
0020
0000
0000
0030
0101
0000
0000
0000
0101
0000
0000
0000
1000
0000
0010
0000
,
0200
0000
0000
0300
1001
0000
0000
0000
1001
0000
0000
0000
0100
0000
0010
0000
,
2000
0000
0000
3000
0012
0000
0000
0000
0010
0000
0000
0003
0120
0000
1000
0000
,
0200
0000
0000
0330
2002
0000
0000
3003
1001
0000
0000
0000
0100
0000
1000
0000
,
0020
0000
0000
0030
0101
0000
0000
0000
0101
0000
0000
0000
0100
0000
0010
0000
,
0200
0000
0000
0300
0011
0000
0000
0000
0011
0000
0000
0000
2000
0000
3200
0000
,
0320
0000
0031
0100
2020
0000
0000
3030
1010
0000
0000
1001
0100
0000
0001
0000
,
1001
0010
0100
0000
0110
0000
0000
0000
0110
0000
0000
0000
1100
0000
0001
0000
,
0020
0000
0100
0030
0101
0000
0000
0000
0101
0000
0000
0000
1010
0000
0001
0000
,
0200
0000
0000
0300
1001
0000
0000
0000
1001
0000
0000
0000
0110
0000
0001
0000
,
2000
0000
0001
3000
2100
0000
0000
0000
0100
0000
0000
3000
0012
0000
1000
0000
,
0020
0000
0000
0033
1001
0000
0000
0000
1001
0000
0000
0000
0101
0000
1000
0000
,
0020
0000
0100
0030
0011
0000
0000
0000
0011
0000
0000
0000
1001
0000
0010
0000
,
0002
0000
0000
0003
1010
0000
0000
0000
1010
0000
0000
0000
2100
0000
3002
0000
,
0023
0000
0130
0010
2002
0000
0000
3003
1001
0000
0000
0000
1020
0000
0230
0000
,
0302
0000
0000
0000
0000
0000
0000
0000
0000
0003
0000
0000
1100
0000
0000
0000
0000
0000
0000
0000
0000
0000
0000
0000
1100
0000
0000
0000
0000
0000
0000
0000
1000
0000
0000
0000
0001
0000
0000
0000
0001
0000
0000
0000
0010
0000
0000
0000
,
0010
0000
0100
0000
0100
0000
2000
0000
3001
0000
0001
0000
0100
0000
0010
1000
0001
0100
0020
0000
1030
0000
1000
0000
,
0100
0010
0001
1000
0100
0010
0002
0000
0103
0000
0100
0000
0010
1000
0100
0010
0001
1000
0200
0000
0310
0000
0010
0000
,
0001
0010
0100
1000
0001
0010
0200
0000
1300
0000
1000
0000
0001
0000
1000
0010
0100
0001
2000
0000
3100
0000
0100
0000
,
0010
0001
1000
0100
0010
0001
0200
0000
0301
0000
0001
0000
0010
0100
1000
0010
0100
0001
1000
0000
0000
0000
0110
0000
,
0000
0000
0101
0000
0000
0000
2001
0000
3100
0000
0100
0000
0010
0000
0001
0100
0010
1000
0002
0000
1003
0000
1000
0000
,
0100
0001
0100
0001
0100
0001
1000
0010
1000
0010
1000
0010
0100
0001
0100
0001
0100
0001
1000
0100
1000
0100
1000
0100
,
0010
0100
0010
0100
0010
0100
2000
0000
3100
0000
0100
0000
0010
0000
0001
0010
0100
1000
0002
0000
0103
0000
0100
0000
,
0020
0000
1030
0000
1000
0000
0200
0000
0310
0000
0010
0000
0100
0000
0010
0001
1000
0001
0200
0000
0310
0000
0010
0000
,
0200
0000
0310
0000
0010
0000
2000
0000
3001
0000
0100
0000
0010
0000
1000
0100
1000
0100
0010
0000
0001
0000
0100
0000
,
0001
1000
0001
1000
0001
1000
0020
0000
0130
0000
0001
0000
0010
0100
0010
0100
0010
0100
1000
0000
0010
0000
0100
0000
,
0001
0010
0001
0010
0001
0010
0200
0000
1300
0000
0010
0000
0100
0000
0001
0100
0001
0100
0010
0000
0100
0000
0001
0000
,
1000
0100
1000
0100
1000
0100
0020
0000
0031
0000
1000
0000
0001
0010
0001
0010
0001
0010
0100
0000
0000
0000
1100
0000
,
0000
0000
0110
0000
0000
0000
0102
0000
1003
0000
0100
0000
0001
0000
0010
0001
0010
0001
0100
0000
0010
0000
1000
0000
,
0001
0010
0001
0010
0001
0010
0100
1000
0100
1000
0100
1000
0010
0100
0010
0100
0010
0100
0001
1000
0001
1000
0001
1000
,
0100
1000
0100
1000
0100
1000
0002
0000
0103
0000
0010
0000
1000
0000
0001
1000
0001
1000
0200
0000
0310
0000
0010
0000
,
0002
0000
1003
0000
1000
0000
0020
0000
0130
0000
0100
0000
0020
0000
0130
0001
0100
0001
2000
0000
3100
0000
0100
0000
,
2000
0000
3100
0000
0100
0000
2001
0000
0000
0000
0000
0000
0010
0000
0000
0100
0000
0000
3011
0000
0000
0000
0000
0000
,
0010
0000
0100
0000
0100
0000
0000
1000
0100
0000
0100
0000
1001
0000
0000
0000
,
1000
0000
0001
0100
0001
0000
0000
0000
0020
0000
0230
0000
0321
0000
0230
0000
,
2300
0000
0001
3000
1002
0000
0000
0000
0103
0000
1000
0000
1010
0000
0000
0000
,
0100
0000
0001
0000
0001
0000
0000
0001
0000
0000
1000
0000
0210
0000
0000
0000
,
0310
0000
0001
1000
0001
0000
0200
0000
2300
0000
0100
3000
0220
0000
0000
0330
,
0011
0100
2010
0000
0001
0100
3101
0000
,
2000
0000
0000
0010
0000
0000
3020
0000
0000
0130
0001
0100
0001
0000
0000
0001
0000
0000
1001
0000
0000
0000
0000
0000
,
1000
0000
0000
0000
1000
0000
0000
0000
1000
0000
0000
0000
1000
0000
0000
0000
0000
0000
0000
0000
0000
0000
0000
0000
0110
0000
0000
0000
0000
0000
0000
0000
0000
0000
0000
0000
0100
0000
0000
1000
0000
0000
0001
0000
0000
1000
0000
0000
,
0001
1000
0010
1000
0010
1000
0100
0010
0001
0100
0010
1000
0001
0010
0100
0010
,
0100
0010
1000
0010
0100
0010
0001
1000
0010
0100
0010
0100
0002
0000
1000
0000
,
1003
0010
0100
0010
0100
0010
1000
0100
1000
0100
0010
0001
0010
0001
1000
0010
,
0100
0000
0000
0001
0000
0000
1000
0000
0000
0100
0000
0000
0010
0000
0000
1001
0000
0000
0200
0000
0000
0300
0000
0000
0010
0000
0000
1001
0000
0000
0200
0000
0000
0300
0000
0000
1000
0000
0000
0000
0000
0000
1000
0000
0100
0000
0010
0000
,
0001
0000
0000
0001
0010
0100
1000
0000
0000
1000
0100
0010
0001
0000
0000
0001
0010
0100
1000
0000
0000
1000
0010
0100
,
0001
0000
0000
0000
0000
0000
0001
0000
0100
0000
0010
0000
1000
0000
0000
0000
0000
0000
1000
0000
0010
0000
0100
0000
0001
0000
0000
0000
0000
0000
0001
0000
0000
0001
0000
0000
1000
0000
0000
0001
0000
0000
0100
0000
0000
0001
0000
0000
,
0100
0001
0010
0100
1000
0001
0010
0001
0010
0001
0100
0010
1000
0001
0010
0100
,
0010
0100
1000
0010
0100
0001
0100
0001
0100
0001
0100
0001
1010
0000
0000
0000
,
1010
0000
0000
0000
0000
0000
0000
0000
0000
0000
0000
0000
0100
0000
0000
0000
0000
0000
0001
0000
0000
0000
0000
0000
0020
0000
0000
0000
0000
0000
0000
0000
0000
0030
0000
0000
2000
0000
0000
0000
3100
0000
0000
0000
0100
0000
0000
0000
,
0010
0000
0001
0100
0010
1000
0002
0000
0103
0000
0100
0000
0010
0001
1000
0010
0100
0001
2000
0000
3001
0000
0001
0000
,
0100
0010
1000
0001
0010
0100
2000
0000
3010
0000
0010
0000
0100
0001
1000
0100
0010
0001
2000
0000
3100
0000
0100
0000
,
0010
0000
0001
0010
0100
1000
0020
0000
0130
0000
0100
0000
0001
1000
0010
0100
0001
1000
0200
0000
1300
0000
1000
0000
,
0010
0100
0001
1000
0100
0010
0001
0000
0000
0000
0011
0000
0000
0000
0110
0000
0000
0000
2100
0000
3001
0000
0001
0000
,
0100
0000
1000
0100
0010
0001
2000
0000
3100
0000
0100
0000
1000
0001
1000
0001
1000
0001
0010
0001
0010
0001
0010
0001
,
0010
0100
0010
0100
0010
0100
1000
0100
1000
0100
1000
0100
1000
0001
1000
0001
1000
0001
0200
0000
0310
0000
0010
0000
,
1000
0000
0100
0010
0001
1000
0020
0000
0130
0000
0100
0000
0002
0000
1003
0000
1000
0000
0200
0000
0310
0000
0010
0000
,
0001
0000
1000
0010
0100
0001
2000
0000
3001
0000
0001
0000
2000
0000
3001
0000
0001
0000
0200
0000
0310
0000
1000
0000
,
0100
0000
0010
0001
0010
0001
2000
0000
3010
0000
0100
0000
0001
0100
0001
0100
0001
0100
0020
0000
0130
0000
0001
0000
,
1000
0100
1000
0100
1000
0100
0020
0000
0031
0000
1000
0000
0010
0100
0010
0100
0010
0100
0002
0000
1003
0000
0100
0000
,
0010
0000
0001
0010
0001
0010
0200
0000
1300
0000
0001
0000
0100
0010
0100
0010
0100
0010
2000
0000
3001
0000
0010
0000
,
0100
1000
0100
1000
0100
1000
0001
0000
0000
0000
1010
0000
0000
0000
0110
0000
0000
0000
0102
0000
0013
0000
0100
0000
,
1000
0000
0001
0100
0001
0100
0020
0000
1030
0000
0100
0000
0010
0001
0010
0001
0010
0001
1000
0010
1000
0010
1000
0010
,
0100
0001
0100
0001
0100
0001
1000
0100
1000
0100
1000
0100
1000
0001
1000
0001
1000
0001
0200
0000
0310
0000
0010
0000
,
1000
0000
0100
0010
0100
0010
0002
0000
0103
0000
0100
0000
0020
0000
1030
0000
1000
0000
0200
0000
0310
0000
0010
0000
,
0100
0000
1000
0001
1000
0001
0200
0000
0301
0000
0001
0000
0200
0000
0301
0000
0001
0000
1020
0000
0000
0000
0000
0000
,
0001
0000
0100
0000
1130
0000
0000
0000
0010
0000
0001
0000
0001
0000
0000
1000
,
0001
0000
0001
0000
0110
0000
0000
0000
0010
0000
0100
1000
0100
0000
0000
0000
,
0020
2030
3210
0302
2003
0100
3102
0000
,
0013
0000
0100
0000
1002
0000
0000
0000
2003
0000
3020
0000
0130
0000
0000
0100
,
0000
0000
0100
0000
0012
0000
0000
0000
2003
0000
3001
0100
0002
0000
2003
0000
,
3200
0000
0310
0000
2002
0000
0000
3003
1010
0000
0100
0000
0012
0000
0000
0000
,
1000
0000
0000
0100
0000
0000
0113
0000
0000
0000
0000
0000
2000
0000
0000
0001
0000
0000
3001
0000
0000
0100
0010
0100
,
0010
0000
0000
0010
0000
0000
1001
0000
0000
0000
0000
0000
0010
0000
0010
0000
0010
0000
0010
0000
0000
0000
0000
0000
,
0110
0000
0000
0000
0100
0001
1000
0001
1000
0001
0010
0001
0010
0100
1000
0001
,
0010
0100
1000
0010
0100
0001
0010
0001
0010
0001
1000
0001
1000
0010
0100
0001
,
1000
0100
1000
0100
0020
0000
0031
0000
0001
0100
0010
0100
0010
1000
0100
1000
,
0100
1000
0010
0100
0010
0100
0001
1000
0001
0010
0100
1000
0110
0001
2000
3000
,
0110
0000
0000
0001
0000
0000
2000
0000
0000
3000
0000
0000
0001
0000
0000
0000
0000
0000
0001
0000
1000
0000
0100
0000
0010
0000
0000
0000
0000
0000
0010
0000
0100
0000
1000
0000
0001
0000
0000
0000
0000
0000
0001
0000
1000
0000
0100
0000
,
0010
0000
0000
0010
0100
1000
0001
0000
0000
0001
1000
0010
0100
0000
0000
0100
0010
1000
0001
0000
0000
0001
1000
0010
,
0100
0000
0100
0100
0001
0010
0100
0010
0100
0010
1000
0010
0001
0100
0010
0100
,
0010
0100
1000
0100
0001
0010
0100
1000
0100
1000
0001
0100
0001
0100
0001
0100
,
0001
0100
0001
0100
1001
0000
0000
0000
1001
0000
0000
0000
0100
0000
0010
0000
,
2000
0000
0000
3000
0101
0000
0000
0000
0101
0000
0000
0000
0010
0000
1000
0000
,
0200
0000
0000
0300
0011
0000
0000
0000
0011
0000
0000
0000
0100
0000
0001
0000
,
0020
0000
0000
0030
2001
0000
0000
0000
0001
0000
0000
3000
0120
0000
1000
0000
,
0200
0000
0000
0330
2100
0000
0000
3000
1100
0000
0000
0000
1000
0000
0001
0000
,
0020
0000
0000
0030
0110
0000
0000
0000
0110
0000
0000
0000
1000
0000
0001
0000
,
2000
0000
0000
3000
0202
0000
0000
0303
0202
0000
0303
0000
2000
0000
3002
0000
,
0023
0000
0130
1000
0202
0000
0000
0303
0202
0000
0303
0000
0020
0000
0230
0000
,
2300
0000
0000
3000
0110
0000
0000
0000
0110
0000
0000
0000
1100
0000
0110
0000
,
0012
0000
0000
1003
1000
0100
0000
0010
0010
0001
0000
0100
,
0100
0010
0000
1001
0000
0000
0000
0000
0000
0000
0000
0000
;

//---------------dance-single - ----------------
#NOTES:
     dance-single:
     :
     Medium:
     10:
     0.752,0.713,0.738,0.481,0.705,849.000,155.000,101.000,0.000,1.000:
0000
0000
0000
2000
,
0000
0000
0000
3000
0200
0000
0000
0000
0000
0000
0000
0300
0020
0000
0000
0000
,
0000
0000
0000
0030
0002
0000
0000
0000
0000
0000
0000
0003
2000
0000
0000
0000
,
0000
0000
0000
0000
0200
0000
0000
0300
0002
0000
0000
3003
0020
0000
0000
0000
,
0200
0000
0000
0300
2000
0000
0000
3030
0002
0000
0000
0003
0200
0000
0000
0000
,
0000
0000
0000
0300
0020
0000
0000
0030
2000
0000
0000
3000
0002
0000
0000
0000
,
0000
0000
0000
0003
0200
0000
0000
0000
0000
0000
0000
0300
0002
0000
0000
0003
,
2000
0000
0000
3000
0020
0000
0000
0000
0200
0000
0000
0330
0002
0000
0000
0000
,
0000
0000
0000
0003
2000
0000
0000
0000
0000
0000
0000
0000
0002
0000
0000
0003
,
0020
0000
0000
0030
0200
0000
0000
0000
0000
0000
0000
0000
0000
0000
0000
0000
,
0000
0000
0000
3300
1001
0000
0000
0000
1001
0000
0000
0000
0100
0000
0001
0000
,
0020
0000
0000
0030
0101
0000
0000
0000
0101
0000
0000
0000
0010
0000
0001
0000
,
0200
0000
0000
0300
0011
0000
0000
0000
0011
0000
0000
0000
0100
0000
1000
0000
,
0020
0000
0000
0030
1002
0000
0000
0000
1000
0000
0000
0003
1020
0000
0000
0000
,
0000
0000
0000
0030
0202
0000
0303
0000
0101
0000
0000
0000
1000
0000
0100
0000
,
0020
0000
0000
0030
0011
0000
0000
0000
0011
0000
0000
0000
1000
0000
0010
0000
,
2000
0000
0000
3000
0101
0000
0000
0000
0101
0000
0000
0000
1000
0000
0100
0000
,
0010
0000
0001
1000
0100
0000
0000
0000
1100
0000
0000
1000
0001
0000
0010
0000
,
0100
1000
0001
0000
1010
0000
0000
0000
1010
0000
0000
0000
1001
0000
0100
0000
,
0020
0000
0100
0030
0101
0000
0000
0000
0101
0000
0000
0000
1001
0000
0010
0000
,
0200
0000
0000
0300
1010
0000
0000
0000
1010
0000
0000
0000
1001
0000
0100
0000
,
0020
0000
0100
0030
2100
0000
0000
0000
0100
0000
0000
3000
0012
0000
1000
0000
,
0020
0000
0000
0033
1100
0000
0000
0000
1100
0000
0000
0000
0101
0000
0010
0000
,
2000
0000
0100
3000
0011
0000
0000
0000
0011
0000
0000
0000
1001
0000
0001
0000
,
2000
0000
0000
3000
0220
0000
0000
0330
0110
0000
0000
0000
1100
0000
0001
0000
,
0010
0000
0100
1000
0002
0000
0000
0003
0001
0000
0000
0000
1010
0000
0100
0000
,
0002
0000
0000
0000
0000
0000
0000
0000
0000
0003
0000
0000
1100
0000
0000
0000
0000
0000
0000
0000
0000
0000
0000
0000
1100
0000
0000
0000
0000
0000
0000
0000
1000
0000
0000
0000
0001
0000
0000
0000
1000
0000
0000
0000
0001
0000
0000
0000
,
0100
0000
0001
0000
1000
0000
0100
0000
0010
0000
0001
0000
1000
0000
0100
1000
0100
0000
0010
0000
0001
0000
0100
0000
,
0010
0000
1000
0001
1000
0000
0010
0000
0100
0000
0001
0000
1000
0000
0100
0010
0100
0000
0001
0000
1000
0000
0100
0000
,
0010
0000
0001
0100
0001
0000
1000
0000
0010
0000
0100
0000
0001
0000
1000
0001
1000
0000
0100
0000
0010
0000
0001
0000
,
1000
0000
0010
0100
0010
0000
1000
0000
0100
0000
0010
0000
0001
0000
0010
0001
0010
0000
0100
0000
0000
0000
1100
0000
,
0000
0000
0011
0000
0000
0000
0100
0000
0010
0000
1000
0000
0001
0000
0100
0010
0100
0000
0001
0000
1000
0000
0100
0000
,
0010
0001
0010
0100
1000
0100
1000
0001
1000
0010
0100
0010
,
1000
0000
0010
0000
1000
0000
0001
0000
0100
0000
0010
0000
1000
0000
0100
1000
0100
0000
0010
0000
0001
0000
0001
0000
,
1000
0000
0010
0000
0010
0000
0100
0000
0001
0000
1000
0000
0100
0000
0010
0001
0010
0000
0100
0000
1000
0000
1000
0000
,
0100
0000
1000
0000
1000
0000
0001
0000
0100
0000
0001
0000
1000
0000
0100
0010
0001
0000
1000
0000
0010
0000
1000
0000
,
0001
0000
1000
0010
0100
0000
0001
0000
1000
0000
0001
0000
0010
0000
0100
1000
0001
0000
0100
0000
0010
0000
0100
0000
,
0001
0000
1000
0100
0010
0000
0100
0000
1000
0000
0100
0000
0010
0000
0001
0010
0100
0000
1000
0000
0010
0000
1000
0000
,
0100
0000
0010
0001
1000
0000
0010
0000
1000
0000
0010
0000
0100
0000
0001
1000
0100
0000
0010
0000
0000
0000
0110
0000
,
0000
0000
1100
0000
0000
0000
0001
0000
1000
0000
0001
0000
0010
0000
0100
1000
0001
0000
0100
0000
0010
0000
0100
0000
,
0001
1000
0001
0010
0100
0010
0001
0100
0001
1000
0100
1000
,
0010
0000
0100
0000
0010
0000
1000
0000
0100
0000
0100
0000
1000
0000
0010
0100
0001
0000
0010
0000
0001
0000
0001
0000
,
1000
0000
0001
0000
0001
0000
0100
0000
0010
0000
0010
0000
0100
0000
0010
1000
0001
0000
1000
0000
0100
0000
0100
0000
,
1000
0000
0000
0000
0100
0000
0000
0000
0100
0000
0000
0000
2001
0000
0000
0000
0000
0000
0000
0000
0000
0000
0000
0000
0010
0000
0000
0000
0000
0000
0001
0000
0000
3000
0000
0000
0110
0000
0000
0000
0000
0000
0000
0000
0000
0000
0000
0000
,
1000
0000
0010
0000
0101
0000
0000
1000
0010
0000
0010
0000
0101
0000
0000
0000
,
1000
0000
0100
1000
0100
0000
0000
0000
0020
0000
0032
0000
0023
0000
0230
0000
,
2300
3010
0120
0000
1030
0010
1002
0000
,
1003
0000
0001
0000
0002
0000
0003
0001
0000
0000
0001
0000
2010
0000
0000
3000
,
0200
0000
0310
0100
0020
0000
0230
0000
0302
0000
0000
0003
1100
0000
0000
0000
,
0110
0000
0000
0000
0012
0000
0000
0000
1000
0000
0100
0003
0110
0000
0000
0000
,
1000
0000
0000
0100
0000
0000
0100
0000
0000
0010
0001
0010
0001
0000
0000
0001
0000
0000
1001
0000
0000
0000
0000
0000
,
1000
0000
0001
0000
1000
0000
0001
0000
0000
0000
0000
0000
0110
0000
0000
0000
0000
0000
1000
0000
0000
1100
0000
0000
,
1100
0011
0011
1000
0010
0100
0001
0110
,
0110
0101
0110
1000
1001
0010
0100
0101
,
0101
1010
0100
1001
1001
1100
0010
0110
,
0110
0000
0101
0000
0210
0000
0000
0300
2010
0000
0000
0000
3001
0000
0001
0010
,
0100
0000
1000
0100
0010
0000
0001
0010
0100
0000
1000
0100
0010
0000
0001
0100
,
0010
0000
1000
0010
0100
0000
0001
0100
0010
0000
1000
0001
0100
0000
0101
0000
,
0101
0011
0100
1010
1010
0101
1000
0110
,
0110
1100
1100
0001
0010
0100
1001
0000
,
1001
0000
0000
0000
0000
0000
0000
0000
0000
0000
0000
0000
0100
0000
0000
0000
0000
0000
0010
0000
0000
0000
0000
0000
2000
0000
0000
0000
0000
0000
0000
0000
0000
3000
0000
0000
0001
0000
0000
0000
0010
0000
0000
0000
0100
0000
0000
0000
,
1000
0000
0100
1000
0100
0000
0010
0000
0100
0000
1000
0000
0010
0000
0100
0001
0100
0000
0010
0000
1000
0000
0001
0000
,
0100
0000
0010
1000
0010
0000
0100
0000
0001
0000
0010
0000
0100
0000
1000
0001
1000
0000
0100
0000
0010
0000
0001
0000
,
0010
0000
0100
1000
0100
0000
0010
0000
0001
0000
1000
0000
0010
0000
0100
0001
0100
0000
0010
0000
1000
0000
0001
0000
,
0100
0000
0010
1000
0010
0000
1000
0000
0000
0000
1100
0000
0000
0000
0101
0000
0000
0000
0010
0000
0100
0000
1000
0000
,
0001
0000
0100
0010
0100
0000
0001
0000
0010
0000
0100
0000
1000
0000
0100
0000
1000
0000
0100
0000
0010
0000
0100
0000
,
0010
0001
0010
0001
1000
0001
0100
0001
0100
0010
1000
1000
,
0010
0000
0100
0001
0100
0000
0001
0000
0010
0000
0010
0000
0100
0000
1000
0000
1000
0000
0100
0000
0010
0000
0010
0000
,
0100
0000
0010
0001
0010
0000
0100
0000
1000
0000
1000
0000
0100
0000
1000
0000
1000
0000
0001
0000
0100
0000
0001
0000
,
0010
0000
0100
1000
0001
0000
0100
0000
0010
0000
0100
0000
0001
0000
1000
0100
0010
0000
0100
0000
1000
0000
0100
0000
,
0010
0000
0001
0010
0100
0000
1000
0000
0010
0000
1000
0000
0001
0000
0100
0010
1000
0000
0010
0000
0100
0000
0010
0000
,
1000
0000
0100
0010
0001
0000
0010
0000
0100
0000
0010
0000
0001
0000
1000
0100
0010
0000
0100
0000
1000
0000
0100
0000
,
0010
0000
0001
0100
0010
0000
1000
0000
0000
0000
0110
0000
0000
0000
0101
0000
0000
0000
1000
0000
0100
0000
0100
0000
,
1000
0000
0100
0010
0001
0000
1000
0000
0001
0000
0001
0000
1000
0000
0010
0000
1000
0000
0001
0000
0100
0000
0001
0000
,
0010
0100
0010
0100
1000
0100
1000
0001
1000
0001
0100
0100
,
0001
0000
0100
0001
0010
0000
0100
0000
1000
0000
1000
0000
0010
0000
0100
0000
0100
0000
0001
0000
0010
0000
0010
0000
,
0001
0000
0010
0001
1000
0000
0100
0000
1000
0000
1000
0000
0100
0000
1000
0000
1000
0000
0012
0000
0000
0000
0000
0000
,
0100
0000
1000
0003
1010
0000
0000
0000
1000
0000
2000
0000
0001
0000
3000
1000
,
0001
0000
0001
0000
0120
0000
0000
0030
0200
0000
1300
0001
1000
0000
0000
0000
,
0020
0000
2030
0000
3210
0000
0302
0000
2003
0000
0100
3000
1002
0000
0000
0003
,
2000
0000
3100
0000
0110
0000
0000
0000
0010
0000
0020
0000
0130
0000
0000
0100
,
0000
0000
0100
0000
2001
0000
0000
0000
3200
0000
0310
0001
0020
0000
0230
0000
,
2300
0000
0001
3000
0101
0000
0000
0000
0110
0000
0000
0000
2010
0000
0000
0000
,
0001
0000
0000
0000
0000
0000
0100
0000
0000
3000
0000
0000
0011
0000
0000
0000
0000
0000
0000
0000
0000
0000
0000
0000
1000
0000
0000
0000
0000
0000
0001
0000
0000
0000
0000
0000
0001
0000
0000
0000
0000
0000
0100
0000
0010
0000
0100
0000
,
0010
0000
0000
0010
0000
0000
0110
0000
0000
0000
0000
0000
0001
0000
1000
0000
0001
0000
1000
0000
0000
0000
0000
0000
,
1001
0000
0001
0110
0110
1010
1010
0100
,
0010
0001
1000
0011
0011
0110
0011
1000
,
1001
0010
0100
0101
0101
1001
0010
0101
,
0101
0000
1100
0000
0001
0000
1010
0000
1010
0000
0110
0000
2010
0000
0000
3000
,
0012
0000
0000
0003
1000
0000
1000
0010
0100
0000
0100
0010
1000
0000
1000
0010
,
0100
0000
0100
0010
1000
0000
1000
0001
0010
0000
0010
0001
1000
0000
1000
0001
,
0010
0000
0010
0001
1000
0000
1100
0000
1100
0000
0110
0000
0001
0000
0101
0000
,
0101
1100
0010
1010
1010
0011
0011
0100
,
1000
0010
0110
0000
0110
0000
0100
0001
,
0020
0000
0000
0030
1100
0000
0000
0000
1100
0000
0000
0000
0010
0000
0001
0000
,
0200
0000
0000
0300
1010
0000
0000
0000
1010
0000
0000
0000
0001
0000
1000
0000
,
0020
0000
0000
0030
0012
0000
0000
0000
0010
0000
0000
0003
2200
0000
0000
0000
,
0000
0000
0000
3300
1001
0000
0000
0000
1001
0000
0000
0000
0100
0000
0010
0000
,
2000
0000
0000
3000
0011
0000
0000
0000
0011
0000
0000
0000
0100
0000
0010
0000
,
0200
0000
0000
0300
2020
0000
0000
3030
1010
0000
0000
0000
1000
0000
0001
0000
,
0010
0000
0100
1000
0002
0000
0000
0003
0101
0000
0000
0000
0020
0000
0230
0000
,
2300
0000
0000
3000
0110
0000
0000
0000
0220
0000
0330
0000
0101
0000
0110
0000
,
2010
0000
0000
3001
0001
0010
0000
0100
0100
1000
0000
0010
,
0010
0100
0000
1001
0000
0000
0000
0000
0000
0000
0000
0000
;

//---------------dance-single - ----------------
#NOTES:
     dance-single:
     :
     Easy:
     7:
     0.587,0.590,0.348,0.876,0.328,606.000,73.000,184.000,0.000,0.000:
0000
0000
0000
0002
,
0000
0023
0000
0230
,
0000
2300
0000
3020
,
0000
0000
2000
3000
0200
0300
2030
0000
,
3200
0320
0032
0203
,
0000
0320
0230
0302
,
0000
2003
0000
3002
,
0203
0320
2030
3200
,
0000
0000
0000
0000
0000
0000
0000
0000
0000
0000
0000
0300
0200
0000
0000
0000
,
0320
0032
0000
0000
,
0000
0000
0000
0003
1100
0000
0000
0000
1100
0000
0000
0000
0001
0000
0100
0000
,
0020
0000
0000
0030
0101
0000
0000
0000
0101
0000
0000
0000
0010
0000
1000
0000
,
0200
0000
0000
0300
1001
0000
0000
0000
1001
0000
0000
0000
0100
0000
0001
0000
,
0020
0000
0000
0030
2200
0000
0000
0000
0000
0000
0000
3300
0022
0000
0000
0000
,
0000
0000
0000
0033
0120
0000
0000
0030
0110
0000
0000
0000
1000
0000
0100
0000
,
0020
0000
0000
0030
0011
0000
0000
0000
0011
0000
0000
0000
1000
0000
0010
0000
,
2000
0000
0000
3000
0220
0000
0000
0330
0110
0000
0000
0000
0100
0000
0001
0000
,
1000
0000
0100
0000
2002
0000
0000
3003
1001
0000
0000
0000
2000
0000
3020
0000
,
0230
0000
0000
0300
0011
0000
0000
0000
0011
0000
0000
0000
1100
0000
0001
0000
,
0200
0000
0000
0300
1001
0000
0000
0000
1001
0000
0000
0000
1010
0000
0001
0000
,
0200
0000
0000
0300
0011
0000
0000
0000
0011
0000
0000
0000
1100
0000
0001
0000
,
0020
0000
0000
0030
2002
0000
0000
0000
0000
0000
0000
3003
0220
0000
0000
0000
,
0000
0000
0000
0330
0101
0000
0000
0000
0101
0000
0000
0000
1001
0000
0100
0000
,
0020
0000
0000
0030
1010
0000
0000
0000
1010
0000
0000
0000
0101
0000
1000
0000
,
0002
0000
0000
0003
0220
0000
0000
0330
0110
0000
0000
0000
1100
0000
0001
0000
,
0010
0000
0100
0000
2002
0000
0000
3003
1001
0000
0000
0000
0020
0000
0230
0000
,
0302
0000
0000
0003
1100
0000
0000
0000
1100
0000
0000
0000
0200
0000
0302
0000
,
0023
0000
0000
0000
0000
0000
0000
0000
0000
0030
0000
0000
0100
0000
0000
0000
1000
0000
0000
0000
0100
0000
0000
0000
2000
0000
0000
0000
0000
0000
0000
0000
0000
0000
0000
0000
3001
0000
0000
0000
0100
0000
0000
0000
0001
0000
0000
0000
,
0200
0000
0000
0310
1000
0010
2000
0000
0000
3100
0010
0100
,
0020
0000
0000
0031
1000
0001
2000
0000
0000
3100
0010
0100
,
0020
0000
0000
0031
0100
0001
0200
0000
0000
0310
0000
1000
,
0000
0100
0000
0010
0001
0010
0002
0000
0000
0103
0010
0100
,
0002
0023
0230
2300
,
3002
0000
0000
0103
0010
0100
0020
0000
0000
1030
0100
1000
,
0001
0100
0001
0010
0100
0010
0200
0000
0000
1300
0001
1000
,
0001
1000
0001
1000
0100
0010
0002
0000
0000
1003
0010
0100
,
0002
0000
0000
1003
0100
0010
0002
0000
0000
1003
0010
0100
,
0002
0000
0000
0013
0100
1000
0002
0000
0000
1003
0001
0010
,
0200
0000
0000
0310
0100
1000
0002
0000
0000
0103
0000
0100
,
0000
1000
0000
0010
0100
0001
0020
0000
0000
0031
0100
0010
,
2000
3020
0230
0302
,
2003
0000
0000
3100
0010
0001
2000
0000
0000
3001
0100
0001
,
1000
0100
1000
0010
0100
0010
2000
0000
0000
3001
0010
0001
,
0010
0000
0001
0000
0010
0000
0200
0000
0000
0000
0000
0000
1300
0000
0000
0001
0000
0000
2000
0000
0000
0000
0000
0000
,
3010
0200
0000
0000
0301
0020
0000
0000
,
0230
0000
0300
0000
1000
0001
1000
0001
,
0200
0000
0000
0300
1001
0000
0000
0000
0010
0000
0001
0000
0020
0000
0000
0000
,
0130
0000
2000
0000
0000
0000
0000
0000
3002
0000
0000
0003
1100
0000
0000
0000
,
0010
0000
0100
0000
0010
0000
0100
0000
0002
0000
0000
0003
0110
0000
0000
0000
,
1010
0012
0100
1000
,
2003
0000
3010
0100
0010
1000
0100
0000
,
0100
0000
0010
0000
0100
0000
0010
0000
0000
0000
0000
0000
1001
0000
0000
0000
0000
0000
0010
0000
0000
1000
0000
0000
,
0001
0010
0200
0000
0010
0300
0001
0010
,
0100
1000
0020
0000
0230
0000
0301
1000
,
0001
0010
0001
1000
0001
0100
0010
1000
,
0010
0100
0002
0000
0023
0000
0130
1000
,
0001
0010
0002
0000
1000
0003
0100
0010
,
1000
0100
2000
0000
3002
0000
0103
0010
,
1000
0001
0100
0010
1000
0100
1000
0100
,
0010
0001
2000
0000
3001
0000
0110
0000
,
0110
0000
0000
0000
0000
0000
0000
0000
0000
0000
0000
0000
0001
0000
0000
0000
0000
0000
0100
0000
0000
0000
0000
0000
0020
0000
0000
0000
0000
0000
0000
0000
0000
0030
0000
0000
0100
0000
0000
0000
0001
0000
0000
0000
0100
0000
0000
0000
,
0002
0000
0000
1003
0100
1000
0200
0000
0000
1300
0010
1000
,
0020
0000
0000
0130
0001
0100
0002
0000
0000
0013
0100
0010
,
0200
0000
0000
1300
0001
1000
0002
0000
0000
0103
0010
0100
,
0020
0000
0000
1030
0000
1000
0000
0100
0000
0010
0001
0010
,
0002
0000
0000
1003
0100
1000
0020
0000
0000
0230
0000
0000
,
0302
0000
0000
2003
0000
0000
3020
0000
0000
0130
0010
0100
,
0020
0000
0000
1030
0100
1000
0001
0100
0001
0010
0100
0010
,
0200
0000
0000
1300
0001
1000
0001
1000
0001
0100
0010
1000
,
0002
0000
0000
0013
0100
1000
0002
0000
0000
0103
0010
1000
,
0002
0000
0000
0013
0100
1000
0002
0000
0000
0013
0001
1000
,
0200
0000
0000
1300
0010
0100
0002
0000
0000
0013
0001
1000
,
0200
0000
0000
0310
0000
0010
0000
0001
0000
0100
0010
1000
,
0002
0000
0000
0103
0010
1000
0002
0000
0000
0023
0000
0000
,
0230
0000
0000
2300
0000
0000
3020
0000
0000
0130
0001
1000
,
0200
0000
0000
0310
0001
0010
0100
1000
0100
0010
0001
1000
,
0020
0000
0000
0130
0001
0100
0001
0100
0001
2000
0000
0000
,
3001
0100
0002
0000
0013
0200
0000
0000
,
1300
0020
0000
0000
0230
0000
0301
0000
,
1000
0000
0100
0000
1000
0000
0001
0000
0200
0000
0000
0300
2002
0000
3003
0000
,
0010
0100
0020
0000
0031
2000
0000
0000
,
3010
0100
2002
3003
0010
0001
0010
0100
,
2000
0000
0000
3000
0101
0000
0000
0000
0110
0000
0000
0000
2010
0000
0000
0000
,
0100
0000
0010
0000
3002
0000
0013
0100
,
0020
0000
0000
0130
0000
0000
1000
0001
1000
0001
0000
0000
,
0110
0000
0001
0100
0010
1000
0020
0000
,
0100
0030
0001
1000
0010
1000
0020
0000
,
0230
0000
0301
0010
0100
0010
0001
0100
,
0010
0100
0001
1000
0100
0010
0200
0000
,
2300
0000
3010
0100
0001
0010
0002
0000
,
1000
0003
0100
0010
1000
0010
0200
0000
,
0302
0000
0013
0100
1000
0100
0010
0001
,
1000
0001
0100
0010
1000
0100
0020
0000
,
0031
0000
1100
0000
1100
0000
0001
0100
,
0020
0000
0000
0030
0101
0000
0000
0000
0101
0000
0000
0000
1000
0000
0010
0000
,
0200
0000
0000
0300
1001
0000
0000
0000
1001
0000
0000
0000
0100
0000
0010
0000
,
2000
0000
0000
3000
0220
0000
0000
0000
0000
0000
0000
0330
0022
0000
0000
0000
,
0000
0000
0000
0033
1100
0000
0000
0000
1100
0000
0000
0000
0100
0000
0001
0000
,
0020
0000
0000
0030
1001
0000
0000
0000
1001
0000
0000
0000
0010
0000
1000
0000
,
0020
0000
0000
0030
0202
0000
0000
0303
0101
0000
0000
0000
1000
0000
0100
0000
,
0010
0000
0100
0000
2002
0000
0000
3003
1001
0000
0000
0000
0020
0000
0230
0000
,
2300
0000
0000
3000
0101
0000
0000
0000
0101
0000
0000
0000
1000
0000
0100
0000
,
0020
0000
0000
0031
1000
0001
0000
1000
0001
1000
0000
0001
,
1000
0001
0000
1001
0000
0000
0000
0000
0000
0000
0000
0000
;

//---------------dance-single - ----------------
#NOTES:
     dance-single:
     :
     Beginner:
     5:
     0.458,0.418,0.505,0.605,0.024,441.000,106.000,127.000,0.000,0.000:
0000
0000
0000
2000
,
0000
3200
0000
0320
,
0000
0032
0000
2003
,
0000
0000
0000
3020
,
0000
0000
0230
0302
,
0000
0023
0230
2300
,
0000
3002
0000
2003
,
3200
0320
0032
0203
,
0000
0320
0000
2030
,
3020
0230
0000
0000
,
0000
0000
0000
0300
1001
0000
0000
0000
1001
0000
0000
0000
0100
0000
0001
0000
,
0020
0030
1001
0000
1001
0000
0010
0100
,
0002
0003
1001
0000
1001
0000
0100
0010
,
2000
3000
0002
0000
0000
0000
0023
0000
,
0000
0000
0000
0030
1100
0000
0000
0000
1100
0000
0000
0000
0001
0000
0100
0000
,
0020
0030
0110
0000
0110
0000
0001
1000
,
0002
0003
0101
0000
0101
0000
1000
0100
,
0020
0030
0101
0000
0101
0000
1000
0010
,
0200
0300
1001
0000
1001
0000
0100
0001
,
0020
0030
1001
0000
1001
0000
0010
0100
,
0002
0003
1001
0000
1001
0000
0100
0010
,
2000
3000
0002
0000
0000
0000
0023
0000
,
0000
0000
0000
0030
1010
0000
0000
0000
1010
0000
0000
0000
0100
0000
0001
0000
,
2000
3000
0101
0000
0101
0000
1000
0010
,
2000
3000
0011
0000
0011
0000
0100
0010
,
2000
3000
1100
0000
1100
0000
0010
0001
,
0200
0300
1001
0000
1001
0000
0100
0001
,
0020
0030
1100
0000
1000
0000
1100
0000
,
1000
1100
0020
0032
,
2003
3000
0101
0000
0001
0000
0101
0000
,
0001
0000
0000
0101
0000
0000
0001
0000
0000
0101
0000
1000
,
0000
0001
0000
1001
0000
0000
1000
0000
0000
1001
0000
0000
,
2000
3020
0230
0302
,
2003
0000
0000
3000
1001
0000
0000
0000
0001
0000
0000
0000
0101
0000
0000
0000
,
1000
1010
0010
1010
,
0010
0110
0100
0110
,
0100
0110
0020
2030
,
3200
0000
0000
0300
0011
0000
0000
0000
0001
0000
0000
0000
0011
0000
0000
0000
,
0001
0000
0000
0011
0000
0000
0001
0000
0000
0011
0000
0001
,
0000
1000
0000
1100
0000
0000
1000
0000
0000
1100
0000
0000
,
2000
3002
0023
0230
,
2300
0000
0000
3000
0101
0000
0000
0000
0100
0000
0000
0000
1100
0000
0000
0000
,
0001
0011
0010
0011
,
0010
0000
2000
0000
3001
0100
0002
0003
,
1000
0020
0000
0030
1000
0200
0000
0300
,
0001
0000
1000
0000
0001
0010
0001
0010
,
0200
0300
1001
0000
1000
0100
2000
3000
,
0001
0020
0000
0030
0200
0000
0310
0000
,
0001
1000
0001
1000
0200
0300
1001
0000
,
0010
2000
0000
0000
,
3200
0000
0310
0001
0010
0000
0100
0000
,
1000
0020
0030
0000
1001
0000
0000
0001
,
1000
0010
2000
0000
0000
3000
0000
0100
,
0010
1000
0020
0000
0230
0000
0300
0001
,
0010
0001
0000
1000
0100
1000
0000
0010
,
0100
0010
0200
0000
0302
0003
0000
1000
,
0100
0010
0200
0000
0000
0300
0000
0010
,
0001
1000
0002
0000
0203
0300
0000
0010
,
1000
0010
0000
0100
0001
0100
0000
1000
,
0001
1000
0200
0000
0300
0000
1001
0000
,
1001
0000
0100
0001
0020
0030
1100
0000
,
0100
1100
0100
1100
,
0002
0000
0000
0000
0023
0000
0000
0000
0230
0000
0000
0300
1001
0000
0000
0000
,
0001
1001
0001
1001
,
0001
0000
0000
1001
0000
0001
0000
0100
0000
1010
0000
0000
,
1000
1010
2000
3002
,
0203
0000
0000
0000
0320
0000
0000
0000
2030
0000
0000
3000
0110
0000
0000
0000
,
0010
0101
0010
1001
,
0001
1001
0001
1100
,
1000
1100
1000
1100
,
0020
0000
0000
0000
2030
0000
0000
0000
3200
0000
0000
0300
0011
0000
0000
0000
,
0001
0011
0001
0011
,
0001
0000
0000
0011
0000
0001
0000
1000
0000
0110
0000
0000
,
0010
0110
2000
3200
,
0320
0000
0000
0000
0032
0000
0000
0000
0023
0000
0000
0030
1100
0000
0000
0000
,
0100
0110
0100
0011
,
0001
0011
0001
0200
,
1300
0001
2000
3000
0010
0200
0000
0300
,
0001
0020
0000
0030
0200
0300
0000
0000
,
1000
0010
1000
0010
0200
0300
0011
0000
,
1000
0100
2000
3000
0010
0200
0000
0300
,
0001
2000
3100
0000
0010
0001
0010
0001
,
2000
3001
0100
0020
,
0000
0000
0000
0000
2030
0000
3001
0010
,
0002
0003
0100
0000
0010
0200
0300
0000
,
1001
0000
0000
0100
0010
1000
0020
0000
,
0000
0030
0000
1000
0001
0100
0002
0000
,
0023
0000
0030
1000
0100
1000
0000
0010
,
0100
0010
0000
0001
1000
0100
2000
0000
,
3020
0030
0000
0100
0001
0010
0002
0000
,
1000
0003
0000
0010
0100
0001
0200
0000
,
0320
0030
0000
0100
0001
0100
0000
1000
,
0100
1000
0000
0010
0100
0010
2000
0000
,
3001
0000
0110
0000
0110
0000
1000
0001
,
0020
0030
0110
0000
0110
0000
0010
0100
,
2000
3000
0110
0000
0110
0000
1000
0001
,
0200
0300
0020
0000
0000
0000
2030
0000
,
0000
0000
0000
3000
1100
0000
0000
0000
1100
0000
0000
0000
0100
0000
0001
0000
,
0020
0030
0011
0000
0011
0000
1000
0010
,
2000
3000
1010
0000
1010
0000
0100
0001
,
0020
0030
1100
0000
1100
0000
0001
0010
,
0200
0300
1001
0000
1001
0000
0100
0010
,
2000
0000
0000
0001
0000
0000
0000
0001
0000
0000
0000
0001
,
0000
0000
0000
3000
0110
0000
0000
0000
0000
0000
0000
0000
0000
0000
0000
0000
;
