#TITLE:The reviving nightmare;
#SUBTITLE:[ATMBZK SELF REMIX];
#ARTIST:ATMBZK;
#TITLETRANSLIT:;
#SUBTITLETRANSLIT:;
#ARTISTTRANSLIT:;
#CREDIT:;
#BANNER:trn_remake.png;
#BACKGROUND:trn_remake-bg.png;
#LYRICSPATH:;
#CDTITLE:cdtitle.png;
#MUSIC:trn_remake.mp3;
#OFFSET:-0.050;
#SAMPLESTART:13.300;
#SAMPLELENGTH:12.000;
#SELECTABLE:YES;
#BPMS:0.000=125.000;
#STOPS:;
#BGCHANGES:;
// cache tags:
#FIRSTBEAT:16.000;
#LASTBEAT:229.750;
#SONGFILENAME:Songs/Japanese Collaboration Mix/trn_remake/trn_remake.sm;
#HASMUSIC:1;
#HASBANNER:1;
#MUSICLENGTH:118.177;
// end cache tags

//---------------dance-single - Copied from----------------
#NOTES:
     dance-single:
     Copied from:
     Hard:
     8:
     0.485,0.462,0.338,0.178,0.212,340.000,40.000,21.000,0.000,0.000:
0000
0000
0000
0000
,
0000
0000
0000
0000
,
0000
0000
0000
0000
,
0000
0000
0000
0000
,
1000
0000
0000
0000
1000
0000
0000
1000
0000
0010
0000
0100
0001
0000
0000
0000
,
0001
0000
0000
0000
0001
0000
0000
0001
0000
0100
0000
0010
1000
0000
0000
0000
,
0100
0000
0000
0000
0100
0000
0000
0100
0000
0010
0000
0100
1000
0000
0000
0000
,
0010
0000
0000
0000
0010
0000
0000
0010
0000
0100
0000
0010
1000
0010
1000
0010
,
1000
0100
1100
0000
0100
0010
0110
0000
,
0100
1000
0010
0100
0001
0010
0100
0000
,
0001
0100
0110
0000
1000
0001
0101
0000
,
0010
0001
0010
0100
0010
0100
1000
0000
,
0011
0001
0001
0000
1001
1000
1000
0000
,
0100
0100
0010
0010
0100
1000
0001
0000
,
0010
0000
1001
0000
0100
0010
0001
0000
,
0100
0010
1000
0100
0110
0000
1001
0000
,
0100
1000
0010
0000
0100
0100
0110
0000
,
0010
0001
0010
1000
0100
0000
1001
0000
,
0010
0100
1000
0100
0010
0001
0010
0000
,
0110
0100
0110
0010
0110
0000
1001
0000
,
1000
0100
0010
0001
0010
0001
0100
0000
,
0101
1010
1001
0110
,
1000
0100
1000
0010
1000
0100
1000
0000
,
1001
0000
0000
0000
0110
0000
0000
0000
0001
1000
0000
0010
0000
0100
0000
0001
,
0200
0010
0010
0000
0010
0000
0010
0000
,
0320
1000
1000
0000
1000
0000
1000
0000
,
2030
0100
0100
0000
0100
0000
0100
0000
,
3001
0000
1000
0000
0010
0000
0100
0010
0100
0010
0000
1000
0000
0001
0000
0000
,
1000
0000
0110
0000
1000
0010
0100
0000
,
0001
0100
0010
0000
1000
0010
0100
0000
,
0002
2003
3002
1003
,
0100
0010
0000
0100
0000
0010
0000
0100
0010
0100
0000
0010
0000
0100
0000
1000
,
0020
1030
2000
3010
,
0100
0001
0000
1000
0000
0001
0000
0100
0010
0100
0020
0000
0000
0000
0000
0000
,
0230
0301
2000
3010
,
1000
0100
1000
0000
0001
0000
0100
0000
0010
0000
0200
0000
0000
0000
0000
0000
,
0310
1001
0110
1001
,
0100
0010
0000
1000
0000
0001
0000
1000
0010
1000
0200
0000
0000
0000
0000
0000
,
0320
1000
1030
0000
0200
0001
0301
0000
,
1001
0000
0000
0000
0110
0000
0000
0000
1000
0000
0001
0000
0100
0010
0100
0010
,
0100
0000
0110
0000
1000
0010
0100
0001
,
0100
0000
0110
0000
0001
0100
0010
1000
,
0100
0100
0110
0000
1000
0001
0100
0010
,
1000
0100
0010
0001
0010
0100
1000
0010
,
0200
0000
0310
0000
0100
0010
1000
0000
,
0100
0010
0100
1000
0010
0100
0001
0000
,
0100
1000
0100
1000
0100
0010
0001
0000
,
0001
0000
0000
0000
0000
0000
0100
0000
0000
0000
0000
0000
0010
0000
0000
0000
0000
0000
1000
0000
0000
0001
0000
0000
1000
0000
0000
0001
0000
0000
1000
0000
0000
0001
0000
0000
0000
0000
0000
0000
0010
0000
0000
0000
0000
0000
0000
0000
,
0200
1000
1300
0000
2000
0100
3100
0000
,
0200
0010
0310
0000
0020
0001
0031
0000
,
0101
0110
1010
0110
,
2001
0100
0010
0001
,
3100
0000
0011
0000
0100
1000
0100
0000
,
0010
1000
0100
0010
0100
1000
0100
0000
,
0010
0100
0001
1000
0100
0010
0001
0000
,
0010
0000
1000
0000
0100
0000
0010
0000
0001
0000
1000
0000
0010
0100
0010
0100
,
0001
1000
1001
0000
0010
0100
0110
0000
,
1001
0000
0000
0000
0110
0000
0100
0010
0000
0000
0000
0000
0000
0000
0000
0000
;
