#TITLE:EMP Cloud;
#SUBTITLE:(Experimental);
#ARTIST:Kobaryo;
#TITLETRANSLIT:;
#SUBTITLETRANSLIT:;
#ARTISTTRANSLIT:;
#CREDIT:Owem;
#BANNER:;
#BACKGROUND:;
#LYRICSPATH:;
#CDTITLE:;
#MUSIC:Kobaryo - EMP Cloud.ogg;
#OFFSET:-0.072;
#SAMPLESTART:97.786;
#SAMPLELENGTH:29.999;
#SELECTABLE:YES;
#BPMS:0.000=175.000;
#STOPS:;
#BGCHANGES:;
// cache tags:
#FIRSTBEAT:1.500;
#LASTBEAT:777.500;
#SONGFILENAME:Songs/Owem's Simfiles 08 - 1.2/EMP Cloud - [Owem] v1.0.5/EMP Cloud.sm;
#HASMUSIC:1;
#HASBANNER:0;
#MUSICLENGTH:268.408;
// end cache tags

//---------------dance-single - 14 (Owem)----------------
#NOTES:
     dance-single:
     14 (Owem):
     Challenge:
     14:
     1.000,1.000,0.045,0.496,1.000,2204.000,12.000,133.000,2.000,1.000:
0000
0000
0000
0000
0000
0000
2000
0000
0000
3002
0000
0000
0103
0010
0000
1000
,
0001
0000
0020
0000
0000
0130
1000
0002
0000
0013
0200
0000
0000
2300
0000
0000
,
3010
0100
0001
1000
0001
0100
0010
1000
0100
0010
0000
0001
1000
0001
1000
0100
,
0020
0000
0000
0034
1003
0000
0200
0000
0000
0340
0000
0000
0031
1000
0100
1000
,
0001
0000
0000
0000
0000
0000
0000
0000
0000
0000
0010
0000
0000
0000
0000
0000
0000
0000
0000
0100
0000
0000
0000
0000
0000
0000
0000
0000
0000
1000
0000
0000
0000
0000
0000
0000
0000
0000
0001
0000
0000
0000
0000
0000
0000
0000
0000
0000
2000
0000
0000
0000
0000
0000
0000
0000
0000
0000
0000
0000
0000
0000
0000
0000
0000
0000
0000
0000
0000
0000
0000
0000
0000
0000
0000
0000
0000
0000
0000
0000
0000
0000
0000
0000
3002
0000
0000
0000
0000
0000
0000
0000
0000
0000
0000
0000
0000
0000
0000
0000
0000
0000
0000
0000
0000
0000
0000
0000
0000
0000
0000
0000
0000
0000
0000
0000
0000
0000
0000
0000
0203
0000
0000
0000
0000
0000
0000
0000
0000
0000
0000
0000
0000
0000
0000
0000
0000
0000
0000
0000
0000
0000
0000
0000
0310
0000
0000
0000
0000
0000
0000
0000
0000
0000
0000
0000
2000
0000
0000
0000
0000
0000
0000
0000
0000
0000
0000
0000
0000
0000
0000
0000
0000
0000
0000
0000
0000
0000
0000
0000
3001
0000
0000
0000
0000
0000
0000
0000
0000
0000
0000
0000
,
0020
0000
0000
0000
0000
0000
0000
0000
0000
0000
0031
1000
0001
0100
0010
2000
,
0000
0000
3200
0000
0000
0320
0000
0030
0020
0000
0000
0032
0000
0003
0002
0000
,
2003
0000
0000
0000
0000
3020
0000
0230
0000
0000
0302
0000
2003
0000
0000
0000
,
0000
3100
0010
0001
2M00
0000
0000
0010
0000
0000
3020
0000
0130
0001
2000
0000
,
0000
0010
3000
0000
0200
0000
0310
2000
0000
3001
0100
0010
1000
0010
0100
0002
,
0000
1003
0100
0020
0001
0000
0000
0031
1000
0001
0100
0010
1000
0010
0100
0001
,
1000
0200
0000
0000
0000
0000
0000
0000
0000
0000
0340
0000
0000
0030
0000
0001
,
0000
0000
1000
0000
0001
0010
0001
0100
0020
0000
1030
0002
0000
0003
0000
0100
,
0000
0010
1000
0001
0200
0000
0310
2000
0000
3001
0010
0001
0100
0010
2000
0000
,
3100
0020
0000
0130
2000
0000
3200
0000
0000
0340
0000
0000
0031
0010
0000
0100
,
0000
1000
0000
0001
1000
0000
0010
0100
0001
1000
0100
0010
0200
0000
0000
2300
,
0000
0000
3100
0010
0002
0000
0000
0000
0000
0000
0203
0000
0000
0301
2000
0000
,
0000
0000
0000
0100
3000
0000
0000
0010
0000
0000
0000
0001
0000
0000
0000
1000
,
0001
1000
0000
0000
0010
0000
0200
0000
0000
0301
0040
0000
0230
0000
0000
0000
,
2300
0000
0000
0000
3002
0000
0000
0000
2003
0000
0000
3200
0000
0310
0002
0000
,
0013
0000
0000
0000
0000
0000
0000
0000
0000
0000
0100
0000
0000
0000
0000
0000
0000
0000
0000
1000
0000
0000
0000
0000
0000
0000
0000
0000
0000
0001
0000
0000
0000
0000
0000
0000
0000
0000
1000
0000
0000
0000
0000
0000
0000
0000
0000
0000
0100
0000
0000
0000
0000
0000
0000
0000
0000
0000
0000
0000
0000
0000
0000
0000
0000
0000
0000
0000
0000
0000
0000
0000
2000
0000
0000
0000
0000
0000
0000
0000
0000
0000
0000
0000
0000
0000
0000
0000
0000
0000
0000
0000
0000
0000
0000
0000
0000
0000
0000
0000
0000
0000
0000
0000
0000
0000
0000
0000
3200
0000
0000
0000
0000
0000
0000
0000
0000
0000
0000
0000
0000
0000
0000
0000
0000
0000
0000
0000
0000
0000
0000
0000
0300
0000
0000
0000
0000
0000
0000
0000
0000
0000
0000
0000
2000
0000
0000
0000
0000
0000
0000
0000
0000
0000
0000
0000
0000
0000
0000
0000
0000
0000
0000
0000
0000
0000
0000
0000
0000
0000
0000
0000
0000
0000
0000
0000
0000
0000
0000
0000
0000
0000
0000
0000
0000
0000
0000
0000
0000
0000
0000
0000
,
3020
0000
0000
0000
0000
0230
0300
0000
0002
0000
0000
0000
0000
0000
0000
0000
,
0000
0000
0000
0000
,
0000
0000
0000
2003
0000
0000
0000
0000
0000
0000
0000
0000
0000
0000
0000
0000
,
0000
3000
0001
1000
0001
0100
0010
1000
,
0010
0100
0010
1000
0001
0100
0001
1000
,
0100
0010
0001
1000
0100
1000
0010
0100
,
0010
1000
0001
0010
0100
0010
0001
1000
,
0100
1000
0001
1000
0010
0100
0010
1000
,
0001
1000
0100
0010
0001
1000
0100
1000
,
0001
0100
0010
1000
0010
0100
0001
1000
,
0100
0010
0001
1000
0100
1000
0001
0010
,
0100
0000
1000
0000
00M1
0000
0100
0010
1000
0000
0001
1000
0001
0000
0010
0100
,
1000
0000
0001
0100
0001
0000
1000
0001
0100
0000
0020
0000
1030
0001
1000
0001
,
0010
0000
0100
0000
1000
0000
0010
0100
0001
0000
1000
0100
1000
0000
0010
0100
,
0001
0000
4000
3010
0100
0000
0001
1000
0001
0000
0020
0000
0130
1000
0001
1000
,
0010
0000
0100
0000
0001
0000
0010
0100
1000
0000
0001
0100
0010
0000
1000
0010
,
1000
0000
0000
0000
0000
0000
0000
0000
0004
0000
0000
0000
0013
0000
0000
0000
0200
0300
0000
0000
0000
0000
0000
0000
1000
0000
0000
0000
0010
0000
0000
0000
0100
0000
0000
0000
0000
0000
0000
0000
0002
0000
0000
0000
1003
0000
0000
0000
0001
0000
0000
0000
0100
0000
0000
0000
0010
0000
0000
0000
1000
0000
0000
0000
,
0010
0000
0100
0000
0001
0000
1000
0100
1000
0000
0010
0100
0001
0000
1000
0100
,
1000
0000
0100
0010
0001
0000
1000
0010
0100
0000
0002
1003
0001
0100
0010
1000
,
0010
0000
0100
0000
0102
0000
1003
0100
1000
0000
0010
0100
0001
0000
1000
0100
,
0010
0000
0001
1000
0001
0000
0100
0010
1000
0000
0002
0013
0001
0100
0010
1000
,
0001
0000
0010
0000
0100
0000
1000
0001
1000
0000
0010
0100
0001
0000
1000
0100
,
1000
0000
0001
0010
0001
0000
1000
0100
0010
0000
0002
1003
0001
0100
0010
1000
,
0001
0000
0010
0000
0100
0000
1000
0100
1000
0000
0001
0100
0010
0000
1000
0010
,
1000
0000
0001
0010
0100
0000
1000
0010
0100
0000
0002
1003
0001
0100
0010
1000
,
0010
0000
0100
0000
0001
0000
1000
0100
1000
0000
0010
0100
0001
0000
1000
0100
,
1000
0000
0100
0010
0001
0000
1000
0010
0100
0000
0020
1030
0001
0100
0010
1000
,
0010
0000
0100
0000
0102
0000
1003
0100
1000
0000
0010
0100
0001
0000
1000
0100
,
0010
0000
0001
1000
0001
0000
0100
0010
1000
0000
0001
0010
0001
0100
0010
1000
,
0001
0000
0010
0000
0100
0000
1000
0001
1000
0000
0010
0100
0001
0000
1000
0100
,
1000
0000
0001
0010
0001
0000
1000
0100
0010
0000
0001
1000
0001
0100
0010
1000
,
0001
0000
0010
0000
0100
0000
0001
1000
0010
0000
0001
0100
0010
0000
1000
0010
,
1000
0000
0001
0100
0010
0000
1000
0100
0010
0000
0100
0010
0001
1000
0100
1000
,
0010
0000
0100
0000
0001
0000
1000
0100
1000
0000
0001
0100
0001
0000
1000
0010
,
0100
0000
0001
0010
0100
0000
1000
0001
1000
0000
0010
1000
0001
0100
0010
1000
,
0001
0000
0010
0000
0012
0000
0013
0100
1000
0000
0001
0100
0001
0000
1000
0100
,
0010
0000
0001
1000
0001
0000
0100
0010
1000
0000
0200
0310
0100
1000
0001
0010
,
0001
0000
0010
0000
0100
0000
1000
0001
1000
0000
0100
0010
0001
0000
1000
0100
,
0010
0000
0001
0010
0001
0000
1000
0100
0010
0000
0200
1300
0001
0100
0010
1000
,
0001
0000
0010
0000
0100
0000
1000
0001
0100
0000
0010
0100
0010
0000
0100
0001
,
1000
0000
0001
0010
0100
0000
1000
0010
0100
0000
0002
0103
0010
1000
0001
0010
,
0100
0000
1000
0000
0001
0000
1000
0100
1000
0000
0010
0100
0001
0000
1000
0100
,
0010
0000
0100
0010
0001
0000
1000
0010
0100
0000
0020
1030
0001
0010
0100
1000
,
0001
0000
1000
0000
1002
0000
0013
0100
1000
0000
0010
0100
0001
0000
1000
0100
,
0010
0000
0001
1000
0001
0000
0100
0010
1000
0000
0001
0010
0001
0000
0100
0010
,
1000
0000
0100
0010
0001
0000
1000
0001
1000
0000
0010
0100
0001
0000
1000
0100
,
1000
0000
0001
0010
0001
0000
1000
0100
0010
0000
0001
1000
0001
0000
0100
0010
,
4000
0000
3001
0100
0010
0000
1000
0001
1000
0000
0100
0010
0001
0000
1000
0100
,
0010
0000
0001
0100
0001
0000
1000
0100
0010
0000
0001
1000
0001
0000
0010
0100
,
1000
0000
0001
0100
0010
0000
1000
0001
1000
0000
0100
0010
0001
0000
1000
0010
,
1000
0000
0001
0010
0200
0000
0000
0000
0000
0000
0000
0000
0000
0000
0000
0000
,
0000
0000
0000
0000
1300
0001
1000
0010
0100
0001
1000
0100
0010
0001
1000
0001
,
0100
0010
1000
0001
0100
0001
1000
0010
1000
0001
1000
0100
0010
0100
1000
0001
,
0010
0001
0100
0010
1000
0001
0100
0001
1000
0010
1000
0100
0010
0100
1000
0001
,
0010
0001
0100
0010
1000
0001
0100
0001
1000
0001
0100
0010
1000
0001
1000
0100
,
0010
0100
1000
0001
0010
0001
1000
0100
1000
0001
0100
0001
1000
0010
0100
0010
,
1000
0001
0100
0001
0010
0100
1000
0001
1000
0100
0010
0100
1000
0001
0010
0001
,
0100
0010
1000
0001
0100
0001
1000
0100
0010
0100
1000
0001
0100
0001
0010
0100
,
1000
0001
1000
0010
0100
0001
0100
0010
1000
0001
0100
0001
0010
0100
1000
0001
,
1000
0010
0100
0001
1000
0001
0100
0001
0010
0100
0010
0001
1000
0100
1000
0001
,
0100
0010
1000
0001
0010
0100
1000
0001
0100
0001
0010
0100
0010
0001
1000
0100
,
1000
0001
0010
0100
0010
0001
0100
0010
1000
0001
1000
0100
0010
0001
0010
0100
,
1000
0001
0100
0010
1000
0001
0100
0001
0010
0100
0010
0001
1000
0010
0100
0010
,
1000
0001
0100
0001
0010
0100
1000
0100
0010
0001
1000
0001
0100
0010
1000
0001
,
0100
0001
0010
0100
1000
0001
1000
0010
0100
0001
1000
0010
1000
0100
0010
0001
,
0010
0100
1000
0001
0100
0001
1000
0010
1000
0001
0100
0010
0100
0001
1000
0010
,
1000
0100
0010
0001
0010
0100
1000
0001
0100
0001
0010
0100
0010
0001
1000
0100
,
1000
0001
0100
0010
1000
0001
0100
0001
0010
0100
1000
0100
0010
0001
1000
0001
,
0100
0010
1000
0001
0100
0001
1000
0010
1000
0001
1000
0100
0010
0100
1000
0001
,
0010
0001
0100
0010
1000
0001
0100
0001
1000
0010
1000
0100
0010
0100
1000
0001
,
0010
0001
0100
0010
1000
0001
0100
0001
1000
0001
0100
0010
1000
0001
1000
0100
,
0010
0100
1000
0001
0010
0001
1000
0100
1000
0001
0100
0001
1000
0010
0100
0010
,
1000
0001
0100
0001
0010
0100
1000
0001
1000
0100
0010
0100
1000
0001
0010
0001
,
0100
0010
1000
0001
0100
0001
1000
0100
0010
0100
1000
0001
0100
0001
0010
0100
,
1000
0001
1000
0010
0100
0001
0100
0010
1000
0001
0100
0001
0010
0100
1000
0001
,
1000
0010
0100
0001
1000
0001
0100
0001
0010
0100
0010
0001
1000
0100
1000
0001
,
0100
0010
1000
0001
0010
0100
1000
0001
0100
0001
0010
0100
0010
0001
1000
0100
,
0010
0001
0010
0100
1000
0001
1000
0001
0010
0100
0010
0001
0100
0010
1000
0001
,
1000
0100
0010
0001
0010
0100
1000
0001
0100
0010
1000
0001
0100
0001
0010
0100
,
0010
0001
1000
0010
0100
0010
1000
0001
0100
0001
0010
0100
1000
0100
0010
0001
,
1000
0001
0100
0010
1000
0001
0100
0001
0010
0100
1000
0001
1000
0010
0100
0001
,
1000
0010
1000
0100
0010
0001
0010
0100
1000
0001
0100
0001
1000
0010
1000
0001
,
0100
0010
0100
0001
1000
0010
1000
0100
0010
0001
0010
0100
1000
0001
0100
0001
,
0010
0100
0010
0001
1000
0100
1000
0001
0100
0010
1000
0001
0100
0001
0010
0100
,
1000
0100
0010
0001
1000
0001
0100
0010
1000
0001
0100
0001
1000
0010
1000
0001
,
1000
0100
0010
0100
1000
0001
0010
0001
0100
0010
1000
0001
0100
0001
1000
0010
,
1000
0100
0010
0100
1000
0001
0010
0001
0100
0010
1000
0001
0100
0001
1000
0001
,
0100
0010
1000
0001
1000
0100
0010
0100
1000
0001
0010
0001
1000
0100
1000
0001
,
0100
0001
1000
0010
0100
0010
1000
0001
0100
0001
0010
0100
1000
0001
1000
0100
,
0010
0100
1000
0001
0010
0001
0100
0010
1000
0001
0100
0001
1000
0100
0010
0100
,
1000
0001
0100
0001
0010
0100
1000
0001
1000
0010
0100
0001
0100
0010
1000
0001
,
0100
0001
0010
0100
1000
0001
1000
0010
0100
0001
1000
0001
0100
0001
0010
0100
,
0010
0001
1000
0100
1000
0001
0100
0010
1000
0001
0010
0100
1000
0001
0100
0001
,
0010
0100
1000
0100
0010
0001
1000
0100
1000
0001
0010
0100
0010
0001
0100
0010
,
1000
0001
1000
0100
0010
0001
0010
0100
1000
0001
0100
0010
1000
0001
0100
0001
,
0010
0100
0010
0001
1000
0010
0100
0010
1000
0001
0100
0001
0010
0100
1000
0100
,
0010
0001
1000
0001
0100
0010
1000
0001
0100
0001
0010
0100
1000
0001
1000
0010
,
0100
0001
1000
0010
1000
0100
0010
0001
0010
0100
1000
0001
0100
0001
1000
0010
,
1000
0001
0100
0010
0100
0001
1000
0010
1000
0100
0010
0001
0010
0100
1000
0001
,
0100
0001
0010
0100
0010
0001
1000
0100
1000
0001
0100
0010
1000
0001
0100
0001
,
0010
0100
1000
0100
0010
0001
1000
0001
0100
0010
1000
0001
0100
0001
1000
0010
,
1000
0001
1000
0100
0010
0100
1000
0001
0010
0001
0100
0010
1000
0001
0100
0001
,
1000
0010
1000
0100
0010
0100
1000
0001
0010
0001
0100
0010
1000
0001
0100
0001
,
1000
0001
0100
0010
1000
0001
1000
0100
0010
0100
1000
0001
0010
0001
1000
0100
,
1000
0001
0100
0001
1000
0010
0100
0010
1000
0001
0100
0001
0010
0100
1000
0001
,
1000
0100
0010
0100
1000
0001
0010
0001
0100
0010
1000
0001
0100
0001
1000
0100
,
0010
0100
1000
0001
0100
0001
0010
0100
1000
0001
1000
0010
0100
0001
0100
0010
,
1000
0001
0100
0001
0010
0100
1000
0001
1000
0010
0100
0001
1000
0001
0100
0001
,
0010
0100
0010
0001
1000
0100
1000
0001
0010
0100
0010
0001
0100
0010
1000
0001
,
1000
0100
0010
0001
0010
0100
1000
0001
0100
0010
1000
0001
0100
0001
0010
0100
,
0010
0001
1000
0010
0100
0010
1000
0001
0100
0001
0010
0100
1000
0100
0010
0001
,
1000
0001
0100
0010
1000
0001
0100
0001
0010
0100
1000
0001
1000
0010
0100
0001
,
1000
0010
1000
0100
0010
0001
0010
0100
1000
0001
0100
0001
1000
0010
1000
0001
,
0100
0010
0100
0001
1000
0010
1000
0100
0010
0001
0010
0100
1000
0001
0100
0001
,
0010
0100
0010
0001
1000
0100
1000
0001
0100
0010
1000
0001
0100
0001
0010
0100
,
1000
0001
0100
0001
1000
0000
0100
0000
0010
0000
0001
0000
1000
0000
0001
0000
,
0100
0000
0010
0000
0100
0000
0001
0000
1000
0000
0100
0010
0000
0001
0010
0000
,
0100
1000
0001
1000
0010
1000
0001
0100
,
0010
0000
1000
0000
0001
0000
1000
0000
0100
0000
0010
0001
0000
0010
0001
0000
,
1000
0010
0100
0001
1000
0100
1000
0001
,
0010
0000
0100
0000
1000
0000
0001
0000
1000
0000
0010
0100
0000
0001
0100
0000
,
0010
1000
0001
1000
0100
0010
0001
1000
,
0100
0000
1000
0000
0010
0000
0100
0000
0001
0000
1000
0100
0000
0010
0001
0000
,
1000
0100
2000
3001
0100
0010
1000
0010
,
0100
0000
0001
0000
1000
0000
0100
0000
0010
0000
0001
1000
0000
0010
1000
0000
,
0100
0010
0001
1000
0100
1000
0010
0100
,
0010
0000
1000
0000
0001
0000
0010
0000
0100
0000
1000
0001
0000
1000
0010
0000
,
0100
0001
1000
0100
1000
0100
0010
0001
,
1000
0000
0010
0000
0100
0000
0001
0000
0100
0000
0010
1000
0000
0001
1000
0000
,
0100
0010
0001
1000
0100
1000
0001
0010
,
0001
0000
0100
0000
0010
0000
1000
0000
0001
0000
0100
0010
0000
0100
0001
0000
,
1000
0100
1000
0010
0100
0001
1000
0100
,
1000
0000
0001
0000
0010
0000
0100
0000
1000
0000
0001
0100
0000
0010
1000
0000
,
0001
0010
0001
1000
0100
0010
0001
1000
,
0100
0000
1000
0000
0010
0000
0100
0000
0010
0000
1000
0100
0000
1000
0001
0000
,
0100
0010
0100
0001
1000
0100
0010
0001
,
1000
0000
0010
0000
1000
0000
0001
0000
0010
0000
0100
1000
0000
0001
1000
0000
,
0100
0010
0001
1000
0100
1000
0001
0100
,
0010
0000
1000
0000
0001
0000
0010
0000
0001
0000
1000
0100
0000
0010
0001
0000
,
0100
0001
1000
0010
1000
0100
0010
0001
,
1000
0000
0010
0000
1000
0000
0001
0000
0100
0000
0010
1000
0000
0010
0100
0000
,
0001
1000
0100
1000
0001
0100
0001
1000
,
0100
0000
1000
0000
0010
0000
0100
0000
0001
0000
1000
0010
0000
0100
0010
0000
,
1000
0100
1000
0001
0010
0100
1000
0001
,
1000
0000
0010
0000
0100
0000
0001
0000
1000
0000
0100
0010
0000
0001
0010
0000
,
0001
1000
0010
1000
0001
0100
0001
1000
,
0100
0000
0010
0000
0001
0000
1000
0000
0010
0000
0100
0001
0000
1000
0010
0000
,
1000
0001
0200
0301
1000
0001
0010
0100
,
0010
0001
1000
0100
1000
0001
0100
0010
,
1000
0001
0100
0001
0010
0100
0010
0001
,
1000
0010
0100
0010
1000
0001
0100
0001
,
0010
0100
1000
0001
0100
0001
1000
0010
,
0100
0010
1000
0001
0100
0001
0010
0100
,
0010
0001
1000
0100
1000
0001
0100
0010
,
1000
0001
0100
0001
0010
0100
0010
0001
,
1000
0100
0010
0001
0010
0100
0010
0001
,
1000
0100
1000
0001
0100
0010
1000
0001
,
0100
0001
0010
0100
0010
0001
1000
0010
,
0100
0010
1000
0001
0100
0001
1000
0001
,
0010
0100
0010
0001
1000
0100
1000
0001
,
0100
0000
0010
0000
0100
0000
0001
0000
1000
0000
0001
0000
0010
0100
2000
0000
,
3001
2000
0000
3010
0200
0000
0301
0200
0000
0000
0310
1000
0001
1000
0200
0000
,
1300
0020
0000
0000
0230
0000
0000
0320
0000
0000
1030
0000
0001
1000
0200
0000
,
0000
0310
0001
0010
0001
2000
0000
0000
3002
0000
0000
0023
0000
0000
0230
0000
,
0000
1300
0001
1000
0002
0023
0230
0000
2300
3002
0000
0000
0023
0000
0000
0230
,
0000
0000
2300
0000
0000
0000
0000
0000
3002
0000
0000
0103
0020
0000
0000
1030
,
0000
0100
0020
0000
0000
0032
0000
0000
2003
0000
0000
3002
0000
0000
0203
0000
,
0300
0010
1000
0010
0100
0001
1000
0002
0000
2003
0000
0000
0000
0000
3020
0000
,
0000
0130
0000
0020
0000
0000
2030
0000
0000
3001
0200
0000
0310
2000
0000
0000
,
0000
3001
0100
0001
0400
0000
0000
0320
0000
0000
2000
0000
3031
0100
0002
0000
,
2003
0000
3001
2000
0000
3010
0100
0002
0000
2003
0000
3000
0001
0200
0000
0320
,
0000
0000
0230
0000
0000
0301
1000
0002
0000
0203
0000
0300
0020
0000
0030
2000
,
0000
3000
0002
0000
0003
0200
0000
0000
0310
2000
0000
0000
3002
0000
0000
0023
,
0000
0000
0000
0030
0000
0000
0000
0000
;

//---------------dance-single - 15 (Owem)----------------
#NOTES:
     dance-single:
     15 (Owem):
     Edit:
     15:
     1.000,1.000,0.045,0.488,1.000,2444.000,12.000,131.000,2.000,1.000:
0000
0000
0000
0000
0000
0000
2000
0000
0000
3002
0000
0000
0103
0010
0000
1000
,
0001
0000
0020
0000
0000
0130
1000
0002
0000
0013
0200
0000
0000
2300
0000
0000
,
3010
0100
0001
1000
0001
0100
0010
1000
0100
0010
0000
0001
1000
0001
1000
0100
,
0020
0000
0000
0034
1003
0000
0200
0000
0000
0340
0000
0000
0031
1000
0100
1000
,
0001
0000
0000
0000
0000
0000
0000
0000
0000
0000
0010
0000
0000
0000
0000
0000
0000
0000
0000
0100
0000
0000
0000
0000
0000
0000
0000
0000
0000
1000
0000
0000
0000
0000
0000
0000
0000
0000
0001
0000
0000
0000
0000
0000
0000
0000
0000
0000
2000
0000
0000
0000
0000
0000
0000
0000
0000
0000
0000
0000
0000
0000
0000
0000
0000
0000
0000
0000
0000
0000
0000
0000
0000
0000
0000
0000
0000
0000
0000
0000
0000
0000
0000
0000
3002
0000
0000
0000
0000
0000
0000
0000
0000
0000
0000
0000
0000
0000
0000
0000
0000
0000
0000
0000
0000
0000
0000
0000
0000
0000
0000
0000
0000
0000
0000
0000
0000
0000
0000
0000
0203
0000
0000
0000
0000
0000
0000
0000
0000
0000
0000
0000
0000
0000
0000
0000
0000
0000
0000
0000
0000
0000
0000
0000
0310
0000
0000
0000
0000
0000
0000
0000
0000
0000
0000
0000
2000
0000
0000
0000
0000
0000
0000
0000
0000
0000
0000
0000
0000
0000
0000
0000
0000
0000
0000
0000
0000
0000
0000
0000
3001
0000
0000
0000
0000
0000
0000
0000
0000
0000
0000
0000
,
0020
0000
0000
0000
0000
0000
0000
0000
0000
0000
0031
1000
0001
0100
0010
2000
,
0000
0000
3200
0000
0000
0320
0000
0030
0020
0000
0000
0032
0000
0003
0002
0000
,
2003
0000
0000
0000
0000
3020
0000
0230
0000
0000
0302
0000
2003
0000
0000
0000
,
0000
3100
0010
0001
2M00
0000
0000
0010
0000
0000
3020
0000
0130
0001
2000
0000
,
0000
0010
3000
0000
0200
0000
0310
2000
0000
3001
0100
0010
1000
0010
0100
0002
,
0000
1003
0100
0020
0001
0000
0000
0031
1000
0001
0100
0010
1000
0010
0100
0001
,
1000
0200
0000
0000
0000
0000
0000
0000
0000
0000
0340
0000
0000
0030
0000
0001
,
0000
0000
1000
0000
0001
0010
0001
0100
0020
0000
1030
0002
0000
0003
0000
0100
,
0000
0010
1000
0001
0200
0000
0310
2000
0000
3001
0010
0001
0100
0010
2000
0000
,
3100
0020
0000
0130
2000
0000
3200
0000
0000
0340
0000
0000
0031
0010
0000
0100
,
0000
1000
0000
0001
1000
0000
0010
0100
0001
1000
0100
0010
0200
0000
0000
2300
,
0000
0000
3100
0010
0002
0000
0000
0000
0000
0000
0203
0000
0000
0301
2000
0000
,
0000
0000
0000
0100
3000
0000
0000
0010
0000
0000
0000
0001
0000
0000
0000
1000
,
0001
1000
0000
0000
0010
0000
0200
0000
0000
0301
0040
0000
0230
0000
0000
0000
,
2300
0000
0000
0000
3002
0000
0000
0000
2003
0000
0000
3200
0000
0310
0002
0000
,
0013
0000
0000
0000
0000
0000
0000
0000
0000
0000
0100
0000
0000
0000
0000
0000
0000
0000
0000
1000
0000
0000
0000
0000
0000
0000
0000
0000
0000
0001
0000
0000
0000
0000
0000
0000
0000
0000
1000
0000
0000
0000
0000
0000
0000
0000
0000
0000
0100
0000
0000
0000
0000
0000
0000
0000
0000
0000
0000
0000
0000
0000
0000
0000
0000
0000
0000
0000
0000
0000
0000
0000
2000
0000
0000
0000
0000
0000
0000
0000
0000
0000
0000
0000
0000
0000
0000
0000
0000
0000
0000
0000
0000
0000
0000
0000
0000
0000
0000
0000
0000
0000
0000
0000
0000
0000
0000
0000
3200
0000
0000
0000
0000
0000
0000
0000
0000
0000
0000
0000
0000
0000
0000
0000
0000
0000
0000
0000
0000
0000
0000
0000
0300
0000
0000
0000
0000
0000
0000
0000
0000
0000
0000
0000
2000
0000
0000
0000
0000
0000
0000
0000
0000
0000
0000
0000
0000
0000
0000
0000
0000
0000
0000
0000
0000
0000
0000
0000
0000
0000
0000
0000
0000
0000
0000
0000
0000
0000
0000
0000
0000
0000
0000
0000
0000
0000
0000
0000
0000
0000
0000
0000
,
3020
0000
0000
0000
0000
0230
0300
0000
0002
0000
0000
0000
0000
0000
0000
0000
,
0000
0000
0000
0000
,
0000
0000
0000
2003
0000
0000
0000
0000
0000
0000
0000
0000
0000
0000
0000
0000
,
0000
3000
0001
1000
0001
0100
0010
1000
,
0010
0100
0010
1000
0001
0100
0001
1000
,
0100
0010
0001
1000
0100
1000
0010
0100
,
0010
1000
0001
0010
0100
0010
0001
1000
,
0100
1000
0001
1000
0010
0100
0010
1000
,
0001
1000
0100
0010
0001
1000
0100
1000
,
0001
0100
0010
1000
0010
0100
0001
1000
,
0100
0010
0001
1000
0100
1000
0001
0010
,
0100
0000
1000
0000
00M1
0000
0100
0010
1000
0000
0001
1000
0001
0000
0010
0100
,
1000
0000
0001
0100
0001
0000
1000
0001
0100
0000
0020
0000
1030
0001
1000
0001
,
0010
0000
0100
0000
1000
0000
0010
0100
0001
0000
1000
0100
1000
0000
0010
0100
,
0001
0000
4000
3010
0100
0000
0001
1000
0001
0000
0020
0000
0130
1000
0001
1000
,
0010
0000
0100
0000
0001
0000
0010
0100
1000
0000
0001
0100
0010
0000
1000
0010
,
1000
0000
0000
0000
0000
0000
0000
0000
0004
0000
0000
0000
0013
0000
0000
0000
0200
0300
0000
0000
0000
0000
0000
0000
1000
0000
0000
0000
0010
0000
0000
0000
0100
0000
0000
0000
0000
0000
0000
0000
0002
0000
0000
0000
1003
0000
0000
0000
0001
0000
0000
0000
0100
0000
0000
0000
0010
0000
0000
0000
1000
0000
0000
0000
,
0010
0000
0100
0000
0001
0000
1000
0100
1000
0000
0010
0100
0001
0000
1000
0100
,
1000
0000
0100
0010
0001
0000
1000
0010
0100
0000
0002
1003
0001
0100
0010
1000
,
0010
0000
0100
0000
0102
0000
1003
0100
1000
0000
0010
0100
0001
0000
1000
0100
,
0010
0000
0001
1000
0001
0000
0100
0010
1000
0000
0002
0013
0001
0100
0010
1000
,
0001
0000
0010
0000
0100
0000
1000
0001
1000
0000
0010
0100
0001
0000
1000
0100
,
1000
0000
0001
0010
0001
0000
1000
0100
0010
0000
0002
1003
0001
0100
0010
1000
,
0001
0000
0010
0000
0100
0000
1000
0100
1000
0000
0001
0100
0010
0000
1000
0010
,
1000
0000
0001
0010
0100
0000
1000
0010
0100
0000
0002
1003
0001
0100
0010
1000
,
0010
0000
0100
0000
0001
0000
1000
0100
1000
0000
0010
0100
0001
0000
1000
0100
,
1000
0000
0100
0010
0001
0000
1000
0010
0100
0000
0020
1030
0001
0100
0010
1000
,
0010
0000
0100
0000
0102
0000
1003
0100
1000
0000
0010
0100
0001
0000
1000
0100
,
0010
0000
0001
1000
0001
0000
0100
0010
1000
0000
0001
0010
0001
0100
0010
1000
,
0001
0000
0010
0000
0100
0000
1000
0001
1000
0000
0010
0100
0001
0000
1000
0100
,
1000
0000
0001
0010
0001
0000
1000
0100
0010
0000
0001
1000
0001
0100
0010
1000
,
0001
0000
0010
0000
0100
0000
0001
1000
0010
0000
0001
0100
0010
0000
1000
0010
,
1000
0000
0001
0100
0010
0000
1000
0100
0010
0000
0100
0010
0001
1000
0100
1000
,
0010
0000
0100
0000
0001
0000
1000
0100
1000
0000
0001
0100
0001
0000
1000
0010
,
0100
0000
0001
0010
0100
0000
1000
0001
1000
0000
0010
1000
0001
0100
0010
1000
,
0001
0000
0010
0000
0012
0000
0013
0100
1000
0000
0001
0100
0001
0000
1000
0100
,
0010
0000
0001
1000
0001
0000
0100
0010
1000
0000
0200
0310
0100
1000
0001
0010
,
0001
0000
0010
0000
0100
0000
1000
0001
1000
0000
0100
0010
0001
0000
1000
0100
,
0010
0000
0001
0010
0001
0000
1000
0100
0010
0000
0200
1300
0001
0100
0010
1000
,
0001
0000
0010
0000
0100
0000
1000
0001
0100
0000
0010
0100
0010
0000
0100
0001
,
1000
0000
0001
0010
0100
0000
1000
0010
0100
0000
0002
0103
0010
1000
0001
0010
,
0100
0000
1000
0000
0001
0000
1000
0100
1000
0000
0010
0100
0001
0000
1000
0100
,
0010
0000
0100
0010
0001
0000
1000
0010
0100
0000
0020
1030
0001
0010
0100
1000
,
0001
0000
1000
0000
1002
0000
0013
0100
1000
0000
0010
0100
0001
0000
1000
0100
,
0010
0000
0001
1000
0001
0000
0100
0010
1000
0000
0001
0010
0001
0000
0100
0010
,
1000
0000
0100
0010
0001
0000
1000
0001
1000
0000
0010
0100
0001
0000
1000
0100
,
1000
0000
0001
0010
0001
0000
1000
0100
0010
0000
0001
1000
0001
0000
0100
0010
,
4000
0000
3001
0100
0010
0000
1000
0001
1000
0000
0100
0010
0001
0000
1000
0100
,
0010
0000
0001
0100
0001
0000
1000
0100
0010
0000
0001
1000
0001
0000
0010
0100
,
1000
0000
0001
0100
0010
0000
1000
0001
1000
0000
0100
0010
0001
0000
1000
0010
,
1000
0000
0001
0010
0200
0000
0000
0000
0000
0000
0000
0000
0000
0000
0000
0000
,
0000
0000
0000
0000
1300
0001
1000
0010
0100
0001
1000
0100
0010
0001
1000
0001
,
0100
0010
1000
0001
0100
0001
1000
0010
1000
0001
1000
0100
0010
0100
1000
0001
,
0010
0001
0100
0010
1000
0001
0100
0001
1000
0010
1000
0100
0010
0100
1000
0001
,
0010
0001
0100
0010
1000
0001
0100
0001
1000
0001
0100
0010
1000
0001
1000
0100
,
0010
0100
1000
0001
0010
0001
1000
0100
1000
0001
0100
0001
1000
0010
0100
0010
,
1000
0001
0100
0001
0010
0100
1000
0001
1000
0100
0010
0100
1000
0001
0010
0001
,
0100
0010
1000
0001
0100
0001
1000
0100
0010
0100
1000
0001
0100
0001
0010
0100
,
1000
0001
1000
0010
0100
0001
0100
0010
1000
0001
0100
0001
0010
0100
1000
0001
,
1000
0010
0100
0001
1000
0001
0100
0001
0010
0100
0010
0001
1000
0100
1000
0001
,
0100
0010
1000
0001
0010
0100
1000
0001
0100
0001
0010
0100
0010
0001
1000
0100
,
1000
0001
0010
0100
0010
0001
0100
0010
1000
0001
1000
0100
0010
0001
0010
0100
,
1000
0001
0100
0010
1000
0001
0100
0001
0010
0100
0010
0001
1000
0010
0100
0010
,
1000
0001
0100
0001
0010
0100
1000
0100
0010
0001
1000
0001
0100
0010
1000
0001
,
0100
0001
0010
0100
1000
0001
1000
0010
0100
0001
1000
0010
1000
0100
0010
0001
,
0010
0100
1000
0001
0100
0001
1000
0010
1000
0001
0100
0010
0100
0001
1000
0010
,
1000
0100
0010
0001
0010
0100
1000
0001
0100
0001
0010
0100
0010
0001
1000
0100
,
1000
0001
0100
0010
1000
0001
0100
0001
0010
0100
1000
0100
0010
0001
1000
0001
,
0100
0010
1000
0001
0100
0001
1000
0010
1000
0001
1000
0100
0010
0100
1000
0001
,
0010
0001
0100
0010
1000
0001
0100
0001
1000
0010
1000
0100
0010
0100
1000
0001
,
0010
0001
0100
0010
1000
0001
0100
0001
1000
0001
0100
0010
1000
0001
1000
0100
,
0010
0100
1000
0001
0010
0001
1000
0100
1000
0001
0100
0001
1000
0010
0100
0010
,
1000
0001
0100
0001
0010
0100
1000
0001
1000
0100
0010
0100
1000
0001
0010
0001
,
0100
0010
1000
0001
0100
0001
1000
0100
0010
0100
1000
0001
0100
0001
0010
0100
,
1000
0001
1000
0010
0100
0001
0100
0010
1000
0001
0100
0001
0010
0100
1000
0001
,
1000
0010
0100
0001
1000
0001
0100
0001
0010
0100
0010
0001
1000
0100
1000
0001
,
0100
0010
1000
0001
0010
0100
1000
0001
0100
0001
0010
0100
0010
0001
1000
0100
,
0010
0001
0010
0100
1000
0001
1000
0001
0010
0100
0010
0001
0100
0010
1000
0001
,
1000
0100
0010
0001
0010
0100
1000
0001
0100
0010
1000
0001
0100
0001
0010
0100
,
0010
0001
1000
0010
0100
0010
1000
0001
0100
0001
0010
0100
1000
0100
0010
0001
,
1000
0001
0100
0010
1000
0001
0100
0001
0010
0100
1000
0001
1000
0010
0100
0001
,
1000
0010
1000
0100
0010
0001
0010
0100
1000
0001
0100
0001
1000
0010
1000
0001
,
0100
0010
0100
0001
1000
0010
1000
0100
0010
0001
0010
0100
1000
0001
0100
0001
,
0010
0100
0010
0001
1000
0100
1000
0001
0100
0010
1000
0001
0100
0001
0010
0100
,
1000
0100
0010
0001
1000
0001
0100
0010
1000
0001
0100
0001
1000
0010
1000
0001
,
1000
0100
0010
0100
1000
0001
0010
0001
0100
0010
1000
0001
0100
0001
1000
0010
,
1000
0100
0010
0100
1000
0001
0010
0001
0100
0010
1000
0001
0100
0001
1000
0001
,
0100
0010
1000
0001
1000
0100
0010
0100
1000
0001
0010
0001
1000
0100
1000
0001
,
0100
0001
1000
0010
0100
0010
1000
0001
0100
0001
0010
0100
1000
0001
1000
0100
,
0010
0100
1000
0001
0010
0001
0100
0010
1000
0001
0100
0001
1000
0100
0010
0100
,
1000
0001
0100
0001
0010
0100
1000
0001
1000
0010
0100
0001
0100
0010
1000
0001
,
0100
0001
0010
0100
1000
0001
1000
0010
0100
0001
1000
0001
0100
0001
0010
0100
,
0010
0001
1000
0100
1000
0001
0100
0010
1000
0001
0010
0100
1000
0001
0100
0001
,
0010
0100
1000
0100
0010
0001
1000
0100
1000
0001
0010
0100
0010
0001
0100
0010
,
1000
0001
1000
0100
0010
0001
0010
0100
1000
0001
0100
0010
1000
0001
0100
0001
,
0010
0100
0010
0001
1000
0010
0100
0010
1000
0001
0100
0001
0010
0100
1000
0100
,
0010
0001
1000
0001
0100
0010
1000
0001
0100
0001
0010
0100
1000
0001
1000
0010
,
0100
0001
1000
0010
1000
0100
0010
0001
0010
0100
1000
0001
0100
0001
1000
0010
,
1000
0001
0100
0010
0100
0001
1000
0010
1000
0100
0010
0001
0010
0100
1000
0001
,
0100
0001
0010
0100
0010
0001
1000
0100
1000
0001
0100
0010
1000
0001
0100
0001
,
0010
0100
1000
0100
0010
0001
1000
0001
0100
0010
1000
0001
0100
0001
1000
0010
,
1000
0001
1000
0100
0010
0100
1000
0001
0010
0001
0100
0010
1000
0001
0100
0001
,
1000
0010
1000
0100
0010
0100
1000
0001
0010
0001
0100
0010
1000
0001
0100
0001
,
1000
0001
0100
0010
1000
0001
1000
0100
0010
0100
1000
0001
0010
0001
1000
0100
,
1000
0001
0100
0001
1000
0010
0100
0010
1000
0001
0100
0001
0010
0100
1000
0001
,
1000
0100
0010
0100
1000
0001
0010
0001
0100
0010
1000
0001
0100
0001
1000
0100
,
0010
0100
1000
0001
0100
0001
0010
0100
1000
0001
1000
0010
0100
0001
0100
0010
,
1000
0001
0100
0001
0010
0100
1000
0001
1000
0010
0100
0001
1000
0001
0100
0001
,
0010
0100
0010
0001
1000
0100
1000
0001
0010
0100
0010
0001
0100
0010
1000
0001
,
1000
0100
0010
0001
0010
0100
1000
0001
0100
0010
1000
0001
0100
0001
0010
0100
,
0010
0001
1000
0010
0100
0010
1000
0001
0100
0001
0010
0100
1000
0100
0010
0001
,
1000
0001
0100
0010
1000
0001
0100
0001
0010
0100
1000
0001
1000
0010
0100
0001
,
1000
0010
1000
0100
0010
0001
0010
0100
1000
0001
0100
0001
1000
0010
1000
0001
,
0100
0010
0100
0001
1000
0010
1000
0100
0010
0001
0010
0100
1000
0001
0100
0001
,
0010
0100
0010
0001
1000
0100
1000
0001
0100
0010
1000
0001
0100
0001
0010
0100
,
1000
0100
0010
0001
1000
0001
0100
0010
1000
0001
0100
0001
1000
0010
1000
0001
,
1000
0100
0010
0100
1000
0001
0010
0001
0100
0010
1000
0001
0100
0001
1000
0010
,
1000
0100
0010
0100
1000
0001
0010
0001
0100
0010
1000
0001
0100
0001
1000
0001
,
0100
0010
1000
0001
1000
0100
0010
0100
1000
0001
0010
0001
1000
0100
1000
0001
,
0100
0001
1000
0010
0100
0010
1000
0001
0100
0001
0010
0100
1000
0001
1000
0100
,
0010
0100
1000
0001
0010
0001
0100
0010
1000
0001
0100
0001
1000
0100
0010
0100
,
1000
0001
0100
0001
0010
0100
1000
0001
1000
0010
0100
0001
0100
0010
1000
0001
,
0100
0001
0010
0100
1000
0001
1000
0010
0100
0001
1000
0001
0100
0001
0010
0100
,
0010
0001
1000
0100
1000
0001
0100
0010
1000
0001
0010
0100
1000
0001
0100
0001
,
0010
0100
0010
0001
1000
0100
0010
0001
0010
0100
1000
0001
1000
0001
0010
0100
,
0010
0001
0100
0010
1000
0001
1000
0100
0010
0001
0010
0100
1000
0001
0100
0010
,
1000
0001
0100
0001
0010
0100
0010
0001
1000
0010
0100
0010
1000
0001
0100
0001
,
0010
0100
1000
0100
0010
0001
1000
0001
0100
0010
1000
0001
0100
0001
0010
0100
,
1000
0001
1000
0010
0100
0001
1000
0010
1000
0100
0010
0001
0010
0100
1000
0001
,
0100
0001
1000
0010
1000
0001
0100
0010
0100
0001
1000
0010
1000
0100
0010
0001
,
0010
0100
1000
0001
0100
0001
0010
0100
0010
0001
1000
0100
1000
0001
0100
0010
,
1000
0001
0100
0001
0010
0100
1000
0100
0010
0001
1000
0001
0100
0010
1000
0001
,
0100
0001
1000
0010
0100
0001
1000
0100
0010
0100
1000
0001
0010
0001
0100
0010
,
1000
0001
0100
0001
1000
0010
1000
0100
0010
0100
1000
0001
0010
0001
0100
0010
,
1000
0001
0100
0001
1000
0001
0100
0010
1000
0001
1000
0100
0010
0100
1000
0001
,
0010
0001
1000
0100
1000
0001
0100
0001
1000
0010
0100
0010
1000
0001
0100
0001
,
0010
0100
1000
0001
1000
0100
0010
0100
1000
0001
0010
0001
0100
0010
1000
0001
,
0100
0001
1000
0100
0010
0100
1000
0001
0100
0001
0010
0100
1000
0001
1000
0010
,
0100
0001
0100
0010
1000
0001
0100
0001
0010
0100
1000
0001
1000
0010
0100
0001
,
1000
0001
0100
0001
0010
0100
0010
0001
1000
0100
1000
0001
0100
0010
1000
0001
,
0010
0100
1000
0001
0100
0001
0010
0100
1000
0100
0010
0001
1000
0100
1000
0001
,
0010
0100
0010
0001
0100
0010
1000
0001
1000
0100
0010
0001
0010
0100
1000
0001
,
0100
0010
1000
0001
0100
0001
0010
0100
0010
0001
1000
0010
0100
0010
1000
0001
,
0100
0001
0010
0100
1000
0100
0010
0001
1000
0001
0100
0010
1000
0001
0100
0001
,
0010
0100
1000
0001
1000
0010
0100
0001
1000
0010
1000
0100
0010
0001
0010
0100
,
1000
0001
0100
0001
1000
0010
1000
0001
0100
0010
0100
0001
1000
0010
1000
0100
,
0010
0001
0010
0100
1000
0001
0100
0001
0010
0100
0010
0001
1000
0100
1000
0001
,
0100
0010
1000
0001
0100
0000
0010
0000
1000
0000
0001
0000
0010
0000
0100
0000
,
0010
0001
1000
0100
1000
0001
0100
0010
,
1000
0001
0100
0001
0010
0100
0010
0001
,
1000
0010
0100
0010
1000
0001
0100
0001
,
0010
0100
1000
0001
0100
0001
1000
0010
,
0100
0010
1000
0001
0100
0001
0010
0100
,
0010
0001
1000
0100
1000
0001
0100
0010
,
1000
0001
0100
0001
0010
0100
0010
0001
,
1000
0100
0010
0001
0010
0100
0010
0001
,
1000
0100
1000
0001
0100
0010
1000
0001
,
0100
0001
0010
0100
0010
0001
1000
0010
,
0100
0010
1000
0001
0100
0001
1000
0001
,
0010
0100
0010
0001
1000
0100
1000
0001
,
0100
0000
0010
0000
0100
0000
0001
0000
1000
0000
0001
0000
0010
0100
2000
0000
,
3001
2000
0000
3010
0200
0000
0301
0200
0000
0000
0310
1000
0001
1000
0200
0000
,
1300
0020
0000
0000
0230
0000
0000
0320
0000
0000
1030
0000
0001
1000
0200
0000
,
0000
0310
0001
0010
0001
2000
0000
0000
3002
0000
0000
0023
0000
0000
0230
0000
,
0000
1300
0001
1000
0002
0023
0230
0000
2300
3002
0000
0000
0023
0000
0000
0230
,
0000
0000
2300
0000
0000
0000
0000
0000
3002
0000
0000
0103
0020
0000
0000
1030
,
0000
0100
0020
0000
0000
0032
0000
0000
2003
0000
0000
3002
0000
0000
0203
0000
,
0300
0010
1000
0010
0100
0001
1000
0002
0000
2003
0000
0000
0000
0000
3020
0000
,
0000
0130
0000
0020
0000
0000
2030
0000
0000
3001
0200
0000
0310
2000
0000
0000
,
0000
3001
0100
0001
0400
0000
0000
0320
0000
0000
2000
0000
3031
0100
0002
0000
,
2003
0000
3001
2000
0000
3010
0100
0002
0000
2003
0000
3000
0001
0200
0000
0320
,
0000
0000
0230
0000
0000
0301
1000
0002
0000
0203
0000
0300
0020
0000
0030
2000
,
0000
3000
0002
0000
0003
0200
0000
0000
0310
2000
0000
0000
3002
0000
0000
0023
,
0000
0000
0000
0030
0000
0000
0000
0000
;
