#TITLE:Monotone;
#SUBTITLE:EXoduz Violation;
#ARTIST:Hardstyle Queen;
#TITLETRANSLIT:;
#SUBTITLETRANSLIT:;
#ARTISTTRANSLIT:;
#CREDIT:;
#BANNER:../Banner.png;
#BACKGROUND:../Background.png;
#LYRICSPATH:;
#CDTITLE:;
#MUSIC:music.ogg;
#OFFSET:0.123;
#SAMPLESTART:42.480;
#SAMPLELENGTH:11.920;
#SELECTABLE:YES;
#BPMS:0.000=145.000;
#STOPS:;
#BGCHANGES:;
// cache tags:
#FIRSTBEAT:13.500;
#LASTBEAT:327.000;
#SONGFILENAME:Songs/EXoduz Violation/Monotone/Monotone.sm;
#HASMUSIC:1;
#HASBANNER:1;
#MUSICLENGTH:105.000;
// end cache tags

//---------------dance-single - ----------------
#NOTES:
     dance-single:
     :
     Challenge:
     16:
     1.000,1.000,0.124,0.067,1.000,1546.000,13.000,7.000,0.000,8.000:

0000
0000
0000
0000
,
0000
0000
0000
0000
0000
0000
0000
0000
0000
0000
0000
0000
4000
0004
0000
0000
0000
0000
0000
0000
0000
0000
0000
0000
,
0000
0000
0000
0000
,
0000
0000
0000
0000
0000
0000
3003
0000
0100
0010
0001
1000
0100
0010
0001
1000
,
0001
1000
0100
0010
0001
0100
0010
0100
0001
0010
0100
1000
0001
0010
0100
1000
,
0100
1000
0100
0010
0001
1000
0001
1000
0001
0010
0100
1000
0010
0100
0001
0010
,
0100
1000
0001
0010
0100
0010
0100
1000
0001
0010
0100
1000
0001
1000
0001
1000
,
0010
0100
0001
1000
0010
0100
0001
0010
0100
1000
0010
0100
0010
0100
0001
0010
,
0100
1000
0001
0010
0100
1000
0100
1000
0001
0010
0100
1000
0010
0100
0010
0100
,
0001
0010
0100
1000
0001
0010
0100
4000
0004
0000
0000
0000
0000
0000
0000
3003
,
4000
0400
0000
0000
0000
0000
0000
3300
0040
0004
0000
0000
0000
0000
0000
0000
,
0000
0000
0000
0000
0000
0000
0000
0033
0100
1000
0001
0010
0100
1000
0001
0100
,
0010
0100
0010
0100
0001
0100
0001
0010
0100
1000
0100
1000
0010
0100
0001
0010
,
0001
0100
0010
0100
0001
0010
0100
1000
0001
0010
0001
0010
0100
0010
0100
1000
,
0010
0100
0001
0010
0100
1000
0001
1000
0001
1000
0100
0010
0001
0100
0001
0010
,
0100
1000
0001
0010
0100
1000
0100
0001
0100
1000
0100
0001
0100
1000
0010
0100
,
0001
0010
0100
1000
0001
0010
0001
0010
0001
0010
0100
1000
0001
0010
0100
1000
,
0001
1000
0001
1000
0100
0010
0001
1000
0100
0010
0100
0010
0001
0010
0001
1000
,
0001
0100
0010
1000
0001
0100
0010
0100
0010
0100
0001
1000
0100
0010
0001
1000
,
0100
0010
0001
1000
0100
0010
0001
1000
0220
0000
0000
0000
0000
0000
0000
0000
,
0000
0000
0000
0300
,
0130
0000
0000
0010
0000
0000
0100
0000
0000
0010
0000
0000
0100
0000
0000
0010
0000
0000
0100
0000
0000
0010
0000
0000
1000
0000
0100
0000
1000
0000
0100
0000
1000
0000
0100
0000
0010
0000
0100
0000
0010
0000
0001
0000
1000
0000
0100
0000
,
0010
0001
0010
0001
0010
0100
0010
0100
1000
0001
0010
0100
1000
0001
0010
0100
1000
0100
1000
0100
0010
0100
0010
0001
,
0010
0100
1000
0001
1000
0001
1000
0100
0010
0001
0010
0001
0100
0001
0100
0001
0100
0001
0010
0100
1000
0001
0010
0100
,
1000
0001
0010
0100
1000
0100
1000
0001
0100
0001
1000
0100
1000
0001
0100
0001
0010
0100
1000
0001
0010
0100
1000
0001
,
0010
0001
1000
0100
1000
0001
0010
0001
1000
0010
1000
0001
0010
0001
1000
0100
0010
0001
0010
0001
0010
0001
0010
0100
,
1000
0001
1000
0001
1000
0001
1000
0100
0010
0001
0100
0001
0100
0001
0010
0100
1000
0100
1000
0100
0010
0100
0010
0100
,
0010
0001
0100
0001
0010
0100
1000
0001
0010
0100
1000
0001
1000
0001
1000
0100
0010
0001
0100
0001
0010
0100
1000
0100
,
0010
0100
1000
0100
0010
0001
0010
0001
1000
0001
1000
0001
0010
0100
1000
0001
0100
0010
0100
0010
0100
0010
0100
0010
,
0100
0000
1000
0000
0001
0000
0010
0000
0100
0000
1000
0000
0001
0000
0010
0000
0100
0000
1000
0000
0001
0000
0010
0000
0100
0000
0000
1000
0000
0000
0010
0000
0000
1000
0000
0000
0001
0000
0000
1000
0000
0000
0100
0000
0000
1000
0000
0000
,
0001
0000
0000
1000
0000
0000
0010
0000
0000
1000
0000
0000
0100
0000
0000
1000
0000
0000
0001
0000
0000
1000
0000
0000
0100
0000
0010
0000
0001
0000
1000
0000
0100
0000
0010
0000
0001
0000
1000
0000
0001
0000
1000
0000
0001
0000
1000
0000
,
0100
0010
0001
0010
0001
0100
0010
0100
0010
0100
0001
0010
0100
1000
0010
0100
0001
0010
0100
1000
0100
0010
0100
1000
,
0100
0010
0001
0010
0001
0010
0100
1000
0001
0010
0100
1000
0001
1000
0001
1000
0001
1000
0001
0010
0100
1000
0001
0010
,
0100
1000
0100
1000
0100
0010
0100
0010
0001
0010
0100
0010
0001
0010
0100
1000
0001
0010
0100
1000
0100
1000
0010
1000
,
0100
1000
0010
1000
0100
0010
0001
1000
0100
0010
0001
0010
0001
0010
0100
1000
0001
0010
0100
1000
0100
1000
0100
0010
,
0001
0010
0001
0010
0100
1000
0010
0100
0001
1000
0010
0100
0001
0010
0100
1000
0001
0010
0100
1000
0001
0010
0100
1000
,
0100
1000
0100
1000
0100
0010
0001
1000
0100
0010
0001
0010
0001
0010
0100
1000
0010
0100
0001
1000
0010
0100
0010
0100
,
0010
0100
0001
0010
0100
1000
0001
0010
0100
1000
0100
0010
0001
0010
0100
1000
0100
0010
0001
0010
0100
1000
0001
1000
,
0001
1000
0001
1000
0100
0010
0001
0100
0001
0100
0001
0010
0001
0100
0001
0010
0100
0010
0100
1000
0100
0010
0001
1000
,
0100
0010
0001
1000
0100
0010
0001
1000
0001
1000
0001
1000
0010
0100
0001
0010
0100
1000
0001
0010
0100
1000
0001
0010
,
0100
1000
0100
0010
0001
0010
0001
0010
0100
1000
0001
1000
0001
1000
0001
1000
0100
0010
0001
0100
0001
0010
0100
0001
,
0010
0100
0001
0010
0100
1000
0001
0010
0100
1000
0100
1000
0100
1000
0100
0010
0100
0010
0001
0010
0001
0010
0100
1000
,
0001
0010
0100
1000
0001
1000
0001
1000
0100
0010
0001
1000
0100
0010
0001
0010
0100
1000
0100
0010
0001
1000
0001
1000
,
0001
1000
0001
1000
0100
0010
0001
1000
0100
0010
0001
1000
0100
0010
0001
0010
0001
0010
0100
0010
0100
0010
0100
1000
,
0001
0010
0100
1000
0001
1000
0001
1000
0001
0010
0100
1000
0001
0010
0100
1000
0100
0010
0001
0010
0001
0100
0001
0010
,
0100
1000
0001
0010
0100
1000
0001
0010
0100
1000
0001
0100
0010
1000
0001
0100
0010
1000
0001
0100
0010
1000
0001
0100
,
0010
0000
1000
0000
0001
0000
0100
0000
0010
0000
1000
0000
0001
0000
0100
0000
0010
0000
1000
0000
0001
0000
0100
0000
0010
0000
0000
0001
0000
0000
1000
0000
0000
0001
0000
0000
1000
0000
0000
0100
0000
0000
0010
0000
0000
0001
0000
0000
,
0010
0100
0010
0100
1000
0001
0010
0100
1000
0010
0100
0001
1000
0010
0100
0010
,
0100
0001
0010
0001
0010
0100
1000
0001
0010
0100
1000
0100
0010
0001
0010
0001
,
1000
0001
1000
0100
0010
0001
0010
0100
1000
0001
0010
0100
1000
0100
0010
0100
,
1000
0001
1000
0001
1000
0100
0010
0001
0100
0001
0010
0100
1000
0001
0010
0100
,
1000
0100
0010
0100
1000
0100
0010
0100
0010
0001
1000
0100
0010
0001
0010
0001
,
0010
0001
1000
0100
0010
0001
0010
0001
0010
0100
1000
0001
1000
0001
1000
0010
,
0100
0000
0000
0001
0000
0000
1000
0000
0000
0100
0000
0000
0010
0000
0000
0001
0000
0000
1000
0000
0000
0010
0000
0000
0100
0000
0010
0000
0100
0000
0010
0000
0100
0000
0010
0000
0100
0000
0010
0000
0100
0000
0010
0000
0100
0000
0010
0000
,
0100
0010
0100
0010
0100
0010
0100
0010
0100
0010
0100
0010
0200
0000
0000
0000
0000
0000
0000
0000
0000
0010
0000
0000
,
1000
0000
0000
0000
0000
0000
0010
0000
0000
0000
0000
0000
0310
0001
1000
0010
1000
0010
1000
0010
1000
0001
0010
0001
,
1000
0010
1000
0001
0010
0100
1000
0001
0010
0100
1000
0100
0010
0001
0010
0100
0010
0001
0010
0100
0010
0100
1000
0001
,
0100
0010
1000
0010
1000
0100
0010
0001
1000
0100
0010
0001
0010
0001
0100
0001
0100
0001
0010
0100
1000
0001
0010
0100
,
1000
0100
0010
0001
0010
0001
0010
0100
1000
0001
0010
0100
1000
0010
0100
0010
0100
0001
0100
0010
0100
0001
0010
0100
,
1000
0001
1000
0001
1000
0100
0010
0001
1000
0010
0100
0001
0010
0100
1000
0001
0010
0100
1000
0001
1000
0001
1000
0001
,
1000
0100
0010
0001
0010
0001
0100
1000
0001
1000
0001
1000
0100
0010
0001
0100
0001
0010
0100
1000
0010
1000
0010
1000
,
0100
0010
0001
0100
0001
0010
0100
1000
0001
0010
0100
1000
0001
0010
0100
0010
0100
0010
0001
1000
0100
0010
0001
1000
,
0001
1000
0001
1000
0100
0010
0001
0010
0100
1000
0001
1000
0001
1000
0100
0010
0001
1000
0001
1000
0010
0100
0010
0001
,
0010
0001
0010
0001
0010
0001
0010
0100
1000
0001
0010
0100
1000
0001
0010
0100
1000
0100
1000
0100
0010
0001
1000
0010
,
0100
0001
0010
0100
1000
0001
1000
0001
1000
0001
1000
0010
0100
0010
0100
0010
0100
0001
0010
0100
1000
0001
0010
0100
,
1000
0100
1000
0001
0100
0001
1000
0010
1000
0001
0010
0001
0010
1000
0010
0001
0010
1000
0010
0001
0010
0100
1000
0001
,
0010
0100
1000
0100
0010
0001
0010
0001
0010
0100
1000
0001
0010
0100
1000
0010
0100
0010
0100
0001
0010
0100
1000
0100
,
0010
0100
1000
0100
0010
0001
1000
0100
0010
0001
1000
0001
1000
0010
1000
0001
1000
0010
1000
0001
1000
0010
1000
0100
,
0010
0001
0100
0001
1000
0001
0100
0001
1000
0001
0100
0001
1000
0001
0010
0100
1000
0001
0010
0100
0010
0100
0010
0100
,
1000
0001
0010
0100
0010
0100
1000
0001
0010
0100
0010
0100
1000
0001
0010
0100
1000
0001
0010
0100
1000
0100
0010
0001
,
0010
0100
1000
0001
1000
0001
1000
0100
0010
0001
0010
0100
1000
0010
0100
0001
0010
0100
1000
0010
1000
0010
1000
0100
,
1000
0100
1000
0010
0100
0010
0100
0010
0001
0010
0001
0010
0100
1000
0001
0010
0100
1000
0001
1000
0001
1000
0100
0010
,
0001
1000
0100
0010
0001
0010
0001
0010
0100
1000
0001
0010
0100
1000
0100
0010
0001
0010
0100
1000
0001
1000
0001
1000
,
0001
1000
0001
1000
0001
1000
0001
1000
0001
1000
0010
0100
0001
1000
0010
0100
0001
1000
0010
0100
0001
1000
0100
0010
,
0001
1000
0100
0010
0001
1000
0100
0010
0001
1000
0010
0100
0001
1000
0010
0100
0001
1000
0010
0100
0001
1000
0010
0100
,
0001
1000
0010
0100
0001
1000
0010
0100
0001
0010
0100
1000
0001
0010
0100
1000
0001
0010
0100
1000
0001
0010
0100
1000
,
0001
0010
0100
1000
0010
0100
0001
0010
0100
1000
0001
0010
0100
1000
0010
0100
0001
0010
0100
1000
0010
0100
0001
0010
,
0100
1000
0010
0100
0001
0010
0100
1000
0010
0100
0001
0010
0100
1000
0010
0100
0001
0010
0100
1000
0010
0100
0001
0010
,
0100
1000
0010
0100
0001
1000
0010
0100
0001
1000
0010
0100
0001
1000
0100
0010
0001
0010
0100
1000
0001
1000
0010
0100
,
0001
1000
0010
0100
0001
1000
0010
0100
1000
0001
0000
0000
1101
0000
0000
0000
0000
0000
1011
0000
0000
0000
0000
0000
,
1101
1011
1101
1011
,
1101
2222
0000
3333
;
