#TITLE:Disciples of Babylon;
#SUBTITLE:;
#ARTIST:Dragonforce;
#TITLETRANSLIT:;
#SUBTITLETRANSLIT:;
#ARTISTTRANSLIT:;
#CREDIT:B. Abear;
#BANNER:Bn-Disciples.png;
#BACKGROUND:Bg-Disciples.png;
#LYRICSPATH:;
#CDTITLE:;
#MUSIC:06 - Disciples of Babylon.ogg;
#OFFSET:0.559;
#SAMPLESTART:51.200;
#SAMPLELENGTH:20.100;
#SELECTABLE:YES;
#BPMS:0.000=190.000,700.000=170.000,728.000=171.000,747.000=170.000,768.000=169.500,775.000=170.000,1115.000=190.000,1301.000=170.000;
#STOPS:448.000=0.632
,638.000=0.632
,1239.000=0.632
;
#BGCHANGES:;
// cache tags:
#FIRSTBEAT:2.250;
#LASTBEAT:1312.500;
#SONGFILENAME:Songs/Dragonforce/Disciples of Babylon/Disciples of Babylon.sm;
#HASMUSIC:1;
#HASBANNER:1;
#MUSICLENGTH:436.793;
// end cache tags

//---------------dance-single - B. Abear----------------
#NOTES:
     dance-single:
     B. Abear:
     Challenge:
     15:
     1.000,1.000,0.321,0.295,1.000,3315.000,140.000,129.000,82.000,0.000:

0000
0000
0000
0000
0000
0000
0000
0000
0000
1000
0001
1000
0001
0000
0000
0000
,
1001
0000
0001
1000
0100
0010
0004
1000
0000
1000
0000
1000
0000
1000
0000
1003
,
0100
0010
0001
1000
0001
0100
0010
0100
0001
1000
0001
1000
0001
1000
0001
1000
,
1MM1
0000
0000
0000
,
M11M
0000
0000
0000
0000
0000
0000
0000
0000
0010
0100
0010
0100
0000
0001
0000
,
1001
1000
0100
0010
,
0001
0000
0000
0000
1000
0000
0000
0000
0010
1000
0001
1000
0001
0000
0000
0000
,
1000
0001
0100
0010
0100
0010
1000
0001
0100
0010
0100
0010
1000
0001
0010
0100
,
1000
0001
0010
0100
0010
0100
1000
0001
1000
0010
1000
0001
1000
0100
1000
0001
,
0100
0010
1000
0001
0010
0100
1000
0100
0010
0001
1000
0010
1000
0010
0100
0001
,
1000
0100
0010
0001
1000
0001
1000
0010
0100
0010
1000
0001
0010
0000
0100
0000
,
1100
0000
0100
0010
0001
1000
0200
0000
1300
0001
0100
0010
0200
0000
0310
1000
,
0002
0000
1003
0100
0010
0001
2000
0000
3100
0010
0100
1000
0002
0000
0103
0010
,
1000
0001
0010
0100
1000
0100
0010
0001
1000
0010
1000
0010
0100
0001
0010
0100
,
1000
0010
1000
0001
1000
0100
1000
0001
0010
0000
0100
1000
0001
0000
0100
0000
,
0110
0000
0010
1000
0001
1000
0200
0000
0310
0001
1000
0001
2000
0000
3010
0100
,
0001
1000
0001
1000
0001
1000
0001
1000
0001
1000
0001
1000
0001
1000
0001
1000
,
0100
0000
0010
0000
0001
1000
0010
0000
0100
0000
0001
0000
1000
0100
0010
0000
,
0001
0000
1000
0000
0010
0100
0001
0000
1000
0000
0100
0000
0010
0001
1000
0000
,
0001
0010
0100
1000
0001
1000
0010
0100
0010
1000
0001
0010
0100
1000
0100
0010
,
0001
0000
0000
1000
0000
0000
0100
0000
0000
1000
0000
0000
0001
0000
0000
0100
0000
0000
0010
0000
0000
1000
0000
0000
0001
0000
0000
0010
0000
0000
0100
0000
1000
0000
0100
0000
1000
0000
0000
0000
0000
0000
0000
0000
0000
0000
0000
0000
,
1001
0000
0001
0100
0010
0100
0002
0000
1003
0100
0010
0001
2000
0000
3010
0100
,
0002
0000
1003
0100
0010
0001
0020
0000
0130
1000
0001
1000
0020
0000
0130
0001
,
1000
1000
0100
0100
0010
0010
0001
0001
,
1000
0000
0000
0010
0000
0000
0100
0000
0000
0001
0000
0000
0100
0000
0000
0001
0000
0000
1000
0000
0000
0010
0000
0000
0100
0000
0000
0001
0000
0000
0100
0000
0001
0000
1000
0000
0001
0000
0000
0000
0000
0000
0000
0000
0000
0000
0000
0000
,
1000
0001
0010
0000
0010
0000
0100
1000
0010
0000
0010
0000
1100
0000
0000
0000
,
0100
1000
0001
0000
0001
0000
0100
0001
1000
0000
0001
0000
0200
0000
0000
0000
,
0310
1000
0100
0000
0100
0000
0010
0001
0100
0000
0100
0000
0011
0000
0000
0000
,
0010
0001
1000
0000
1000
0000
0010
1000
0001
0000
1000
0000
0200
0000
0000
0000
,
1300
0010
0100
0000
0100
0000
0001
0010
0100
0000
0100
0000
0011
0000
0000
0000
,
0001
1000
0100
0000
0100
0000
1000
0001
0100
0000
0010
0000
2000
0000
0000
0000
,
3001
0010
0100
0000
0100
0000
1000
0010
0100
0000
0100
0000
1010
0000
0000
0000
,
0010
0100
0010
1000
0010
0100
0001
1000
0100
0010
0001
0010
0001
1000
0100
0010
,
0001
1000
0010
0000
0200
0000
0301
1000
0010
0000
2000
0000
3001
0000
0010
0000
,
0100
1000
0001
0000
0020
0000
0130
1000
0010
0000
0200
0000
0304
0000
0000
0000
,
1003
0100
0010
0000
0002
0000
1003
0010
0100
0000
0002
0000
1003
0000
0100
0000
,
1000
0100
1000
0001
1000
0100
1000
0001
1000
0100
1000
0001
0400
0000
0000
0000
,
0301
0010
0100
0000
0020
0000
0130
1000
0001
0000
2000
0000
3010
0100
0001
0000
,
0020
0000
0130
1000
0001
0000
0200
0000
0310
1000
0001
0000
0040
0000
0000
0000
,
0130
0000
0000
0000
1000
0000
1001
0000
0000
0000
0001
0000
1000
0100
0010
0001
,
1000
0000
0010
1000
0001
0010
0001
1000
0100
1000
0001
0010
0100
1000
0001
0100
,
0040
1000
0000
0100
0000
1000
0000
0130
,
0004
0000
0010
0000
0000
0000
1003
0000
0100
0010
0001
1000
0001
0000
1000
0000
,
0400
0010
0000
1000
0000
0010
0000
1300
,
0001
0100
0010
1000
0001
0100
0010
1000
0001
0100
0010
1000
0001
0000
1002
0000
,
0000
0000
1003
0000
0100
0000
0010
0000
0100
0010
0001
1000
0001
0000
1000
0000
,
1010
1000
0001
0010
0100
1000
0001
0010
,
0011
0000
0000
0000
0001
0000
1001
0000
0000
0000
1000
0000
1010
0000
0010
0100
,
0001
1000
0100
0010
0100
1000
0001
0100
0010
1000
0001
0010
0100
1000
0001
0010
,
0400
1000
0000
0010
0000
1000
0000
0310
,
0004
0000
1000
0000
0000
0000
0013
0000
0100
0010
0001
1000
0001
0000
1000
0000
,
0400
0010
0000
1000
0000
0010
0000
1300
,
0001
0100
0010
1000
0001
0100
0010
1000
0001
0100
0010
1000
0001
0000
1002
0000
,
0000
0000
1003
0000
0100
0000
0010
0000
0100
1000
0001
1000
0100
0000
0010
0000
,
0011
0000
0000
0001
0000
0000
1000
0000
0000
0010
0000
0000
0100
0000
0000
0100
0000
0000
0001
0000
0000
0010
0001
1000
,
0001
1000
1100
0100
0110
0010
0011
0001
,
0010
0100
1000
0001
1000
0001
1000
0001
0100
0010
1000
0001
0100
0010
0100
0010
,
1000
0000
0000
0000
0000
0000
0000
0000
0000
0000
0000
0000
0000
0001
0000
0000
0000
0000
0000
0000
0000
0000
0000
0000
1000
0000
0000
0000
0000
0000
0000
0000
0000
0000
0000
0000
0000
0001
0000
0000
0000
0000
0000
0000
0000
0000
0000
0000
1000
0000
0000
0000
0000
0000
0000
0000
0000
0000
0000
0000
0000
0010
0000
0000
0000
0000
0000
0000
0000
0000
0000
0000
1000
0000
0000
0000
0000
0000
0000
0000
0000
0000
0000
0000
0000
0010
0000
0000
0000
0000
0000
0000
0000
0000
0000
0000
1000
0000
0000
0000
0000
0000
0000
0000
0000
0000
0000
0000
0000
0001
0000
0000
0000
0000
0000
0000
0000
0000
0000
0000
1000
0000
0000
0000
0000
0000
0000
0000
0000
0000
0000
0000
0000
0001
0000
0000
0000
0000
0000
0000
0000
0000
0000
0000
1000
0000
0000
0000
0000
0000
0000
0000
0000
0000
0000
0000
0000
0010
0000
0000
0000
0000
0000
0000
0000
0000
0000
0000
1000
0000
0000
0000
0000
0000
0000
0000
0000
0000
0000
0000
0000
0010
0000
0000
0000
0000
0000
0000
0000
0000
0000
0000
,
0100
0000
0001
0000
1000
0100
0010
0001
1000
0000
0100
0000
1000
0000
0001
0000
,
0100
0000
0010
0000
1000
0001
0010
0100
1000
0001
0100
0001
1000
0100
1000
0001
,
0010
0001
1000
0100
0010
0001
1000
0010
0100
0002
0000
0000
4003
0000
0000
0000
,
3001
0000
0000
0000
0000
0000
0000
0000
0000
0000
0000
0000
0000
0010
0000
0000
0000
0000
0000
0000
0000
0000
0000
0000
0001
0000
0000
0000
0000
0000
0000
0000
0000
0000
0000
0000
0000
0010
0000
0000
0000
0000
0000
0000
0000
0000
0000
0000
0001
0000
0000
0000
0000
0000
0000
0000
0000
0000
0000
0000
0000
1000
0000
0000
0000
0000
0000
0000
0000
0000
0000
0000
0001
0000
0000
0000
0000
0000
0000
0000
0000
0000
0000
0000
0000
1000
0000
0000
0000
0000
0000
0000
0000
0000
0000
0000
0001
0000
0000
0000
0000
0000
0000
0000
0000
0000
0000
0000
0000
0010
0000
0000
0000
0000
0000
0000
0000
0000
0000
0000
0001
0000
0000
0000
0000
0000
0000
0000
0000
0000
0000
0000
0000
0010
0000
0000
0000
0000
0000
0000
0000
0000
0000
0000
0001
0000
0000
0000
0000
0000
0000
0000
0000
0000
0000
0000
0000
1000
0000
0000
0000
0000
0000
0000
0000
0000
0000
0000
0001
0000
0000
0000
0000
0000
0000
0000
0000
0000
0000
0000
0000
1000
0000
0000
0000
0000
0000
0000
0000
0000
0000
0000
,
0010
0000
0000
0000
0000
0000
0000
0000
0000
0000
0000
0000
0000
0100
0000
0000
0000
0000
0000
0000
0000
0000
0000
0000
0010
0000
0000
0000
0000
0000
0000
0000
0000
0000
0000
0000
0000
0100
0000
0000
0000
0000
0000
0000
0000
0000
0000
0000
0010
0000
0000
0000
0000
0000
0000
0000
0000
0000
0000
0000
0000
1000
0000
0000
0000
0000
0000
0000
0000
0000
0000
0000
0010
0000
0000
0000
0000
0000
0000
0000
0000
0000
0000
0000
0000
1000
0000
0000
0000
0000
0000
0000
0000
0000
0000
0000
0010
0000
0000
0000
0000
0000
0000
0000
0000
0000
0000
0000
0000
0100
0000
0000
0000
0000
0000
0000
0000
0000
0000
0000
0010
0000
0000
0000
0000
0000
0000
0000
0000
0000
0000
0000
0000
0100
0000
0000
0000
0000
0000
0000
0000
0000
0000
0000
0004
0000
0000
0000
0000
0000
0000
0000
0000
0000
0000
0000
0000
0000
0000
0000
0000
0000
0000
0000
0000
0000
0000
0000
0000
0000
0000
0000
0000
0000
0000
0000
0000
0000
0000
0000
0000
0000
0000
0000
0000
0000
0000
0000
0000
0000
0000
0000
,
2003
0000
0000
3200
0000
0000
1300
0000
0001
0000
1000
0000
0001
0000
0010
0000
0100
0000
1000
0000
0100
0000
0010
0000
,
0001
1000
0010
0100
0010
0100
0001
1000
0010
0100
0010
0100
0001
0000
0001
0000
,
1000
0001
0010
0000
0010
0000
0100
1000
0010
0000
0010
0000
1100
0000
0000
0000
,
0100
1000
0001
0000
0001
0000
0100
0001
1000
0000
0001
0000
0200
0000
0000
0000
,
0310
1000
0100
0000
0100
0000
0010
0001
0100
0000
0100
0000
0011
0000
0000
0000
,
0001
0100
0001
1000
0001
0100
0001
1000
0001
0100
0001
1000
0200
0000
0000
0000
,
1300
0010
0100
0000
0100
0000
0001
0010
0100
0000
0100
0000
0011
0000
0000
0000
,
0001
1000
0100
0000
0100
0000
1000
0001
0100
0000
0010
0000
2000
0000
0000
0000
,
3001
0100
0010
0100
0001
0010
0100
0010
0001
1000
0001
1000
,
0001
0100
0010
1000
0010
1000
0010
1000
0001
0100
0010
1000
0010
1000
0010
1000
,
0001
0010
0100
0000
2000
0000
3001
0100
0010
0000
2000
0000
3001
0010
0100
0000
,
1000
0001
1000
0000
0200
0000
0310
0001
0100
0000
0020
0000
4030
0000
0000
0000
,
3001
0010
0100
0000
2000
0000
3001
0100
0010
0000
2000
0000
3001
0000
0010
0000
,
0001
0010
0100
0010
0001
0010
0100
0010
0001
0000
0001
1000
0020
0000
0000
0000
,
1030
0001
0100
0000
0002
0000
0013
0100
1000
0000
0002
0000
0103
0010
1000
0000
,
0200
0000
0310
0001
1000
0000
0020
0000
0130
0001
1000
0000
0400
0000
0000
0000
,
0310
0000
0000
0000
0001
0000
1001
0000
0000
0000
1000
0000
1010
0000
1000
0010
,
0100
0000
0000
0000
0001
0010
0001
1000
0100
1000
0001
0010
0100
1000
0001
0100
,
0040
1000
0000
0100
0000
1000
0000
0130
,
0004
0000
0010
0000
0000
0000
1003
0000
0100
0010
0001
1000
0001
0000
1000
0000
,
0400
0010
0000
1000
0000
0010
0000
1300
,
0001
0100
0010
1000
0001
0100
0010
1000
0001
0100
0010
1000
0001
0000
1002
0000
,
0000
0000
1003
0000
0100
0000
0010
0000
0100
1000
0001
0010
0100
0000
1000
0000
,
1001
0001
1000
0100
0010
0010
0001
0100
,
0001
0000
0000
0000
1000
0000
1001
0000
0000
0000
0001
0000
0101
0000
0100
0010
,
1000
0000
1000
0010
0100
0001
0100
0001
1000
0001
0100
0001
0100
0001
0100
0001
,
4000
0001
0000
0100
0000
0001
0000
3100
,
0040
0000
0001
0000
0000
0000
0130
0000
1000
0100
1000
0001
1000
0000
0001
0000
,
0040
0100
0000
0001
0000
0100
0000
0031
,
1000
0010
0100
0001
1000
0010
0100
0001
1000
0010
0100
0001
1000
0000
2001
0000
,
0000
0000
3001
0000
0010
0000
0100
0000
0010
0001
1000
0001
0010
0000
0100
0000
,
1100
0000
0000
1000
0000
0000
0001
0000
0000
0100
0000
0000
0010
0000
0000
0010
0000
0000
1000
0000
0000
0100
1000
0001
,
1000
0000
0001
0000
0011
0000
0010
0000
0110
0000
0100
0000
1000
0100
0010
0001
,
0010
0000
0010
0001
1000
0000
1000
0000
1000
0000
1000
0000
1000
0000
1000
0000
,
1100
0000
0100
0000
0010
0001
0010
0000
0001
0000
1000
0000
0010
0100
0010
0000
,
0110
0000
0100
0000
0001
1000
0001
0000
1000
0000
0001
0000
0010
0001
0010
0000
,
0011
0000
0001
0000
1000
0010
1000
0000
0010
0000
0100
0000
0001
0100
0001
0000
,
0101
0000
0100
0000
0010
1000
0010
0000
0100
0000
0001
0000
1000
0100
1000
0000
,
1001
0000
0001
0000
0010
0100
0010
0000
0100
0000
1000
0000
0001
0100
0001
0000
,
0101
0000
0100
0000
0010
1000
0010
0000
1000
0000
0001
0000
1000
0000
1000
0000
,
0010
0100
0001
1000
0001
1000
0010
0100
0001
1000
0001
1000
0010
0100
0001
1000
,
0100
0010
0001
1000
0001
1000
0100
0010
0001
1000
0001
1000
0100
0000
0100
0000
,
1000
0100
0010
0001
1000
0010
1000
0010
0100
0001
1000
0100
1000
0001
0010
0100
,
1000
0001
0100
0001
1000
0010
0100
0010
1000
0010
0100
0001
1000
0100
1000
0001
,
M010
0100
1000
0001
0010
0100
0010
0001
1000
0001
0100
0001
1000
0010
0100
0010
,
1000
0001
1000
0100
0010
0001
0010
0100
1000
0001
0010
0001
1000
0100
1000
0001
,
M100
0010
0100
0001
1000
0100
1000
0001
0010
0100
1000
0001
0010
0001
0100
0010
,
1000
0001
1000
0100
0010
0100
1000
0001
0010
0001
1000
0010
0100
0001
0100
0010
,
1000
0001
1000
0001
1000
0001
1000
0001
1000
0100
1000
0100
1000
0100
1000
0100
,
0010
0000
0000
0000
M11M
0000
0000
0000
0100
1000
0001
0100
0010
0100
0001
1000
,
0100
1000
0001
0010
0001
1000
0010
0100
0001
1000
0100
1000
0001
1000
0010
1000
,
0001
1000
0100
1000
0001
0000
0001
0000
2000
0000
3100
0010
0001
1000
0002
0000
,
0103
0010
1000
0010
0200
0000
0301
1000
0200
0000
0310
0001
1000
0001
0200
0000
,
0301
1000
0100
1000
0200
0000
0310
0000
0001
0010
0100
1000
0001
0100
0001
1000
,
0010
0100
0001
1000
0100
1000
0010
0100
0001
1000
0010
1000
0001
1000
0100
1000
,
0001
1000
0010
1000
0100
0000
0100
0000
0020
0000
0031
1000
0100
1000
0020
0000
,
0130
0001
1000
0100
0020
0000
0031
1000
0100
0010
0100
0010
0100
0010
0100
0010
,
0001
1000
0100
0010
0100
0010
0100
0010
0001
0000
1000
0000
0010
0100
0001
0000
,
1000
0000
0001
0000
0010
0100
1000
0000
0001
0000
1000
0000
0100
1000
0010
0000
,
0100
0000
0001
0000
1000
0010
0100
0000
0001
0100
0010
1000
0001
0010
0100
0010
,
0001
0100
0010
1000
0001
0010
0100
0010
0001
1000
0001
1000
0001
1000
0001
1000
,
0001
0000
0000
1000
0000
0000
0010
0000
0100
0000
0010
0000
1000
0000
0000
0000
0000
0000
0000
0000
0000
0000
0000
0000
0001
0000
0000
0000
0000
0000
1000
0000
0000
0000
0000
0000
0100
0000
0000
0010
0000
0000
0001
0000
0000
0000
0000
0000
,
1000
0000
0001
0000
0100
0010
1000
0000
0001
0000
1000
0000
0001
0010
0100
0000
,
0010
0000
0001
0000
1000
0010
0100
0000
0101
0000
0001
0000
1000
0000
1000
0000
,
0100
0000
0000
0100
0000
0000
0010
0000
0000
0010
0000
0000
M011
0000
0M00
0000
00M0
0000
000M
0000
00M0
0000
0M00
0000
,
M000
0000
0M00
0000
00M0
0000
000M
0000
00M0
0000
0M00
0000
0004
0000
0000
1000
0000
0000
0000
0000
0000
0100
0000
0000
,
0000
1000
0000
0103
0040
0100
0000
1030
,
0001
0010
0001
1000
0001
0000
1000
0000
0400
0000
0010
0000
0000
0000
1000
0000
,
0000
0000
0010
0000
0000
0000
1300
0000
0001
0100
0010
1000
0001
0100
0010
1000
,
0001
0100
0010
1000
0001
0000
1002
0000
0000
0000
0103
0000
0010
0000
1000
0000
,
0100
0010
0001
1000
0001
0000
1000
0000
1010
0000
1000
0000
0001
0000
0010
0000
,
0100
1000
0001
0010
0011
0001
0001
1001
,
1000
0000
1000
0000
1010
0000
0010
0100
0001
1000
0100
0010
0100
1000
0001
0100
,
0010
1000
0001
0010
0100
1000
0001
0010
0400
0000
1000
0000
0000
0000
0010
0000
,
0000
1000
0000
0310
0004
1000
0000
0010
,
0000
1000
0000
0013
0400
1000
0000
0010
,
0000
0000
1000
0000
0000
0000
0310
0000
0001
0100
0010
1000
0001
0100
0010
1000
,
0001
0100
0010
1000
0001
0000
1002
0000
0000
0000
1003
0000
0100
0000
0010
0000
,
0100
1000
0001
1000
0100
0000
0010
0000
0011
0000
0001
0000
1000
0000
0010
0000
,
0100
0000
0100
0000
0001
0010
0100
1000
0001
0000
1000
0000
1100
0000
0100
0000
,
0110
0000
0010
0000
0011
0000
0001
0000
0010
0100
1000
0001
1000
0001
1000
0001
,
1000
0001
1000
0001
1000
0001
1000
0001
1000
0000
0100
0000
0010
0001
0010
0000
,
0001
0000
1000
0000
0010
0100
0010
0000
0110
0000
0100
0000
0001
1000
0001
0000
,
1000
0000
0001
0000
0010
0001
0010
0000
0011
0000
0001
0000
1000
0010
1000
0000
,
0010
0000
0100
0000
0001
0100
0001
0000
0101
0000
0100
0000
0010
1000
0010
0000
,
0100
0000
0001
0000
1000
0100
1000
0001
1000
0000
0001
0000
0010
0100
0010
0000
,
0100
0000
1000
0000
0001
0100
0001
0000
0101
0000
0100
0000
0010
1000
0010
0000
,
1000
0000
0001
0000
1000
0000
1000
0000
0010
0100
0001
1000
0001
1000
0010
0100
,
0001
1000
0001
1000
0010
0100
0001
1000
0100
0010
0001
1000
0001
1000
0100
0010
,
0001
1000
0001
1000
0100
0000
0100
0000
1000
0100
1000
0001
0100
0010
1000
0010
,
0100
0001
1000
0100
1000
0001
0010
0100
1000
0001
0100
0001
1000
0010
0100
0010
,
1000
0010
0100
0001
1000
0100
1000
0001
M010
0100
1000
0001
0010
0100
0010
0001
,
1000
0001
0100
0001
1000
0010
0100
0010
1000
0001
1000
0100
0010
0001
0010
0100
,
1000
0001
0010
0001
1000
0100
1000
0001
M100
0010
0100
0001
1000
0100
1000
0001
,
0010
0100
1000
0001
0010
0001
0100
0010
1000
0001
1000
0100
0010
0100
1000
0001
,
0010
0001
1000
0010
1000
0100
0010
0001
1000
0100
1000
0100
1000
0100
1000
0100
,
1000
0001
1000
0001
1000
0001
1000
0001
0100
0000
0000
0000
M11M
0000
0000
0000
,
0010
1000
0001
0010
0001
1000
0001
1000
0100
1000
0001
0010
0001
1000
0010
0100
,
0001
1000
0100
1000
0001
1000
0010
1000
0001
1000
0100
1000
0001
0000
0001
0000
,
2000
0000
3100
0010
0001
1000
0002
0000
0103
0010
1000
0010
0200
0000
0301
1000
,
0200
0000
0310
0001
1000
0001
0200
0000
0301
1000
0100
1000
0200
0000
0310
0000
,
0001
0010
0100
1000
0001
0100
0001
1000
0010
0100
0001
1000
0100
1000
0010
0100
,
0001
1000
0010
1000
0001
1000
0100
1000
0001
1000
0010
1000
0100
0000
0100
0000
,
0020
0000
0031
1000
0100
1000
0020
0000
0130
0001
1000
0100
0020
0000
0031
1000
,
0100
0010
0100
0010
0100
0010
0100
0010
0001
1000
0001
1000
0001
1000
0001
1000
,
0001
0000
1000
0000
0010
0100
0001
0000
1000
0000
0001
0000
0010
0100
1000
0000
,
0001
0000
1000
0000
0100
1000
0010
0000
0100
0000
0001
0000
1000
0010
0100
0000
,
0001
0100
0010
1000
0001
0010
0100
0010
0001
0100
0010
1000
0001
0010
0100
0010
,
0001
1000
0001
1000
0001
1000
0001
1000
0001
1000
0001
1000
0001
0000
0000
0000
,
1000
0000
0001
0000
0010
0100
1000
0000
0001
0000
1000
0000
0010
0100
0001
0000
,
1000
0000
0001
0000
1000
0100
0010
0000
0100
0000
1000
0000
0001
0100
0010
0000
,
1010
1000
0001
0001
0010
0010
0100
0100
,
22MM
0000
0000
0000
0000
0000
0000
3000
,
0300
0000
0000
0000
0000
0000
0000
0000
0000
0000
0000
0000
1000
0000
0000
0000
0000
0000
0000
0000
0000
0000
0000
0000
0000
0000
0000
0000
0000
0000
0000
0000
0000
0000
0000
0000
0000
0000
0000
0000
0000
0000
0000
0000
0000
0000
0000
0000
0000
0000
0000
0000
0000
0000
0000
0000
0000
0000
0000
0000
0001
0000
0000
0000
0000
0000
0000
0000
0000
0000
0000
0000
0000
0000
0000
0000
0000
0000
0000
0000
0000
0000
0000
0000
0000
0000
0000
0000
1000
0000
0000
0000
0000
0000
0000
0000
0000
0000
0000
0000
0000
0000
0000
0000
0000
0000
0000
0000
0000
0000
0000
0000
0000
0000
0000
0000
0000
0000
0000
0000
0000
0000
0000
0000
0000
0000
0000
0000
0000
0000
0000
0000
0000
0000
0000
0000
0000
0000
0000
0000
0000
0000
0000
0000
0000
0000
0000
0000
0000
0000
0000
0000
0000
0000
0000
0000
0000
0000
0000
0000
0000
0000
0000
0000
0000
0000
0000
0000
0000
0000
0000
0000
0000
0000
2002
0000
0000
0000
0000
0000
0000
0000
0000
0000
0000
0000
0000
0000
0000
0000
0000
0000
,
0000
0000
0000
0000
,
0000
0000
0000
0000
,
0000
0000
0000
0000
,
0000
0000
0000
0000
,
0000
0000
0000
0000
,
0000
3003
M000
0000
00M0
0000
0M00
0000
,
000M
M000
0M00
000M
,
00M0
0M00
000M
M000
,
0M00
000M
00M0
M000
,
000M
0000
0000
0M00
0000
0000
M000
0000
0000
0001
0000
1000
,
0100
0000
0000
0000
0000
0000
0000
0000
0000
0000
0000
0000
0000
0000
0000
0000
0000
0000
0000
0000
0000
0000
0000
0000
0000
0000
0000
0000
0000
0000
0020
0000
0000
0000
0000
0000
0000
0000
0000
0000
0000
0000
0000
0000
0000
0000
0000
0000
0000
0000
0000
0000
0000
0000
0000
0000
0000
0000
0000
0000
0000
0000
0000
0000
0000
0000
0000
0000
0000
0000
0000
0000
0000
0000
0000
0000
0000
0000
0000
0000
0031
0000
0000
0000
0000
0000
0000
0000
0000
0000
0000
0000
0000
0000
0000
0000
1000
0000
0000
0000
0000
0000
0000
0000
0000
0000
0000
0000
0000
0000
0000
0000
0000
0000
0000
0000
0000
0000
0000
0000
0000
0000
0000
0000
0000
0000
0000
0000
0010
0000
0000
0000
0000
0000
0000
0000
0000
0000
0000
0000
0000
0000
0000
0000
0100
0000
0000
0000
0000
0000
0000
0000
0000
0000
0000
0000
0000
0000
0000
0000
0000
0000
0000
0000
0000
0000
0000
0000
0000
0000
0000
0000
0000
0000
0000
0000
0001
0000
0000
0000
0000
0000
0000
0000
0000
0000
0000
0000
0000
0000
0000
0000
,
1000
0000
0000
0000
0000
0000
0000
0000
0000
0000
0000
0000
0000
0000
0000
0000
0000
0000
0000
0000
0000
0000
0000
0000
0000
0000
0000
0000
0000
0000
0200
0000
0000
0000
0000
0000
0000
0000
0000
0000
0000
0000
0000
0000
0000
0000
0000
0000
0000
0000
0000
0000
0000
0000
0000
0000
0000
0000
0000
0000
0000
0000
0000
0000
0000
0000
0000
0000
0000
0000
0000
0000
0000
0000
0000
0000
0000
0000
0000
0000
0310
0000
0000
0000
0000
0000
0000
0000
0000
0000
0000
0000
0000
0000
0000
0000
0001
0000
0000
0000
0000
0000
0000
0000
0000
0000
0000
0000
0000
0000
0000
0000
0000
0000
0000
0000
0000
0000
0000
0000
0000
0000
0000
0000
0000
0000
0000
0000
1000
0000
0000
0000
0000
0000
0000
0000
0000
0000
0000
0000
0000
0000
0000
0000
0001
0000
0000
0000
0000
0000
0000
0000
0000
0000
0000
0000
0000
0000
0000
0000
0000
0000
0000
0000
0000
0000
0000
0000
0000
0000
0000
0000
0000
0000
0000
0000
0100
0000
0000
0000
0000
0000
0000
0000
0000
0000
0000
0000
0000
0000
0000
0000
,
0010
0000
0000
0000
0000
0000
0000
0000
0000
0000
0000
0000
0000
0000
0000
0000
0000
0000
0000
0000
0000
0000
0000
0000
0000
0000
0000
0000
0000
0000
2000
0000
0000
0000
0000
0000
0000
0000
0000
0000
0000
0000
0000
0000
0000
0000
0000
0000
0000
0000
0000
0000
0000
0000
0000
0000
0000
0000
0000
0000
0000
0000
0000
0000
0000
0000
0000
0000
0000
0000
0000
0000
0000
0000
0000
0000
0000
0000
0000
0000
3001
0000
0000
0000
0000
0000
0000
0000
0000
0000
0000
0000
0000
0000
0000
0000
0010
0000
0000
0000
0000
0000
0000
0000
0000
0000
0000
0000
0000
0000
0000
0000
0000
0000
0000
0000
0000
0000
0000
0000
0000
0000
0000
0000
0000
0000
0000
0000
0001
0000
0000
0000
0000
0000
0000
0000
0000
0000
0000
0000
0000
0000
0000
0000
1000
0000
0000
0000
0000
0000
0000
0000
0000
0000
0000
0000
0000
0000
0000
0000
0000
0000
0000
0000
0000
0000
0000
0000
0000
0000
0000
0000
0000
0000
0000
0000
0010
0000
0000
0000
0000
0000
0000
0000
0000
0000
0000
0000
0000
0000
0000
0000
,
0100
0000
0000
0000
0000
0000
0000
0000
0000
0000
0000
0000
0000
0000
0000
0000
0000
0000
0000
0000
0000
0000
0000
0000
0000
0000
0000
0000
0000
0000
0002
0000
0000
0000
0000
0000
0000
0000
0000
0000
0000
0000
0000
0000
0000
0000
0000
0000
0000
0000
0000
0000
0000
0000
0000
0000
0000
0000
0000
0000
0000
0000
0000
0000
0000
0000
0000
0000
0000
0000
0000
0000
0000
0000
0000
0000
0000
0000
0000
0000
1003
0000
0000
0000
0000
0000
0000
0000
0000
0000
0000
0000
0000
0000
0000
0000
0100
0000
0000
0000
0000
0000
0000
0000
0000
0000
0000
0000
0000
0000
0000
0000
0000
0000
0000
0000
0000
0000
0000
0000
0000
0000
0000
0000
0000
0000
0000
0000
0010
0000
0000
0000
0000
0000
0000
0000
0000
0000
0000
0000
0000
0000
0000
0000
0100
0000
0000
0000
0000
0000
0000
0000
0000
0000
0000
0000
0000
0000
0000
0000
0000
0000
0000
0000
0000
0000
0000
0000
0000
0000
0000
0000
0000
0000
0000
0000
1000
0000
0000
0000
0000
0000
0000
0000
0000
0000
0000
0000
0000
0000
0000
0000
,
0001
0000
0000
0000
0000
0000
0000
0000
0000
0000
0000
0000
0000
0000
0000
0000
0000
0000
0000
0000
0000
0000
0000
0000
0000
0000
0000
0000
0000
0000
0200
0000
0000
0000
0000
0000
0000
0000
0000
0000
0000
0000
0000
0000
0000
0000
0000
0000
0000
0000
0000
0000
0000
0000
0000
0000
0000
0000
0000
0000
0000
0000
0000
0000
0000
0000
0000
0000
0000
0000
0000
0000
0000
0000
0000
0000
0000
0000
0000
0000
0310
0000
0000
0000
0000
0000
0000
0000
0000
0000
0000
0000
0000
0000
0000
0000
1000
0000
0000
0000
0000
0000
0000
0000
0000
0000
0000
0000
0000
0000
0000
0000
0000
0000
0000
0000
0000
0000
0000
0000
0000
0000
0000
0000
0000
0000
0000
0000
0001
0000
0000
0000
0000
0000
0000
0000
0000
0000
0000
0000
0000
0000
0000
0000
0100
0000
0000
0000
0000
0000
0000
0000
0000
0000
0000
0000
0000
0000
0000
0000
0000
0000
0000
0000
0000
0000
0000
0000
0000
0000
0000
0000
0000
0000
0000
0000
0010
0000
0000
0000
0000
0000
0000
0000
0000
0000
0000
0000
0000
0000
0000
0000
,
1000
0000
0000
0000
0000
0000
0000
0000
0000
0000
0000
0000
0000
0000
0000
0000
0000
0000
0000
0000
0000
0000
0000
0000
0000
0000
0000
0000
0000
0000
0002
0000
0000
0000
0000
0000
0000
0000
0000
0000
0000
0000
0000
0000
0000
0000
0000
0000
0000
0000
0000
0000
0000
0000
0000
0000
0000
0000
0000
0000
0000
0000
0000
0000
0000
0000
0000
0000
0000
0000
0000
0000
0000
0000
0000
0000
0000
0000
0000
0000
1003
0000
0000
0000
0000
0000
0000
0000
0000
0000
0000
0000
0000
0000
0000
0000
0100
0000
0000
0000
0000
0000
0000
0000
0000
0000
0000
0000
0000
0000
0000
0000
0000
0000
0000
0000
0000
0000
0000
0000
0000
0000
0000
0000
0000
0000
0000
0000
0010
0000
0000
0000
0000
0000
0000
0000
0000
0000
0000
0000
0000
0000
0000
0000
0001
0000
0000
0000
0000
0000
0000
0000
0000
0000
0000
0000
0000
0000
0000
0000
0000
0000
0000
0000
0000
0000
0000
0000
0000
0000
0000
0000
0000
0000
0000
0000
1000
0000
0000
0000
0000
0000
0000
0000
0000
0000
0000
0000
0000
0000
0000
0000
,
0100
0000
0000
0000
0000
0000
0000
0000
0000
0000
0000
0000
0000
0000
0000
0000
0000
0000
0000
0000
0000
0000
0000
0000
0000
0000
0000
0000
0000
0000
2000
0000
0000
0000
0000
0000
0000
0000
0000
0000
0000
0000
0000
0000
0000
0000
0000
0000
0000
0000
0000
0000
0000
0000
0000
0000
0000
0000
0000
0000
0000
0000
0000
0000
0000
0000
0000
0000
0000
0000
0000
0000
0000
0000
0000
0000
0000
0000
0000
0000
3100
0000
0000
0000
0000
0000
0000
0000
0000
0000
0000
0000
0000
0000
0000
0000
0010
0000
0000
0000
0000
0000
0000
0000
0000
0000
0000
0000
0000
0000
0000
0000
0000
0000
0000
0000
0000
0000
0000
0000
0000
0000
0000
0000
0000
0000
0000
0000
0100
0000
0000
0000
0000
0000
0000
0000
0000
0000
0000
0000
0000
0000
0000
0000
1100
0000
0000
0000
0000
0000
0000
0000
0000
0000
0000
0000
0000
0000
0000
0000
0000
0000
0000
0000
0000
0000
0000
0000
1000
0000
0000
0000
0000
0000
0000
0000
0000
0000
0000
0000
0000
0000
0000
0000
0000
0000
0000
0000
0000
0000
0000
0000
,
0001
0100
0010
1000
1001
0000
1001
0000
,
0001
0000
0000
0000
0000
0000
0200
0000
0000
0000
0000
0000
0000
0000
0000
0300
0000
0000
0010
0000
1000
0000
0010
0000
1000
0000
0000
0000
0000
0000
0001
0000
0000
0000
0000
0000
0010
0000
0000
0000
0000
0000
0010
0000
0000
0000
0000
0000
,
0100
0000
0000
0020
0000
0000
0000
0000
0000
0031
1000
0001
1000
0000
0000
0100
0000
0000
1000
0000
0000
1000
0000
0000
,
0001
0000
0000
0200
0000
0000
0000
0000
0000
0310
1000
0010
1000
0000
0000
0001
0000
0000
0100
0000
0000
0100
0000
0000
,
0010
0000
0000
0000
0000
0000
1000
0000
0000
0000
0000
0000
0000
0000
0000
0000
0000
0000
0001
0000
0010
0000
0100
0000
1000
0000
0000
0100
0000
0000
0010
0000
0000
0001
0000
0000
1001
0000
0000
0000
0000
0000
0000
0000
0000
0000
0000
0000
,
1000
0020
0000
0130
0001
1000
0100
0100
,
0010
0000
0000
0002
0000
0000
0000
0000
0000
1003
0100
1000
0100
0000
0000
0010
0000
0000
0001
0000
0000
0001
0000
0000
,
1000
0000
0000
0002
0000
0000
0000
0000
0000
0103
0000
0000
0010
0000
0000
1000
0001
1000
0001
0000
0000
0000
0000
0000
,
1000
0000
0000
0100
0000
0000
0010
0000
0000
0001
0000
0000
0100
0000
0000
0010
0000
0000
0100
0000
0000
0001
0000
0000
1000
0000
0000
0001
0000
0000
0010
0000
0000
0100
0000
0000
1000
0000
0000
0000
0000
0000
0001
0000
0010
0000
0100
0000
,
0000
0000
1000
0001
0100
0001
1001
0100
,
0100
1001
0000
0001
0010
0100
1000
0100
,
1000
0001
0010
0100
1000
0001
0101
0100
,
0010
0000
0000
1000
0000
0000
0000
0000
0000
0010
0000
0000
0100
0000
0000
0001
0000
0000
1001
0000
0000
0000
1000
0100
,
0010
0000
0001
0010
0100
1000
1001
0010
,
0010
0000
0000
1001
0000
0000
0000
0000
0000
1000
0000
0000
0001
0000
0000
0100
0010
1000
0001
0000
0000
0001
0000
0000
,
0010
0000
0000
0100
0000
0000
0100
0000
0000
1000
0000
0000
0001
0000
0000
1000
0010
0100
0001
0000
0000
0001
0000
0000
,
1000
1000
0100
0100
0010
0000
0011
0000
,
0001
0000
0000
2000
0000
0000
0000
0000
0000
3010
0100
0010
0100
0000
0000
0001
0000
0000
1001
0000
0000
0000
0000
0000
,
1000
0000
0000
0200
0000
0000
0000
0000
0000
1300
0001
1000
0001
0000
0000
0100
0000
0000
0010
0000
0000
1000
0000
0000
,
0001
0000
0000
0010
0000
0000
0000
0000
0000
0100
1000
0100
1000
0000
0000
0001
0000
0000
0100
0000
0000
0010
0000
0000
,
0100
0000
0001
0000
0000
0000
1000
0100
0010
0001
0010
0001
1000
0000
0010
0000
,
0100
0001
1000
0010
0100
0010
1000
0100
,
1000
0001
1000
0100
0010
0100
1100
1000
,
0001
0101
0100
0010
1010
1000
0001
0011
,
0010
0000
0000
0100
0000
0000
1000
0000
0000
0001
0000
0000
0100
0000
0000
0001
0000
0000
1000
0000
0000
0100
0000
0000
0010
0000
0000
0001
0000
0000
1000
0000
0000
0010
0000
0000
1000
0000
0000
0000
0000
0000
0000
0000
0001
0000
0010
0000
,
0100
0000
1000
0001
0100
0010
0110
0100
,
0001
0000
0000
1001
0000
0000
0000
0000
0000
1000
0100
1000
0100
0000
0000
0010
0000
0000
0001
0000
0000
1000
0000
0000
,
0001
0000
0000
0000
0000
0000
0100
0000
0000
0010
0000
0000
1000
0000
0000
0000
0000
0000
0001
0000
0000
0000
0000
0000
0010
0000
0000
0000
0000
0000
0100
0000
0000
0000
0000
0000
1100
0000
0000
0000
0000
0000
0000
0000
1000
0000
0100
0000
,
0010
0000
0000
0000
0000
0000
0011
0000
0000
0000
0000
0000
0000
0000
0000
0000
0000
0000
0001
0000
0000
0100
0000
0000
0010
0000
0000
1000
0000
0000
0010
0000
0000
0100
0000
0000
0001
0000
0000
0000
0000
0000
0000
0000
1000
0000
0100
0000
,
0010
0000
0001
1000
0100
1000
1001
0010
,
0010
1001
0100
0100
0010
1000
1010
0000
,
0010
0000
0000
0110
0000
0000
0000
0000
0000
0100
0001
0100
0001
0000
0000
1000
0000
0000
0000
0000
0000
0001
0000
0000
,
0000
0010
0000
0100
0000
1000
1002
0000
,
0103
0M10
0010
1000
M000
0020
0000
0130
,
0M01
0001
0010
00M0
0100
0000
2000
0000
,
3001
010M
0100
0010
00M0
0200
0000
0301
,
100M
1000
0100
0M00
0010
0000
0021
0000
,
0031
100M
1000
0010
00M0
0200
0000
0301
,
100M
1000
0100
0M00
0010
0000
0002
0000
,
1003
M010
0010
0100
0M00
0002
0000
1003
,
M100
0100
0010
00M0
0001
0000
1002
2003
,
3200
0000
0320
0000
0032
0000
0003
0010
0200
0000
2300
0000
0000
0000
3010
0000
,
0200
0000
0000
0000
0000
0000
0000
0000
0000
0000
0000
0000
0301
0000
0000
1000
0000
0000
0001
0000
1000
0000
0001
0000
1000
0000
0000
0000
0000
0000
0000
0000
0000
0000
0000
0000
1200
0000
0000
0000
0000
0000
0000
0000
0000
0000
0000
0000
,
1000
1000
1000
1000
,
0000
0000
1300
0200
1000
0000
0000
0000
1300
0000
0000
0000
0001
0000
0001
0100
,
0010
1000
0010
0100
0001
1000
0100
0010
,
0001
0000
0002
0000
0000
0000
0000
0000
1003
0000
0100
0000
1000
0000
0001
0100
,
0010
0000
1000
0000
0001
0010
0100
0000
1000
0000
0001
0000
0200
0000
0000
0000
,
0310
0000
1000
0000
0000
0000
0000
0001
0000
0000
0000
0001
1000
0000
1000
0100
,
0010
0100
1000
0001
0100
0010
1000
0001
1000
0100
0010
0001
0100
0000
0010
0000
,
0010
0000
1000
0000
0001
0000
0001
0000
0010
0000
0100
0010
0001
1000
0001
1000
,
0001
0100
0001
0100
0010
0100
0010
0100
0010
1000
0010
1000
0001
0010
0001
0010
,
0100
0010
0100
0010
0100
1000
0100
1000
0001
1000
0001
1000
0010
0000
0010
0100
,
0001
2000
0000
3100
0010
0001
1000
0100
,
0001
0000
0000
0400
0000
0000
0000
0000
0000
1300
0001
1000
0001
0000
0000
0001
0000
0000
0200
0000
0000
0000
0000
0000
,
0010
0310
0000
0100
0001
2000
0000
3001
,
0010
0000
0000
0000
0000
0000
0200
0000
0000
0000
0000
0000
0000
0000
0000
0300
0000
0000
0100
0000
0000
0000
0000
0000
0010
0000
0000
0000
0000
0000
0001
0000
1000
0000
0001
0000
2000
0000
0000
0000
0000
0000
3001
0000
0000
0100
0000
0000
,
0010
1000
0001
1000
0100
1000
0001
0010
0100
1000
0001
1000
0100
0000
0010
0000
,
0001
0000
0000
0000
0000
0000
0000
0000
0000
0000
0000
0000
1000
0000
0000
0000
0000
0000
0000
0000
0000
0000
0000
0000
0100
0000
0000
0000
0000
0000
0000
0000
0000
0000
0000
0000
1000
0000
0000
0000
0000
0000
0000
0000
0000
0000
0000
0000
0001
0000
0000
0000
0000
0000
0000
0000
0000
0000
0000
0000
0100
0000
0000
0000
0000
0000
0000
0000
0000
0000
0000
0000
0001
0000
0000
0000
0000
0000
0000
0000
0000
0000
0000
0000
1000
0000
0000
0000
0000
0000
0000
0000
0000
0000
0000
0000
0010
0000
0000
0000
0000
0000
0000
0000
0000
0000
0000
0000
1000
0000
0000
0000
0000
0000
0000
0000
0000
0000
0000
0000
0001
0000
0000
0000
0000
0000
0000
0000
0000
0000
0000
0000
0010
0000
0000
0000
0000
0000
0000
0000
0000
0000
0000
0000
0000
0002
0000
0000
0000
0000
0000
0000
0000
0000
0000
0000
0000
0000
0000
0000
0000
0000
0000
0000
0000
0000
0000
0000
0100
0000
0000
0000
0000
0000
0000
0000
0000
0000
0000
0000
0003
0000
0000
0000
0000
0000
0000
0000
0000
0000
0000
0000
,
0000
0002
0000
0000
0000
0000
0000
0000
0000
0000
0000
0000
0000
0000
0000
0000
0000
0000
0000
0000
0000
0000
0000
0000
1000
0000
0000
0000
0000
0000
0000
0000
0000
0000
0000
0000
0003
0000
0000
0000
0000
0000
0000
0000
0000
0000
0000
0000
0000
0002
0000
0000
0000
0000
0000
0000
0000
0000
0000
0000
0000
0000
0000
0000
0000
0000
0000
0000
0000
0000
0000
0000
0010
0000
0000
0000
0000
0000
0000
0000
0000
0000
0000
0000
0003
0000
0000
0000
0000
0000
0000
0000
0000
0000
0000
0000
0000
0002
0000
0000
0000
0000
0000
0000
0000
0000
0000
0000
0000
0000
0000
0000
0000
0000
0000
0000
0000
0000
0000
0000
1000
0000
0000
0000
0000
0000
0000
0000
0000
0000
0000
0000
0003
0000
0000
0000
0000
0000
0000
0000
0000
0000
0000
0000
0000
0002
0000
0000
0000
0000
0000
0000
0000
0000
0000
0000
0000
0000
0000
0000
0100
0000
0000
0000
0000
0000
0000
0000
0000
0000
0000
0000
0000
0000
0000
0000
1000
0000
0000
0000
0003
0000
0000
0000
0000
0000
0000
0000
0000
0000
0000
0000
,
0000
0002
0000
0000
0000
0000
0000
0000
0000
0000
0000
0000
0000
0000
0000
0000
0100
0000
0000
0000
0000
0000
0000
0000
0000
0000
0000
0000
0000
0000
0000
0000
1000
0000
0000
0000
0003
0000
0000
0000
0000
0000
0000
0000
0000
0000
0000
0000
0001
0000
0000
0000
0000
0000
0000
0000
0000
0000
0000
0000
1000
0000
0000
0000
0000
0000
0000
0000
0000
0000
0000
0000
0001
0000
0000
0000
0000
0000
0000
0000
0000
0000
0000
0000
1000
0000
0000
0000
0000
0000
0000
0000
0000
0000
0000
0000
0200
0000
0000
0000
0000
0000
0000
0000
0000
0000
0000
0000
0000
0000
0000
0000
0000
0000
0000
0000
0000
0000
0000
0000
0000
0000
0000
0000
0000
0000
0000
0000
0000
0000
0000
0000
0000
0000
0000
0000
0000
0000
0000
0000
0000
0000
0000
0000
0310
0000
0000
0000
0000
0000
0000
0000
0000
0000
0000
0000
0001
0000
0000
0000
0000
0000
0000
0000
0000
0000
0000
0000
1000
0000
0000
0000
0000
0000
0000
0000
0000
0000
0000
0000
0001
0000
0000
0000
0000
0000
0000
0000
0000
0000
0000
0000
,
0100
0000
0000
0000
0010
0000
0000
0000
1000
0000
0000
0000
0001
0000
0000
0000
0000
0000
0010
0000
0000
0100
0000
0000
1000
0000
0000
0001
0000
0000
0100
0000
0000
0001
0000
0000
1000
0000
0000
0010
0000
0000
0100
0000
0000
0001
0000
0000
,
1000
0000
0000
0100
0000
0000
1000
0000
0000
0001
0000
0000
1000
0000
0000
0000
0001
0000
0000
0000
0100
0000
0000
0000
0010
0000
0000
0000
1000
0000
0000
0000
0002
0000
0000
0000
0000
0000
0000
0000
0000
0000
0000
0000
0000
0000
0000
0000
1003
0000
0000
0000
0100
0000
0000
0000
1000
0000
0000
0000
0001
0000
0000
0000
,
1000
0000
0000
0100
0000
0000
0010
0000
0000
0100
0000
0000
1000
0000
0000
0000
0001
0000
0000
0000
0100
0000
0000
0000
0001
0000
0000
0000
1000
0000
0000
0000
0001
0000
0000
0100
0000
0000
0010
0000
0000
0100
0000
0000
0001
0000
0000
0000
1000
0000
0000
0000
0100
0000
0000
0000
1000
0000
0000
0001
0000
0000
0100
0000
,
0000
0001
0000
0000
1000
0000
0000
0000
0100
0000
0000
0000
0010
0000
0000
0000
0001
0000
0000
0000
1000
0000
0000
0000
0100
0000
0000
0000
1000
0000
0000
0000
0001
0000
0000
0000
0000
0000
0000
0000
0001
0000
0000
0000
0100
0000
0000
0000
0010
0000
0000
0000
0000
0000
0000
0000
1000
0000
0000
0000
0000
0000
0000
0000
,
1000
0000
0000
0000
0000
0000
0001
0000
0000
0000
0000
0000
1000
0000
0000
0000
0000
0000
1000
0000
0000
0000
0000
0000
0100
0000
0000
0000
0000
0000
0100
0000
0010
0000
0001
0000
1000
0000
0000
0001
0000
0000
1000
0000
0000
0001
0000
0000
,
1000
0001
1000
0001
1000
0001
1000
0001
1000
0001
1000
0001
1000
0100
0010
0001
,
1000
0010
1000
0001
0100
0001
1000
0100
0010
0100
1000
0001
0010
0001
1000
0010
,
0100
0001
1000
0100
0020
0000
0130
1000
0002
0000
0000
0000
0103
0010
1000
0010
,
0100
0001
0010
0100
1000
0001
0010
0100
1000
0001
0100
0001
1000
0100
0010
0001
,
1000
0000
0000
0100
0000
0000
0010
0000
0000
0001
0000
0000
1000
0000
0000
0000
0000
0000
0MM0
0000
0000
0000
0000
0000
0MM0
0000
0000
0000
0000
0000
0MM0
0000
0000
0000
0000
0000
0001
0000
0000
0000
0010
0000
0000
0000
1000
0000
0000
0000
,
0001
0000
0000
0000
0100
0000
0000
0000
1000
0000
0000
0000
0001
0000
0000
0100
0000
0000
0010
0000
0000
1000
0000
0000
0001
0000
0000
1000
0000
0000
0100
0000
0000
1000
0000
0000
0001
0000
0000
0000
0010
0000
0000
0000
1000
0000
0000
0000
,
0001
0000
0000
0000
0000
0000
0000
0000
0000
0000
0000
0000
0000
0000
0000
0000
0100
0000
0000
0000
0000
0000
0000
0000
0000
0000
0000
0000
0000
0000
0000
0000
1000
0000
0000
0000
0000
0000
0000
0000
0000
0000
0000
0000
0000
0000
0000
0000
0001
0000
0000
0000
0000
0000
0000
0000
0000
0000
0000
0000
0000
0000
0000
0000
0010
0000
0000
0000
0000
0000
0000
0000
0000
0000
0000
0000
0000
0000
0000
0000
0100
0000
0000
0000
0000
0000
0000
0000
0000
0000
0000
0000
0000
0000
0000
0000
2000
0000
0000
0000
0000
0000
0000
0000
0000
0000
0000
0000
0000
0000
0000
0000
0000
0000
0000
0000
0000
0000
0000
0000
0000
0000
0000
0000
0000
0000
0000
0000
0000
0000
0000
0000
0000
0000
0000
0000
0000
0000
0000
0000
0000
0000
0000
0000
3000
0000
0000
0001
0000
0000
0000
0000
0000
0000
0000
0000
0000
0000
0000
0000
0000
0000
0000
0000
0000
0000
0000
0000
0000
0000
0000
0001
0000
0000
0000
0000
0000
0000
0000
0000
0000
0000
0000
0000
0000
0000
0000
0000
0000
0000
0000
0000
,
0000
1000
0000
0000
0000
0000
0000
0000
0000
1000
0000
0000
0000
0000
0000
0000
0000
0100
0000
0000
0000
0000
0000
0000
0000
0100
0000
0000
0000
0000
0000
0000
0000
0010
0000
0000
0000
0000
0000
0000
0000
0010
0000
0000
0000
0000
0000
0000
0004
0000
0000
0000
0000
0000
0000
0000
0000
0000
0000
0000
0000
0000
0000
0000
,
0000
0000
0000
0000
0003
0000
1000
0010
,
0100
0010
1000
0100
0010
0001
1000
0100
,
1000
0000
0000
0000
0000
0000
0001
0000
0000
0000
0000
0000
0100
0000
0000
0000
0010
0000
0000
0000
1000
0000
0000
0000
0002
0000
0000
0000
0000
0000
0000
0000
0000
0000
0000
0000
1003
0000
0000
0100
0000
0000
0010
0000
0000
0100
0000
0000
,
1000
0001
0100
0001
1000
0010
0100
0001
1000
0100
1000
0001
0010
0100
1000
0100
,
0010
0001
1000
0001
0200
0000
0000
0000
0310
0000
0000
0000
0200
0000
0000
0000
,
0000
0000
0301
1000
0200
0000
0000
0000
0000
0310
0001
1000
0001
0000
0100
0000
,
0010
0000
1000
0000
0001
0000
0010
0000
0000
0200
0000
0000
0310
0000
0000
0000
0000
0000
0011
0000
0000
0000
0000
0000
,
0001
0010
0100
1000
0001
0100
0001
1000
0010
1000
0010
0100
0001
1000
0100
1000
,
0001
0010
0100
1000
0100
0010
0001
0000
0001
1000
0001
0000
1001
0000
0000
0000
,
0001
0000
0001
0000
0100
0000
0100
0000
0010
0000
0010
0000
1000
0010
0100
0001
,
1000
0010
0100
0001
1000
0010
0100
0001
1000
0010
0100
0001
4000
0000
0100
0000
,
0000
0001
0000
0100
0000
3001
0400
0010
,
0000
0000
0301
0000
0010
0100
1000
0001
0010
0000
0001
0000
4000
0000
0001
0000
,
0000
0000
0010
0000
0000
0000
0001
0000
3000
0000
0000
0000
0001
0100
0010
1000
,
0001
0100
0010
1000
0001
0100
0010
1000
0001
0000
1002
0000
0000
0000
1003
0000
,
0100
0000
0010
0000
0100
1000
0001
0010
0100
0000
1000
0000
1001
0000
0001
0000
,
1000
0100
0010
0010
0001
0100
0001
0000
,
1000
0000
1001
0000
0000
0000
0001
0000
0101
0000
0100
0010
1000
0000
1000
0010
,
0100
0001
0100
0001
1000
0001
0100
0001
0100
0001
0100
0001
4000
0000
0001
0000
,
0000
0100
0000
0001
0000
3100
0040
0001
,
0000
0000
0130
0000
1000
0100
1000
0001
1000
0000
0001
0000
0040
0000
0100
0000
,
0000
0000
0001
0000
0000
0000
0100
0000
0000
0000
0031
0000
1000
0010
0100
0001
,
1000
0010
0100
0001
1000
0010
0100
0001
1000
0000
2001
0000
0000
0000
3001
0000
,
0010
0000
0100
0000
0010
0001
1000
0001
0010
0000
0100
0000
1100
0000
1000
0000
,
0001
0000
0100
0000
0010
0000
0010
0000
1000
0010
0100
0001
1000
0000
0001
0000
,
0011
0000
0010
0000
0110
0000
0100
0000
1000
0001
0100
0010
1000
0000
0010
1000
,
0001
0001
0001
0001
0001
0001
0011
0010
,
0100
1000
0100
0000
1000
0000
0001
0000
0100
0010
0100
0000
0110
0000
0010
0000
,
1000
0001
1000
0000
0001
0000
1000
0000
0100
1000
0100
0000
1100
0000
1000
0000
,
0001
0100
0001
0000
0100
0000
0010
0000
1000
0010
1000
0000
1010
0000
0010
0000
,
0100
0001
0100
0000
0010
0000
1000
0000
0001
0010
0001
0000
1001
0000
1000
0000
,
0100
0010
0100
0000
0010
0000
0001
0000
1000
0010
1000
0000
1010
0000
0010
0000
,
0100
0001
0100
0000
0001
0000
1000
0000
0001
0000
0001
0000
0100
0010
1000
0001
,
1000
0001
0100
0010
1000
0001
1000
0001
0100
0010
1000
0001
0010
0100
1000
0001
,
1000
0001
0010
0100
1000
0001
1000
0001
0010
0000
0010
0000
0001
0010
0100
1000
,
0001
0100
0001
0100
0010
1000
0001
0010
0001
1000
0100
0010
0001
1000
0010
1000
,
0001
0100
0010
0100
0001
0100
0010
1000
0001
0010
0001
1000
010M
0010
0001
1000
,
0100
0010
0100
1000
0001
1000
0010
1000
0001
0100
0010
0100
0001
1000
0001
0010
,
0100
1000
0100
0010
0001
1000
0100
1000
0001
0010
0001
1000
001M
0100
0010
1000
,
0001
0010
0001
1000
0100
0010
0001
1000
0100
1000
0010
0100
0001
1000
0001
0010
,
0100
0010
0001
1000
0100
1000
0001
0100
0010
1000
0010
0100
0001
1000
0001
1000
,
0001
1000
0001
1000
0001
0010
0001
0010
0001
0010
0001
0010
0100
0000
0000
0000
,
M11M
0000
0000
0010
0001
1000
0010
0100
0001
1000
0100
1000
,
0001
0010
0100
1000
0001
0100
0010
0100
0001
1000
0100
0010
,
0100
0010
0001
1000
0100
0010
0001
0010
0100
1000
0010
0100
,
0001
0100
0010
1000
0100
1000
0001
1000
0010
0100
0010
1000
,
0001
0010
0100
1000
0100
0010
0001
0010
0100
1000
0100
0010
,
0001
0010
0100
1000
0010
0100
0001
0100
0010
1000
0100
0010
,
0002
0000
0000
1003
0010
0100
0001
0100
0010
1000
0010
1000
,
0001
0000
0000
0000
1000
0000
0000
0000
0100
0000
0000
0000
0010
0000
0000
0100
0000
0000
1000
0000
0000
0001
0000
0000
1000
0000
0000
0001
0000
0000
1000
0000
0000
0001
0000
0000
0010
0000
0000
0100
0000
0000
1000
0000
0000
0001
0000
0000
,
1000
0000
0000
0001
0000
0000
1000
0000
0000
0001
0000
0000
0100
0000
0000
0000
0010
0000
1000
0000
0000
0000
0001
0000
0010
0000
0000
0000
0100
0000
1000
0000
0000
0000
0001
0000
0100
0000
0000
0000
0010
0000
1000
0000
0000
0000
0001
0000
,
0010
0000
0000
0000
0100
0000
1000
0000
0000
0000
0000
0000
0001
0000
0000
0100
0000
0000
0010
0000
0000
0100
0000
0000
0001
0000
0000
1000
0000
0000
0100
0000
0000
1000
0000
0000
0001
0000
0000
0100
0000
0000
0010
0000
0000
0100
0000
0000
,
0001
1000
0100
1000
0001
0010
0001
1000
0001
0100
0001
1000
0001
0100
0001
1000
,
0001
0000
0000
0010
0000
0000
0001
0000
0000
1000
0000
0000
0001
0000
0000
0100
0000
0000
0010
0000
0000
1000
0000
0000
0001
0000
0000
0100
0000
0000
0010
0000
0000
1000
0000
0000
0001
0000
0000
0100
0000
0000
0010
0000
1000
0000
0001
0000
,
1000
0000
0000
0001
0100
0010
1000
0010
0100
0001
1000
0100
,
1000
0001
0010
0100
1000
0001
0100
0010
0100
0010
1000
0001
,
1000
0000
0100
0000
0010
0000
0001
0000
0000
0001
0000
0000
1000
0000
0000
1000
0000
0000
0001
0000
0000
0001
0000
0000
,
1000
1000
1001
0M00
0000
M000
0000
000M
,
0000
0M00
0000
00M0
0000
M000
0000
00M0
,
0000
000M
0000
0M00
0000
00M0
0000
M000
,
0000
000M
0000
0000
0000
0000
0000
0000
;
