#TITLE:Lovelyteks;
#SUBTITLE:;
#ARTIST:DJ Sharpnel;
#TITLETRANSLIT:;
#SUBTITLETRANSLIT:;
#ARTISTTRANSLIT:;
#CREDIT:;
#BANNER:lovely full bn new.png;
#BACKGROUND:lovely full bg new.png;
#LYRICSPATH:;
#CDTITLE:;
#MUSIC:Lovelyteks (Full Version).ogg;
#OFFSET:1.046;
#SAMPLESTART:229.414;
#SAMPLELENGTH:20.370;
#SELECTABLE:YES;
#DISPLAYBPM:188.500;
#BPMS:0.000=188.500;
#STOPS:;
#BGCHANGES:;
// cache tags:
#FIRSTBEAT:64.000;
#LASTBEAT:988.000;
#SONGFILENAME:Songs/SHARPNELSTREAMZ v2/Lovelyteks/Lovelyteks (Full Version).sm;
#HASMUSIC:1;
#HASBANNER:1;
#MUSICLENGTH:317.570;
// end cache tags

//---------------dance-single - 16 (HPF!)----------------
#NOTES:
     dance-single:
     16 (HPF!):
     Challenge:
     16:
     1.000,1.000,0.079,1.000,1.000,2753.000,25.000,432.000,55.000,0.000:
0000
0000
0000
0000
,
0000
0000
0000
0000
,
0000
0000
0000
0000
,
0000
0000
0000
0000
,
0000
0000
0000
0000
,
0000
0000
0000
0000
,
0000
0000
0000
0000
,
0000
0000
0000
0000
,
0000
0000
0000
0000
,
0000
0000
0000
0000
,
0000
0000
0000
0000
,
0000
0000
0000
0000
,
0000
0000
0000
0000
,
0000
0000
0000
0000
,
0000
0000
0000
0000
,
0000
0000
0000
0000
,
0001
0000
1000
0000
0001
0000
1000
0000
0001
0100
0001
0100
0010
1000
0100
0010
,
0001
0000
1000
0100
1000
0000
0001
0000
1000
0000
0001
0100
0001
0000
1000
0000
,
0100
0000
0010
0001
0010
0000
0100
0000
1000
0000
0001
0100
0001
0000
1000
0000
,
1000
0000
0001
0100
0001
0000
1000
0000
0001
0000
1000
0010
1000
0000
0001
0000
,
1000
0000
0001
0010
0001
0000
1000
0000
0001
0000
1000
0001
1000
0000
0001
0000
,
0001
0000
1000
0100
1000
0000
0001
0000
1000
0000
0010
0100
0010
0000
1000
0000
,
0001
0000
1000
0100
1000
0000
0001
0000
1000
0000
0001
0100
0001
0000
1000
0000
,
1000
0000
0001
0010
0001
0000
1000
0000
0001
0000
1000
0010
1000
0000
0001
0000
,
0100
0000
0010
1000
0010
0000
1000
0000
0100
0000
1000
0001
1000
0000
0001
0000
,
1000
0000
0001
0010
0001
0000
1000
0000
0001
0000
1000
0010
1000
0000
0001
0000
,
0010
0000
0100
1000
0100
0000
0010
0000
0001
0000
1000
0010
1000
0000
0001
0000
,
0001
0000
1000
0010
1000
0000
0001
0000
1000
0000
0001
0100
0001
0000
1000
0000
,
0001
0000
1000
0100
1000
0000
0001
0000
1000
0000
0001
1000
0001
0000
1000
0000
,
1000
0000
0001
0010
0001
0000
1000
0000
0001
0000
0100
0010
0100
0000
0001
0000
,
1000
0000
0001
0010
0001
0000
1000
0000
0001
0000
1000
0010
1000
0000
0001
0000
,
0001
0000
1000
0100
1000
0000
0001
0000
1000
0000
0001
0100
0001
0000
1000
0000
,
2001
0000
0000
0000
3001
0000
0100
0001
1000
0000
1000
0000
0001
0000
0001
0000
,
1001
0000
1000
0001
1000
0000
0001
0010
0100
0000
1000
0100
0000
M100
0001
0000
,
1000
0000
0001
0100
0001
0000
1000
0001
0010
0000
0001
0100
0000
010M
1000
0000
,
0100
0000
1000
0100
1000
0000
0001
0010
0100
0000
1000
0100
0000
M100
0001
0000
,
1000
0000
0001
0010
0001
0000
1000
0001
0100
0000
0001
0010
0000
001M
1000
0000
,
0001
0000
1000
0100
1000
0000
0001
0010
0100
0000
1000
0100
0000
M100
0001
0000
,
1000
0000
0001
1000
0001
0000
1000
0100
0010
0000
0001
0100
0000
010M
1000
0000
,
0100
0000
0010
0001
0010
0000
0001
1000
0100
0000
1000
0100
0000
M100
0001
0000
,
1000
0000
0010
1000
0010
0000
1000
0001
0100
0000
0001
0010
0000
001M
1000
0000
,
0010
0000
1000
0010
1000
0000
0001
1000
0100
0000
1000
0100
0000
M100
0001
0000
,
1000
0000
0001
0100
0001
0000
1000
0100
0010
0000
0001
0100
0000
010M
1000
0000
,
0100
0000
0010
0001
0010
0000
0001
1000
0010
0000
1000
0100
0000
M100
0001
0000
,
1000
0000
0001
0100
0001
0000
1000
0100
0010
0000
0001
0010
0000
001M
1000
0000
,
0001
0000
1000
0010
1000
0000
0001
1000
0100
0000
1000
0100
0000
M100
0001
0000
,
1000
0000
0001
0010
0001
0000
1000
0001
0010
0000
0001
0100
0000
010M
1000
0000
,
0100
0000
0010
0001
0010
0000
0001
1000
0010
0000
1000
0100
0000
M100
0001
0000
,
10M0
0000
00M1
0000
01M1
0000
10M0
0001
1000
0000
0001
0010
0100
0010
0001
0000
,
1000
0100
1000
0100
0010
0001
0010
0001
1000
0010
1000
0100
1000
0010
1000
0001
,
0010
0100
0010
0100
1000
0001
1000
0001
1000
0010
1000
0100
1000
0001
1000
0010
,
1000
0001
1000
0001
0100
0010
0100
0010
1000
0100
1000
0010
1000
0001
1000
0100
,
0010
0001
0010
0001
1000
0100
1000
0100
1000
0010
1000
0001
1000
0100
1000
0010
,
0100
0001
0100
0001
1000
0010
1000
0010
1000
0100
1000
0001
1000
0010
1000
0100
,
0010
0001
0010
0001
1000
0100
1000
0100
1000
0010
1000
0001
1000
0100
1000
0001
,
0010
0100
0010
0100
1000
0001
1000
0001
1000
0100
1000
0010
1000
0001
1000
0010
,
1000
0001
1000
0001
1000
0001
1000
0001
4000
0000
0000
0000
3MMM
0000
0000
0000
,
0001
0010
0001
0010
0100
1000
0100
1000
0001
0100
0001
0010
0001
0100
0001
1000
,
0100
0010
0100
0010
0001
1000
0001
1000
0001
0100
0001
0010
0001
1000
0001
0100
,
0001
1000
0001
1000
0010
0100
0010
0100
0001
0010
0001
0100
0001
1000
0001
0010
,
0100
1000
0100
1000
0001
0010
0001
0010
0001
0100
0001
1000
0001
0010
0001
0100
,
0010
1000
0010
1000
0001
0100
0001
0100
0001
0010
0001
1000
0001
0100
0001
0010
,
0100
1000
0100
1000
0001
0010
0001
0010
0001
0100
0001
1000
0001
0010
0001
1000
,
0100
0010
0100
0010
0001
1000
0001
1000
0001
0010
0001
0100
0001
1000
0001
0100
,
0001
1000
0001
1000
0001
1000
0001
1000
0004
0000
0000
0000
1003
0010
1000
0000
,
0001
0010
0001
0010
0100
1000
0100
1000
0001
0100
0001
0010
0001
0100
0001
1000
,
0100
0010
0100
0010
0001
1000
0001
1000
0001
0100
0001
0010
0001
1000
0001
0100
,
0001
1000
0001
1000
0010
0100
0010
0100
0001
0010
0001
0100
0001
1000
0001
0010
,
0100
1000
0100
1000
0001
0010
0001
0010
0001
0100
0001
1000
0001
0010
0001
0100
,
0010
1000
0010
1000
0001
0100
0001
0100
0001
0010
0001
1000
0001
0100
0001
0010
,
0100
1000
0100
1000
0001
0010
0001
0010
0001
0100
0001
1000
0001
0010
0001
1000
,
0100
0010
0100
0010
0001
1000
0001
1000
0001
0010
0001
0100
0001
1000
0001
0100
,
0001
1000
0001
1000
0001
1000
0001
1000
0004
0000
0000
0000
MMM3
0000
0000
0000
,
1000
0100
1000
0100
0010
0001
0010
0001
1000
0010
1000
0100
1000
0010
1000
0001
,
0010
0100
0010
0100
1000
0001
1000
0001
1000
0010
1000
0100
1000
0001
1000
0010
,
1000
0001
1000
0001
0100
0010
0100
0010
1000
0100
1000
0010
1000
0001
1000
0100
,
0010
0001
0010
0001
1000
0100
1000
0100
1000
0010
1000
0001
1000
0100
1000
0010
,
1000
0001
1000
0001
0010
0100
1000
0001
0100
0001
1000
0001
0010
0100
1000
0001
,
1000
0010
1000
0001
0100
0001
1000
0010
0100
0010
1000
0001
0100
0001
1000
0100
,
0010
0001
1000
0100
1000
0001
0010
0100
1000
0001
0010
0001
0010
0100
1000
0001
,
0100
0001
1000
0010
0100
0010
1000
0001
0100
0001
1000
0001
1000
0001
1000
0001
,
1000
0000
0100
0000
1000
0000
0100
0000
0010
0000
0001
0000
0010
0000
0001
0000
2000
3000
0020
0030
0200
0300
0002
0003
2000
3000
0020
0030
0200
0300
0002
0003
,
1000
0000
0010
0000
1000
0000
0010
0000
0100
0000
0001
0000
0100
0000
0001
0000
2000
3000
0200
0300
0020
0030
0002
0003
2000
3000
0200
0300
0020
0030
0002
0003
,
1000
0000
0100
0000
1000
0000
0100
0000
0010
0000
0001
0000
0010
0000
0001
0000
2000
3000
0020
0030
0200
0300
0002
0003
2000
3000
0020
0030
0200
0300
0002
0003
,
1000
0000
0010
0000
1000
0000
0010
0000
0100
0000
0001
0000
0100
0000
0001
0000
2000
3000
0200
0300
2000
3000
0020
0030
0200
0300
0002
0003
2000
3000
0002
0003
,
1000
0000
0100
0000
1000
0000
0100
0000
0010
0000
0001
0000
0010
0000
0001
0000
2000
3000
0020
0030
0200
0300
0002
0003
2000
3000
0020
0030
0200
0300
0002
0003
,
1000
0000
0010
0000
1000
0000
0010
0000
0100
0000
0001
0000
0100
0000
0001
0000
2000
3000
0200
0300
0020
0030
0002
0003
2000
3000
0200
0300
0020
0030
0002
0003
,
1000
0000
0100
0000
1000
0000
0100
0000
0010
0000
0001
0000
0010
0000
0001
0000
2000
3000
0020
0030
0200
0300
0002
0003
2000
3000
0020
0030
0200
0300
0002
0003
,
1000
0000
0010
0000
1000
0000
0010
0000
0100
0000
0001
0000
0100
0000
0001
0000
2000
3000
0200
0300
2000
3000
0020
0030
0200
0300
0002
0003
2000
3000
0002
0003
,
1000
0000
0100
0000
1000
0000
0100
0000
0010
0000
0001
0000
0010
0000
0001
0000
2000
3000
0020
0030
0200
0300
0002
0003
2000
3000
0020
0030
0200
0300
0002
0003
,
1000
0000
0010
0000
1000
0000
0010
0000
0100
0000
0001
0000
0100
0000
0001
0000
2000
3000
0200
0300
0020
0030
0002
0003
2000
3000
0200
0300
0020
0030
0002
0003
,
1000
0000
0100
0000
1000
0000
0100
0000
0010
0000
0001
0000
0010
0000
0001
0000
2000
3000
0020
0030
0200
0300
0002
0003
2000
3000
0020
0030
0200
0300
0002
0003
,
1000
0000
0010
0000
1000
0000
0010
0000
0100
0000
0001
0000
0100
0000
0001
0000
2000
3000
0200
0300
2000
3000
0020
0030
0200
0300
0002
0003
2000
3000
0002
0003
,
1000
0000
0100
0000
1000
0000
0100
0000
0010
0000
0001
0000
0010
0000
0001
0000
2000
3000
0020
0030
0200
0300
0002
0003
2000
3000
0020
0030
0200
0300
0002
0003
,
1000
0000
0010
0000
1000
0000
0010
0000
0100
0000
0001
0000
0100
0000
0001
0000
2000
3000
0200
0300
0020
0030
0002
0003
2000
3000
0200
0300
0020
0030
0002
0003
,
1000
0000
0100
0000
1000
0000
0100
0000
0010
0000
0001
0000
0010
0000
0001
0000
2000
3000
0020
0030
0200
0300
0002
0003
2000
3000
0020
0030
0200
0300
0002
0003
,
1000
0000
0010
0000
1000
0000
0010
0000
0100
0000
0001
0000
0100
0000
0001
0000
2000
3000
0200
0300
2000
3000
0020
0030
0200
0300
0002
0003
2000
3000
0002
0003
,
1000
0000
0100
0000
1000
0000
0100
0000
0010
0000
0001
0000
0010
0000
0001
0000
2000
3000
0020
0030
0200
0300
0002
0003
2000
3000
0020
0030
0200
0300
0002
0003
,
1000
0000
0010
0000
1000
0000
0010
0000
0100
0000
0001
0000
0100
0000
0001
0000
2000
3000
0200
0300
0020
0030
0002
0003
2000
3000
0020
0030
0200
0300
0002
0003
,
1000
0000
0100
0000
1000
0000
0100
0000
0010
0000
0001
0000
0010
0000
0001
0000
2000
3000
0020
0030
0200
0300
0002
0003
2000
3000
0020
0030
0200
0300
0002
0003
,
1000
0000
0010
0000
1000
0000
0010
0000
0100
0000
0001
0000
0100
0000
0001
0000
0020
0030
0200
0300
2000
3000
0020
0030
0200
0300
0002
0003
2000
3000
0002
0003
,
1000
0000
0100
0000
1000
0000
0100
0000
0010
0000
0001
0000
0010
0000
0001
0000
2000
3000
0020
0030
0200
0300
0002
0003
2000
3000
0020
0030
0200
0300
0002
0003
,
1000
0000
0010
0000
1000
0000
0010
0000
0100
0000
0001
0000
0100
0000
0001
0000
2000
3000
0200
0300
0020
0030
0002
0003
2000
3000
0020
0030
0200
0300
0002
0003
,
1000
0000
0100
0000
1000
0000
0100
0000
0010
0000
0001
0000
0010
0000
0001
0000
2000
3000
0020
0030
0200
0300
0002
0003
2000
3000
0020
0030
0200
0300
0002
0003
,
1000
0000
0010
0000
1000
0000
0010
0000
0100
0000
0001
0000
0100
0000
0001
0000
0020
0030
0200
0300
2000
3000
0020
0030
0200
0300
0002
0003
2000
3000
0002
0003
,
1000
0000
0100
0000
1000
0000
0100
0000
0010
0000
0001
0000
0010
0000
0001
0000
2000
3000
0020
0030
0200
0300
0002
0003
2000
3000
0020
0030
0200
0300
0002
0003
,
1000
0000
0010
0000
1000
0000
0010
0000
0100
0000
0001
0000
0100
0000
0001
0000
2000
3000
0200
0300
0020
0030
0002
0003
2000
3000
0020
0030
0200
0300
0002
0003
,
1000
0000
0100
0000
1000
0000
0100
0000
0010
0000
0001
0000
0010
0000
0001
0000
2000
3000
0020
0030
0200
0300
0002
0003
2000
3000
0020
0030
0200
0300
0002
0003
,
1000
0000
0010
0000
1000
0000
0010
0000
0100
0000
0001
0000
0100
0000
0001
0000
0020
0030
0200
0300
2000
3000
0020
0030
0200
0300
0002
0003
2000
3000
0002
0003
,
1000
0000
0100
0000
1000
0000
0100
0000
0010
0000
0001
0000
0010
0000
0001
0000
2000
3000
0020
0030
0200
0300
0002
0003
2000
3000
0020
0030
0200
0300
0002
0003
,
1000
0000
0010
0000
1000
0000
0010
0000
0100
0000
0001
0000
0100
0000
0001
0000
2000
3000
0200
0300
0020
0030
0002
0003
2000
3000
0020
0030
0200
0300
0002
0003
,
1000
0001
0010
0100
1000
0010
0100
0001
,
1000
0001
1000
0001
1000
0001
1000
0001
1000
0001
1000
0001
1000
0001
1000
0001
,
2000
0000
0000
0000
,
0000
0000
0000
0000
,
0000
0000
0000
0000
0000
0000
0000
0000
0000
0000
0000
0000
3000
M000
0000
0000
,
0001
0000
0000
0001
0000
0000
0001
0000
,
1000
0000
0000
1000
0000
0000
0000
0000
,
0010
0000
0000
0010
0000
0000
0000
0000
,
1000
0000
0000
1000
0000
0000
0000
0000
,
0001
0000
0000
0001
0000
0000
0001
0000
,
2MM1
3000
0000
1000
0000
0000
0100
0000
0000
0020
0030
0000
0001
0000
0000
0010
0000
0000
0100
0000
0000
1000
0000
0000
,
0002
0003
0000
0100
0000
0000
0010
0000
0000
2000
3000
0000
0010
0000
0000
0100
0000
0000
0001
0000
0000
1000
0000
0000
,
0200
0300
0000
0010
0000
0000
0100
0000
0000
2000
3000
0000
0001
0000
0000
0010
0000
0000
0100
0000
0000
1000
0000
0000
,
0002
0003
0000
0100
0000
0000
0010
0000
0000
0200
0300
0000
0001
0000
0000
1000
0000
0000
0020
0030
0000
0100
0000
0000
,
0002
0003
0000
0010
0000
0000
0100
0000
0000
2000
3000
0000
0001
0000
0000
0010
0000
0000
0100
0000
0000
0010
0000
0000
,
0002
0003
0000
0100
0000
0000
0010
0000
0000
2000
3000
0000
0010
0000
0000
0100
0000
0000
0001
0000
0000
1000
0000
0000
,
40M4
0000
0000
00M0
0000
0000
0000
0000
,
0M00
0000
0000
0000
0000
0000
0M00
0000
0000
0000
0000
0000
0MM0
0000
0000
3003
,
1001
0000
0101
0100
0000
0001
1001
0000
,
1000
0000
1100
0100
0000
0010
0110
0100
,
0100
0000
0011
0001
0000
1000
1010
0000
,
0001
0000
0110
0100
0000
0010
1010
1000
,
1000
0000
1001
0001
0000
0100
0110
0000
,
0010
0000
1010
1000
0000
0001
0011
0010
,
0010
0000
1001
0001
0000
0100
0101
0000
,
0010
0000
0110
0100
0000
0010
1010
1000
,
1000
0010
1000
1000
0001
0010
0010
0100
,
0010
0001
0100
0100
0010
1000
1000
0001
,
0001
0010
0100
0100
0010
0001
0001
0100
,
0010
1000
0001
0001
0010
0100
0100
1000
,
1000
0001
0010
0100
1000
0001
0010
0001
1000
0100
0010
0001
1000
0100
1000
0001
,
1000
0010
0100
0001
1000
0010
0100
0010
1000
0001
0100
0001
1000
0010
1000
0001
,
0010
0100
0010
0001
1000
0100
1000
0001
0010
0100
1000
0001
0010
0001
0010
0100
,
1000
0001
1000
0001
0100
0010
0100
0001
1000
0010
1000
0001
1000
0001
1000
0001
,
2000
0000
0000
0000
,
0000
0000
0000
0000
,
0000
0000
0000
0000
0000
0000
0000
0000
0000
0000
0000
0000
3000
M000
0000
0000
,
000M
0000
00MM
0000
0MMM
0000
MMMM
0001
,
1000
0010
0000
1000
0000
0001
0000
0010
,
0100
1000
0000
0001
0000
0100
0000
0010
,
1000
0001
0000
0010
0000
0001
0000
0100
,
0010
1000
0000
0001
0000
0010
0000
0100
,
0010
0001
0000
1000
0000
0010
0000
0100
,
0001
1000
0000
0010
0000
1000
0000
0001
,
0010
0100
0000
0010
0000
0001
0000
1000
,
0100
0010
0000
0001
0000
0100
0000
0010
,
1000
0001
0000
0010
0000
0001
0000
0100
,
0010
1000
0000
0001
0000
0010
0000
0001
,
0100
0010
0000
1000
0000
0010
0000
0100
,
0001
0010
0000
0001
0000
1000
0000
0010
,
1000
0001
0000
0100
0000
0010
0000
0100
,
0001
0010
0000
0001
0000
1000
0000
0010
,
0100
0001
0000
1000
0000
0100
0000
0010
,
M001
0100
M00M
0010
MM0M
1000
MMMM
0001
,
2000
0000
3020
0030
0000
0000
0020
0030
0000
0000
0020
0030
0000
0000
0020
0030
,
0100
0000
0002
0003
0000
0000
0002
0003
0000
0000
0002
0003
0000
0000
0002
0003
,
0010
0000
0200
0300
0000
0000
0200
0300
0000
0000
0200
0300
0000
0000
0200
0300
,
1000
0000
0020
0030
0000
0000
0020
0030
0000
0000
0200
0300
0200
0300
0002
0003
,
2000
0000
3200
0300
0000
0000
0200
0300
0000
0000
0200
0300
0000
0000
0200
0300
,
0010
0000
0002
0003
0000
0000
0002
0003
0000
0000
0002
0003
0000
0000
0002
0003
,
0100
0000
0020
0030
0000
0000
0020
0030
0000
0000
0020
0030
0000
0000
0020
0030
,
1000
0000
0200
0300
0000
0000
0200
0300
0000
0000
0020
0030
0020
0030
0002
0003
,
2001
0000
3000
0000
0001
0100
0010
0200
,
0000
0000
0310
2000
0000
3002
0000
0023
,
0000
0000
0030
0000
0100
1000
0001
2000
,
0000
3002
0000
0203
0000
0320
0000
2030
,
3001
0010
0100
0010
0001
1000
0100
1000
0001
0010
0100
1000
0001
0010
0001
1000
,
0001
0100
0010
0100
0001
1000
0010
1000
0001
0100
0010
0100
0001
1000
0010
1000
,
0001
0010
0001
1000
0100
0010
0001
1000
0100
1000
0100
0010
0001
1000
0100
1000
,
0001
0000
1000
0000
0001
0000
1000
0000
0001
0000
1000
0001
1000
0000
0001
0000
,
1000
0010
1000
0001
0100
0010
0100
0001
1000
0010
1000
0001
0100
0001
0010
0100
,
0010
0001
0010
0100
1000
0001
0010
0100
0010
0001
0100
0010
0100
0001
0010
0100
,
0010
0001
1000
0100
1000
0001
0100
0010
1000
0001
1000
0010
0100
0001
0010
0100
,
0010
0001
0100
0010
1000
0010
0100
0001
0010
0001
0100
0010
1000
0001
0010
0100
,
1000
0001
0100
0010
1000
0010
0100
0001
1000
0010
1000
0001
0100
0001
0010
0100
,
0010
0001
0010
0100
1000
0001
0010
0100
0010
0001
0100
0010
0100
0001
0010
0100
,
1000
0001
0100
0010
1000
0010
0100
0001
1000
0001
0100
0010
1000
0001
0100
0001
,
1000
0100
0010
0100
1000
0001
0010
0001
1000
0010
0100
0010
1000
0001
0010
0100
,
1000
0010
1000
0001
0100
0010
0100
0001
1000
0010
1000
0001
0100
0001
0010
0100
,
0010
0001
0010
0100
1000
0001
0010
0100
0010
0001
0100
0010
0100
0001
0010
0100
,
0010
0001
1000
0100
1000
0001
0100
0010
1000
0001
1000
0010
0100
0001
0010
0100
,
0010
0001
0100
0010
1000
0010
0100
0001
0010
0001
0100
0010
1000
0001
0010
0100
,
1000
0001
0100
0010
1000
0010
0100
0001
1000
0010
1000
0001
0100
0001
0010
0100
,
0010
0001
0010
0100
1000
0001
0010
0100
0010
0001
0100
0010
0100
0001
0010
0100
,
1000
0001
0100
0010
1000
0010
0100
0001
1000
0001
0100
0010
1000
0001
0100
0001
,
1000
0100
0010
0100
1000
0001
1000
0001
0200
0000
0000
0300
0101
0000
0001
0010
,
0100
1000
0001
1000
0001
0100
0010
1000
0001
0100
0001
1000
0010
1000
0100
0010
,
0100
1000
0100
0010
0001
1000
0100
0010
0100
1000
0010
0100
0010
1000
0100
0010
,
0100
1000
0001
0010
0001
1000
0010
0100
0001
1000
0001
0100
0010
1000
0100
0010
,
0100
1000
0010
0100
0001
0100
0010
1000
0100
1000
0010
0100
0001
1000
0100
0010
,
0001
1000
0010
0100
0001
0100
0010
1000
0001
0100
0001
1000
0010
1000
0100
0010
,
0100
1000
0100
0010
0001
1000
0100
0010
0100
1000
0010
0100
0010
1000
0100
0010
,
0001
1000
0010
0100
0001
0100
0010
1000
0001
1000
0010
0100
0001
1000
0010
1000
,
0001
0010
0100
0010
0001
1000
0100
1000
0001
0100
0010
0100
0001
1000
0100
0010
,
0001
0100
0001
1000
0010
0100
0010
1000
0001
0100
0001
1000
0010
1000
0100
0010
,
0100
1000
0100
0010
0001
1000
0100
0010
0100
1000
0010
0100
0010
1000
0100
0010
,
0100
1000
0001
0010
0001
1000
0010
0100
0001
1000
0001
0100
0010
1000
0100
0010
,
0100
1000
0010
0100
0001
0100
0010
1000
0100
1000
0010
0100
0001
1000
0100
0010
,
0001
1000
0010
0100
0001
0100
0010
1000
0001
0100
0001
1000
0010
1000
0100
0010
,
0100
1000
0100
0010
0001
1000
0100
0010
0100
1000
0010
0100
0010
1000
0100
0010
,
0001
1000
0010
0100
0001
0100
0010
1000
0001
1000
0010
0100
0001
1000
0010
0100
,
0001
1000
0001
1000
0001
1000
0001
1000
0001
1000
0001
1000
0001
1000
0001
1000
,
0001
0000
0010
0000
0001
0000
0010
0000
0100
0000
1000
0000
0100
0000
1000
0000
0002
0003
0200
0300
0020
0030
2000
3000
0002
0003
0200
0300
0020
0030
2000
3000
,
0001
0000
0100
0000
0001
0000
0100
0000
0010
0000
1000
0000
0010
0000
1000
0000
0002
0003
0020
0030
0200
0300
2000
3000
0002
0003
0020
0030
0200
0300
2000
3000
,
0001
0000
0010
0000
0001
0000
0010
0000
0100
0000
1000
0000
0100
0000
1000
0000
0002
0003
0200
0300
0020
0030
2000
3000
0002
0003
0200
0300
0020
0030
2000
3000
,
0001
0000
0100
0000
0001
0000
0100
0000
0010
0000
1000
0000
0010
0000
1000
0000
0002
0003
0020
0030
0200
0300
2000
3000
0002
0003
0020
0030
0200
0300
2000
3000
,
0001
0000
0010
0000
0001
0000
0010
0000
0100
0000
1000
0000
0100
0000
1000
0000
0002
0003
0200
0300
0020
0030
2000
3000
0002
0003
0200
0300
0020
0030
2000
3000
,
0001
0000
0100
0000
0001
0000
0100
0000
0010
0000
1000
0000
0010
0000
1000
0000
0002
0003
0020
0030
0200
0300
2000
3000
0002
0003
0020
0030
0200
0300
2000
3000
,
0001
0000
0010
0000
0001
0000
0010
0000
0100
0000
1000
0000
0100
0000
1000
0000
0002
0003
0200
0300
0020
0030
2000
3000
0002
0003
0200
0300
0020
0030
2000
3000
,
0001
0000
0100
0000
0001
0000
0100
0000
0010
0000
1000
0000
0010
0000
1000
0000
0002
0003
0020
0030
0200
0300
2000
3000
0002
0003
0020
0030
0200
0300
2000
3000
,
0001
0000
0010
0000
0001
0000
0010
0000
0100
0000
1000
0000
0100
0000
1000
0000
0002
0003
0200
0300
0020
0030
2000
3000
0002
0003
0200
0300
0020
0030
2000
3000
,
0001
0000
0100
0000
0001
0000
0100
0000
0010
0000
1000
0000
0010
0000
1000
0000
0002
0003
0020
0030
0200
0300
2000
3000
0002
0003
0020
0030
0200
0300
2000
3000
,
0001
0000
0010
0000
0001
0000
0010
0000
0100
0000
1000
0000
0100
0000
1000
0000
0002
0003
0200
0300
0020
0030
2000
3000
0002
0003
0200
0300
0020
0030
2000
3000
,
0001
0000
0100
0000
0001
0000
0100
0000
0010
0000
1000
0000
0010
0000
1000
0000
0002
0003
0020
0030
0200
0300
2000
3000
0002
0003
0020
0030
0200
0300
2000
3000
,
0001
0000
0010
0000
0001
0000
0010
0000
0100
0000
1000
0000
0100
0000
1000
0000
0002
0003
0200
0300
0020
0030
2000
3000
0002
0003
0200
0300
0020
0030
2000
3000
,
0001
0000
0100
0000
0001
0000
0100
0000
0010
0000
1000
0000
0010
0000
1000
0000
0002
0003
0020
0030
0200
0300
2000
3000
0002
0003
0020
0030
0200
0300
2000
3000
,
0001
0000
0010
0000
0001
0000
0010
0000
0100
0000
1000
0000
0100
0000
1000
0000
0002
0003
0200
0300
0020
0030
2000
3000
0002
0003
0200
0300
0020
0030
2000
3000
,
0001
0000
0100
0000
0001
0000
0100
0000
0010
0000
1000
0000
0010
0000
1000
0000
0002
0003
0020
0030
0200
0300
2000
3000
0002
0003
0020
0030
0200
0300
2000
3000
,
0001
1000
0001
1000
0001
0010
0001
0010
0100
1000
0100
0010
0100
1000
0100
0010
,
0001
1000
0001
1000
0010
0100
0010
0100
0001
1000
0001
0010
0001
1000
0001
0010
,
0100
1000
0100
1000
0001
0010
0001
0010
0100
1000
0100
0010
0100
1000
0100
0010
,
0001
1000
0001
1000
0001
0100
0001
0100
0010
0100
0010
1000
0010
0100
0010
1000
,
0001
1000
0001
1000
0001
0010
0001
0010
0100
1000
0100
0010
0100
1000
0100
0010
,
0001
1000
0001
1000
0010
0100
0010
0100
0001
1000
0001
0010
0001
1000
0001
0010
,
0100
1000
0100
1000
0001
0010
0001
0010
0100
1000
0100
0010
0100
1000
0100
0010
,
0001
1000
0001
1000
0001
0100
0001
0100
0010
0100
0010
1000
0010
0100
0010
1000
,
0001
1000
0001
1000
0001
0010
0001
0010
0100
1000
0100
0010
0100
1000
0100
0010
,
0001
1000
0001
1000
0010
0100
0010
0100
0001
1000
0001
0010
0001
1000
0001
0010
,
0100
1000
0100
1000
0001
0010
0001
0010
0100
1000
0100
0010
0100
1000
0100
0010
,
0001
1000
0001
1000
0001
0100
0001
0100
0010
0100
0010
1000
0010
0100
0010
1000
,
0001
1000
0001
1000
0001
0010
0001
0010
0100
1000
0100
0010
0100
1000
0100
0010
,
0001
1000
0001
1000
0010
0100
0010
0100
0001
1000
0001
0010
0001
1000
0001
0010
,
0001
1000
0100
0010
0001
1000
0010
0100
,
0001
1000
0001
1000
0001
1000
0001
1000
0001
1000
0001
1000
0001
1000
0001
1000
,
0002
0000
0000
0000
,
0000
0000
0000
0000
,
0003
0000
0000
0000
;

//---------------dance-single - 15- (HPF!)----------------
#NOTES:
     dance-single:
     15- (HPF!):
     Hard:
     15:
     1.000,1.000,0.079,0.601,1.000,2448.000,25.000,191.000,73.000,0.000:
0000
0000
0000
0000
,
0000
0000
0000
0000
,
0000
0000
0000
0000
,
0000
0000
0000
0000
,
0000
0000
0000
0000
,
0000
0000
0000
0000
,
0000
0000
0000
0000
,
0000
0000
0000
0000
,
0000
0000
0000
0000
,
0000
0000
0000
0000
,
0000
0000
0000
0000
,
0000
0000
0000
0000
,
0000
0000
0000
0000
,
0000
0000
0000
0000
,
0000
0000
0000
0000
,
0000
0000
0000
0000
,
0001
0000
1000
0000
0001
0000
1000
0000
0001
0100
0001
0100
0010
1000
0100
0010
,
0001
0000
1000
0100
1000
0000
0001
0000
1000
0000
0001
0100
0001
0000
1000
0000
,
0100
0000
0010
0001
0010
0000
0100
0000
1000
0000
0001
0100
0001
0000
1000
0000
,
1000
0000
0001
0100
0001
0000
1000
0000
0001
0000
1000
0010
1000
0000
0001
0000
,
1000
0000
0001
0010
0001
0000
1000
0000
0001
0000
1000
0001
1000
0000
0001
0000
,
0001
0000
1000
0100
1000
0000
0001
0000
1000
0000
0010
0100
0010
0000
1000
0000
,
0001
0000
1000
0100
1000
0000
0001
0000
1000
0000
0001
0100
0001
0000
1000
0000
,
1000
0000
0001
0010
0001
0000
1000
0000
0001
0000
1000
0010
1000
0000
0001
0000
,
0100
0000
0010
1000
0010
0000
1000
0000
0100
0000
1000
0001
1000
0000
0001
0000
,
1000
0000
0001
0010
0001
0000
1000
0000
0001
0000
1000
0010
1000
0000
0001
0000
,
0010
0000
0100
1000
0100
0000
0010
0000
0001
0000
1000
0010
1000
0000
0001
0000
,
0001
0000
1000
0010
1000
0000
0001
0000
1000
0000
0001
0100
0001
0000
1000
0000
,
0001
0000
1000
0100
1000
0000
0001
0000
1000
0000
0001
1000
0001
0000
1000
0000
,
1000
0000
0001
0010
0001
0000
1000
0000
0001
0000
0100
0010
0100
0000
0001
0000
,
1000
0000
0001
0010
0001
0000
1000
0000
0001
0000
1000
0010
1000
0000
0001
0000
,
0001
0000
1000
0100
1000
0000
0001
0000
1000
0000
0001
0100
0001
0000
1000
0000
,
2001
0000
0000
0000
3001
0000
0100
0001
1000
0000
1000
0000
0001
0000
0001
0000
,
1001
0000
1000
0001
1000
0000
0001
0010
0100
0000
1000
0100
0000
M100
0001
0000
,
1000
0000
0001
0100
0001
0000
1000
0001
0010
0000
0001
0100
0000
010M
1000
0000
,
0100
0000
1000
0100
1000
0000
0001
0010
0100
0000
1000
0100
0000
M100
0001
0000
,
1000
0000
0001
0010
0001
0000
1000
0001
0100
0000
0001
0010
0000
001M
1000
0000
,
0001
0000
1000
0100
1000
0000
0001
0010
0100
0000
1000
0100
0000
M100
0001
0000
,
1000
0000
0001
1000
0001
0000
1000
0100
0010
0000
0001
0100
0000
010M
1000
0000
,
0100
0000
0010
0001
0010
0000
0001
1000
0100
0000
1000
0100
0000
M100
0001
0000
,
1000
0000
0010
1000
0010
0000
1000
0001
0100
0000
0001
0010
0000
001M
1000
0000
,
0010
0000
1000
0010
1000
0000
0001
1000
0100
0000
1000
0100
0000
M100
0001
0000
,
1000
0000
0001
0100
0001
0000
1000
0100
0010
0000
0001
0100
0000
010M
1000
0000
,
0100
0000
0010
0001
0010
0000
0001
1000
0010
0000
1000
0100
0000
M100
0001
0000
,
1000
0000
0001
0100
0001
0000
1000
0100
0010
0000
0001
0010
0000
001M
1000
0000
,
0001
0000
1000
0010
1000
0000
0001
1000
0100
0000
1000
0100
0000
M100
0001
0000
,
1000
0000
0001
0010
0001
0000
1000
0001
0010
0000
0001
0100
0000
010M
1000
0000
,
0100
0000
0010
0001
0010
0000
0001
1000
0010
0000
1000
0100
0000
M100
0001
0000
,
10M0
0000
00M1
0000
01M1
0000
10M0
0001
1000
0000
0001
0010
0100
0010
0001
0000
,
1000
0100
1000
0100
0010
0001
0010
0001
1000
0010
1000
0100
1000
0010
1000
0001
,
0010
0100
0010
0100
1000
0001
1000
0001
1000
0010
1000
0100
1000
0001
1000
0010
,
1000
0001
1000
0001
0100
0010
0100
0010
1000
0100
1000
0010
1000
0001
1000
0100
,
0010
0001
0010
0001
1000
0100
1000
0100
1000
0010
1000
0001
1000
0100
1000
0010
,
0100
0001
0100
0001
1000
0010
1000
0010
1000
0100
1000
0001
1000
0010
1000
0100
,
0010
0001
0010
0001
1000
0100
1000
0100
1000
0010
1000
0001
1000
0100
1000
0001
,
0010
0100
0010
0100
1000
0001
1000
0001
1000
0100
1000
0010
1000
0001
1000
0010
,
1000
0001
1000
0001
1000
0001
1000
0001
4000
0000
0000
0000
3MMM
0000
0000
0000
,
0001
0010
0001
0010
0100
1000
0100
1000
0001
0100
0001
0010
0001
0100
0001
1000
,
0100
0010
0100
0010
0001
1000
0001
1000
0001
0100
0001
0010
0001
1000
0001
0100
,
0001
1000
0001
1000
0010
0100
0010
0100
0001
0010
0001
0100
0001
1000
0001
0010
,
0100
1000
0100
1000
0001
0010
0001
0010
0001
0100
0001
1000
0001
0010
0001
0100
,
0010
1000
0010
1000
0001
0100
0001
0100
0001
0010
0001
1000
0001
0100
0001
0010
,
0100
1000
0100
1000
0001
0010
0001
0010
0001
0100
0001
1000
0001
0010
0001
1000
,
0100
0010
0100
0010
0001
1000
0001
1000
0001
0010
0001
0100
0001
1000
0001
0100
,
0001
1000
0001
1000
0001
1000
0001
1000
0004
0000
0000
0000
1003
0010
1000
0000
,
0001
0010
0001
0010
0100
1000
0100
1000
0001
0100
0001
0010
0001
0100
0001
1000
,
0100
0010
0100
0010
0001
1000
0001
1000
0001
0100
0001
0010
0001
1000
0001
0100
,
0001
1000
0001
1000
0010
0100
0010
0100
0001
0010
0001
0100
0001
1000
0001
0010
,
0100
1000
0100
1000
0001
0010
0001
0010
0001
0100
0001
1000
0001
0010
0001
0100
,
0010
1000
0010
1000
0001
0100
0001
0100
0001
0010
0001
1000
0001
0100
0001
0010
,
0100
1000
0100
1000
0001
0010
0001
0010
0001
0100
0001
1000
0001
0010
0001
1000
,
0100
0010
0100
0010
0001
1000
0001
1000
0001
0010
0001
0100
0001
1000
0001
0100
,
0001
1000
0001
1000
0001
1000
0001
1000
0004
0000
0000
0000
MMM3
0000
0000
0000
,
1000
0100
1000
0100
0010
0001
0010
0001
1000
0010
1000
0100
1000
0010
1000
0001
,
0010
0100
0010
0100
1000
0001
1000
0001
1000
0010
1000
0100
1000
0001
1000
0010
,
1000
0001
1000
0001
0100
0010
0100
0010
1000
0100
1000
0010
1000
0001
1000
0100
,
0010
0001
0010
0001
1000
0100
1000
0100
1000
0010
1000
0001
1000
0100
1000
0010
,
1000
0001
1000
0001
0010
0100
1000
0001
0100
0001
1000
0001
0010
0100
1000
0001
,
1000
0010
1000
0001
0100
0001
1000
0010
0100
0010
1000
0001
0100
0001
1000
0100
,
0010
0001
1000
0100
1000
0001
0010
0100
1000
0001
0010
0001
0010
0100
1000
0001
,
0100
0001
1000
0010
0100
0010
1000
0001
0100
0001
1000
0001
1000
0001
1000
0001
,
1000
0100
1000
0100
1000
0100
1000
0100
,
0010
0001
0010
0001
0010
0001
0010
0001
,
1000
0010
1000
0010
1000
0010
1000
0010
,
0100
0001
0100
0001
0100
0001
10M0
10M0
,
0100
0010
0100
0010
0100
0010
0100
0010
,
0001
1000
0001
1000
0001
1000
0001
1000
,
0010
1000
0010
1000
0010
1000
0010
1000
,
0001
0000
0100
0000
0001
0000
0100
0000
0001
0100
0000
010M
1000
0000
0001
0010
,
0100
1000
0100
1000
0100
1000
0100
1000
,
0001
0010
0001
0010
0001
0010
0001
0010
,
0100
0010
0100
0010
0100
0010
0100
0010
,
0001
1000
0001
1000
0001
1000
0M10
0M10
,
1000
0100
1000
0100
1000
0100
1000
0100
,
0010
0001
0010
0001
0010
0001
0010
0001
,
1000
0010
1000
0010
1000
0010
1000
0010
,
1000
0000
0001
0000
1000
0000
0001
0000
1000
0100
0000
M100
0001
0000
1000
0100
,
0010
0001
0010
0000
0001
1000
0001
0000
1000
0010
1000
0000
0001
0100
0001
0000
,
1000
0001
1000
0000
0001
0010
0001
0000
1000
0010
1000
0000
0001
0010
0001
0000
,
1000
0100
1000
0000
0001
1000
0001
0000
1000
0100
1000
0000
0001
0010
0001
0000
,
1000
0010
1000
0000
0001
0100
0001
0000
1000
0001
1000
0000
00M1
0000
00M1
0000
,
1000
0100
1000
0000
0001
0010
0001
0000
1000
0010
1000
0000
0001
0100
0001
0000
,
1000
0001
1000
0000
0010
0100
0010
0000
0100
0001
0100
0000
0010
1000
0010
0000
,
1000
0001
1000
0000
0001
0010
0001
0000
1000
0100
1000
0000
0001
0010
0001
0000
,
1000
0100
1000
0000
0001
0100
0001
0000
1000
0100
0000
M100
0001
0000
1000
0100
,
0010
0001
0010
0000
0001
1000
0001
0000
1000
0010
1000
0000
0001
0100
0001
0000
,
0100
0010
0100
0000
0010
1000
0010
0000
1000
0001
1000
0000
0100
1000
0100
0000
,
0010
0001
0010
0000
0001
1000
0001
0000
1000
0010
1000
0000
0001
0010
0001
0000
,
0100
0010
0100
0000
0010
1000
0010
0000
1000
0001
1000
0000
01M0
0000
01M0
0000
,
0010
0001
0010
0000
0001
1000
0001
0000
1000
0010
1000
0000
0001
0100
0001
0000
,
0100
0010
0100
0000
0010
1000
0010
0000
1000
0001
1000
0000
0001
0010
0001
0000
,
1000
0001
0010
0100
1000
0010
0100
0001
,
1000
0001
1000
0001
1000
0001
1000
0001
1000
0001
1000
0001
1000
0001
1000
0001
,
2000
0000
0000
0000
,
0000
0000
0000
0000
,
0000
0000
0000
0000
0000
0000
0000
0000
0000
0000
0000
0000
3000
M000
0000
0000
,
0001
0000
0000
0001
0000
0000
0001
0000
,
1000
0000
0000
1000
0000
0000
0000
0000
,
0010
0000
0000
0010
0000
0000
0000
0000
,
1000
0000
0000
1000
0000
0000
0000
0000
,
0001
0000
0000
0001
0000
0000
0001
0000
,
2MM1
3000
0000
1000
0000
0000
0100
0000
0000
0020
0030
0000
0001
0000
0000
0010
0000
0000
0100
0000
0000
1000
0000
0000
,
0002
0003
0000
0100
0000
0000
0010
0000
0000
2000
3000
0000
0010
0000
0000
0100
0000
0000
0001
0000
0000
1000
0000
0000
,
0200
0300
0000
0010
0000
0000
0100
0000
0000
2000
3000
0000
0001
0000
0000
0010
0000
0000
0100
0000
0000
1000
0000
0000
,
0002
0003
0000
0100
0000
0000
0010
0000
0000
0200
0300
0000
0001
0000
0000
1000
0000
0000
0020
0030
0000
0100
0000
0000
,
0002
0003
0000
0010
0000
0000
0100
0000
0000
2000
3000
0000
0001
0000
0000
0010
0000
0000
0100
0000
0000
0010
0000
0000
,
0002
0003
0000
0100
0000
0000
0010
0000
0000
2000
3000
0000
0010
0000
0000
0100
0000
0000
0001
0000
0000
1000
0000
0000
,
40M4
0000
0000
00M0
0000
0000
0000
0000
,
0M00
0000
0000
0000
0000
0000
0M00
0000
0000
0000
0000
0000
0MM0
0000
0000
3003
,
1001
0000
0101
0100
0000
0001
1001
0000
,
1000
0000
1100
0100
0000
0010
0110
0100
,
0100
0000
0011
0001
0000
1000
1010
0000
,
0001
0000
0110
0100
0000
0010
1010
1000
,
1000
0000
1001
0001
0000
0100
0110
0000
,
0010
0000
1010
1000
0000
0001
0011
0010
,
0010
0000
1001
0001
0000
0100
0101
0000
,
0010
0000
0110
0100
0000
0010
1010
1000
,
1000
0010
1000
1000
0001
0010
0010
0100
,
0010
0001
0100
0100
0010
1000
1000
0001
,
0001
0010
0100
0100
0010
0001
0001
0100
,
0010
1000
0001
0001
0010
0100
0100
1000
,
1000
0001
0010
0100
1000
0001
0010
0001
1000
0100
0010
0001
1000
0100
1000
0001
,
1000
0010
0100
0001
1000
0010
0100
0010
1000
0001
0100
0001
1000
0010
1000
0001
,
0010
0100
0010
0001
1000
0100
1000
0001
0010
0100
1000
0001
0010
0001
0010
0100
,
1000
0001
1000
0001
0100
0010
0100
0001
1000
0010
1000
0001
1000
0001
1000
0001
,
2000
0000
0000
0000
,
0000
0000
0000
0000
,
0000
0000
0000
0000
0000
0000
0000
0000
0000
0000
0000
0000
3000
M000
0000
0000
,
000M
0000
00MM
0000
0MMM
0000
MMMM
0001
,
1000
0010
0000
1000
0000
0001
0000
0010
,
0100
1000
0000
0001
0000
0100
0000
0010
,
1000
0001
0000
0010
0000
0001
0000
0100
,
0010
1000
0000
0001
0000
0010
0000
0100
,
0010
0001
0000
1000
0000
0010
0000
0100
,
0001
1000
0000
0010
0000
1000
0000
0001
,
0010
0100
0000
0010
0000
0001
0000
1000
,
0100
0010
0000
0001
0000
0100
0000
0010
,
1000
0001
0000
0010
0000
0001
0000
0100
,
0010
1000
0000
0001
0000
0010
0000
0001
,
0100
0010
0000
1000
0000
0010
0000
0100
,
0001
0010
0000
0001
0000
1000
0000
0010
,
1000
0001
0000
0100
0000
0010
0000
0100
,
0001
0010
0000
0001
0000
1000
0000
0010
,
0100
0001
0000
1000
0000
0100
0000
0010
,
M001
0100
M00M
0010
MM0M
1000
MMMM
0001
,
2000
0000
3020
0030
0000
0000
0020
0030
0000
0000
0020
0030
0000
0000
0020
0030
,
0100
0000
0002
0003
0000
0000
0002
0003
0000
0000
0002
0003
0000
0000
0002
0003
,
0010
0000
0200
0300
0000
0000
0200
0300
0000
0000
0200
0300
0000
0000
0200
0300
,
1000
0000
0020
0030
0000
0000
0020
0030
0000
0000
0200
0300
0200
0300
0002
0003
,
2000
0000
3200
0300
0000
0000
0200
0300
0000
0000
0200
0300
0000
0000
0200
0300
,
0010
0000
0002
0003
0000
0000
0002
0003
0000
0000
0002
0003
0000
0000
0002
0003
,
0100
0000
0020
0030
0000
0000
0020
0030
0000
0000
0020
0030
0000
0000
0020
0030
,
1000
0000
0200
0300
0000
0000
0200
0300
0000
0000
0020
0030
0020
0030
0002
0003
,
2001
0000
3000
0000
0001
0100
0010
0200
,
0000
0000
0310
2000
0000
3002
0000
0023
,
0000
0000
0030
0000
0100
1000
0001
2000
,
0000
3002
0000
0203
0000
0320
0000
2030
,
3001
0010
0100
0010
0001
1000
0100
1000
0001
0010
0100
1000
0001
0010
0001
1000
,
0001
0100
0010
0100
0001
1000
0010
1000
0001
0100
0010
0100
0001
1000
0010
1000
,
0001
0010
0001
1000
0100
0010
0001
1000
0100
1000
0100
0010
0001
1000
0100
1000
,
0001
0000
1000
0000
0001
0000
1000
0000
0001
0000
1000
0001
1000
0000
0001
0000
,
0010
0001
0010
0000
0001
1000
0001
0000
1000
0010
1000
0000
0001
0100
0001
0000
,
1000
0001
1000
0000
0001
0010
0001
0000
1000
0010
1000
0000
0001
0010
0001
0000
,
1000
0100
1000
0000
0001
1000
0001
0000
1000
0100
1000
0000
0001
0010
0001
0000
,
1000
0010
1000
0000
0001
0100
0001
0000
1000
0001
1000
0000
00M1
0000
00M1
0000
,
1000
0100
1000
0000
0001
0010
0001
0000
1000
0010
1000
0000
0001
0100
0001
0000
,
1000
0001
1000
0000
0010
0100
0010
0000
0100
0001
0100
0000
0010
1000
0010
0000
,
1000
0001
1000
0000
0001
0010
0001
0000
1000
0100
1000
0000
0001
0010
0001
0000
,
1000
0100
1000
0000
0001
0100
0001
0000
1000
0010
0000
M010
0001
0000
1000
0100
,
0010
0001
0010
0000
0001
1000
0001
0000
1000
0010
1000
0000
0001
0100
0001
0000
,
0100
0010
0100
0000
0010
1000
0010
0000
1000
0001
1000
0000
0100
1000
0100
0000
,
0010
0001
0010
0000
0001
1000
0001
0000
1000
0010
1000
0000
0001
0010
0001
0000
,
0100
0010
0100
0000
0010
1000
0010
0000
1000
0001
1000
0000
01M0
0000
01M0
0000
,
0010
0001
0010
0000
0001
1000
0001
0000
1000
0010
1000
0000
0001
0100
0001
0000
,
0100
0010
0100
0000
0010
1000
0010
0000
1000
0001
1000
0000
0001
0010
0001
0000
,
1000
0100
1000
0000
0001
0100
0001
0000
1000
0010
1000
0000
0001
1000
0001
0000
,
1000
0010
1000
0010
1000
0010
1000
0010
4000
0000
0000
0000
3001
0000
0001
0010
,
0100
1000
0100
1000
0001
0010
0001
0010
0100
0000
1000
0010
1000
0001
1000
0000
,
0001
0100
0001
0100
0010
1000
0010
1000
0001
0000
1000
0100
1000
0010
1000
0000
,
0001
1000
0001
1000
0100
0010
0100
0010
0001
0000
1000
0010
1000
0100
1000
0000
,
0001
0100
0001
0100
0010
1000
0010
1000
0001
0000
0100
0010
0100
0001
0100
0000
,
0001
0010
0001
0010
0100
1000
0100
1000
0001
0000
1000
0010
1000
0001
1000
0000
,
0001
0100
0001
0100
0010
1000
0010
1000
0001
0000
1000
0100
1000
0010
1000
0000
,
0001
1000
0001
1000
0100
0010
0100
0010
0001
0000
1000
0010
1000
0100
1000
0000
,
0001
0100
0001
0100
0010
1000
0010
1000
0001
0010
0000
001M
1000
0000
0001
1000
,
0100
1000
0100
1000
0001
0010
0001
0010
0100
0000
1000
0010
1000
0001
1000
0000
,
0001
0100
0001
0100
0010
1000
0010
1000
0001
0000
1000
0100
1000
0010
1000
0000
,
0001
1000
0001
1000
0100
0010
0100
0010
0001
0000
1000
0010
1000
0100
1000
0000
,
0001
0100
0001
0100
0010
1000
0010
1000
0001
0000
0100
0010
0100
0001
0100
0000
,
0001
0100
0010
0100
0001
1000
0010
1000
0001
0100
0010
0100
0001
1000
0010
1000
,
0001
0010
0100
0010
0001
1000
0100
1000
0001
0010
0100
1000
0100
0010
0100
1000
,
0001
1000
0100
0010
0001
1000
0010
0100
,
0001
1000
0001
1000
0001
1000
0001
1000
0001
1000
0001
1000
0001
1000
0001
1000
,
0001
0000
0010
0000
0001
0000
0010
0000
0100
0000
1000
0000
0100
0000
1000
0000
0002
0003
0200
0300
0020
0030
2000
3000
0002
0003
0200
0300
0020
0030
2000
3000
,
0001
0000
0100
0000
0001
0000
0100
0000
0010
0000
1000
0000
0010
0000
1000
0000
0002
0003
0020
0030
0200
0300
2000
3000
0002
0003
0020
0030
0200
0300
2000
3000
,
0001
0000
0010
0000
0001
0000
0010
0000
0100
0000
1000
0000
0100
0000
1000
0000
0002
0003
0200
0300
0020
0030
2000
3000
0002
0003
0200
0300
0020
0030
2000
3000
,
0001
0000
0100
0000
0001
0000
0100
0000
0010
0000
1000
0000
0010
0000
1000
0000
0002
0003
0020
0030
0200
0300
2000
3000
0002
0003
0020
0030
0200
0300
2000
3000
,
0001
0000
0010
0000
0001
0000
0010
0000
0100
0000
1000
0000
0100
0000
1000
0000
0002
0003
0200
0300
0020
0030
2000
3000
0002
0003
0200
0300
0020
0030
2000
3000
,
0001
0000
0100
0000
0001
0000
0100
0000
0010
0000
1000
0000
0010
0000
1000
0000
0002
0003
0020
0030
0200
0300
2000
3000
0002
0003
0020
0030
0200
0300
2000
3000
,
0001
0000
0010
0000
0001
0000
0010
0000
0100
0000
1000
0000
0100
0000
1000
0000
0002
0003
0200
0300
0020
0030
2000
3000
0002
0003
0200
0300
0020
0030
2000
3000
,
0001
0000
0100
0000
0001
0000
0100
0000
0010
0000
1000
0000
0010
0000
1000
0000
0002
0003
0020
0030
0200
0300
2000
3000
0002
0003
0020
0030
0200
0300
2000
3000
,
0001
0000
0010
0000
0001
0000
0010
0000
0100
0000
1000
0000
0100
0000
1000
0000
0002
0003
0200
0300
0020
0030
2000
3000
0002
0003
0200
0300
0020
0030
2000
3000
,
0001
0000
0100
0000
0001
0000
0100
0000
0010
0000
1000
0000
0010
0000
1000
0000
0002
0003
0020
0030
0200
0300
2000
3000
0002
0003
0020
0030
0200
0300
2000
3000
,
0001
0000
0010
0000
0001
0000
0010
0000
0100
0000
1000
0000
0100
0000
1000
0000
0002
0003
0200
0300
0020
0030
2000
3000
0002
0003
0200
0300
0020
0030
2000
3000
,
0001
0000
0100
0000
0001
0000
0100
0000
0010
0000
1000
0000
0010
0000
1000
0000
0002
0003
0020
0030
0200
0300
2000
3000
0002
0003
0020
0030
0200
0300
2000
3000
,
0001
0000
0010
0000
0001
0000
0010
0000
0100
0000
1000
0000
0100
0000
1000
0000
0002
0003
0200
0300
0020
0030
2000
3000
0002
0003
0200
0300
0020
0030
2000
3000
,
0001
0000
0100
0000
0001
0000
0100
0000
0010
0000
1000
0000
0010
0000
1000
0000
0002
0003
0020
0030
0200
0300
2000
3000
0002
0003
0020
0030
0200
0300
2000
3000
,
0001
0000
0010
0000
0001
0000
0010
0000
0100
0000
1000
0000
0100
0000
1000
0000
0002
0003
0200
0300
0020
0030
2000
3000
0002
0003
0200
0300
0020
0030
2000
3000
,
0001
0000
0100
0000
0001
0000
0100
0000
0010
0000
1000
0000
0010
0000
1000
0000
0002
0003
0020
0030
0200
0300
2000
3000
0002
0003
0020
0030
0200
0300
2000
3000
,
0001
0010
0001
0010
0100
1000
0100
1000
0001
0000
1000
0010
1000
0001
1000
0000
,
0001
0100
0001
0100
0010
1000
0010
1000
0001
0000
1000
0100
1000
0010
1000
0000
,
0001
1000
0001
1000
0100
0010
0100
0010
0001
0000
1000
0010
1000
0100
1000
0000
,
0001
0100
0001
0100
0010
1000
0010
1000
0001
0000
0100
0010
0100
0001
0100
0000
,
0001
0010
0001
0010
0100
1000
0100
1000
0001
0000
1000
0010
1000
0001
1000
0000
,
0001
0100
0001
0100
0010
1000
0010
1000
0001
0000
1000
0100
1000
0010
1000
0000
,
0001
1000
0001
1000
0100
0010
0100
0010
0001
0000
1000
0010
1000
0100
1000
0000
,
0001
0100
0001
0100
0010
1000
0010
1000
0001
0010
0000
001M
1000
0000
0001
1000
,
0100
1000
0100
1000
0001
0010
0001
0010
0100
0000
1000
0010
1000
0001
1000
0000
,
0001
0100
0001
0100
0010
1000
0010
1000
0001
0000
1000
0100
1000
0010
1000
0000
,
0001
1000
0001
1000
0100
0010
0100
0010
0001
0000
1000
0010
1000
0100
1000
0000
,
0001
0100
0001
0100
0010
1000
0010
1000
0001
0000
0100
0010
0100
0001
0100
0000
,
0001
0010
0001
0010
0100
1000
0100
1000
0001
0000
1000
0010
1000
0001
1000
0000
,
0001
0100
0001
0100
0010
1000
0010
1000
0001
0000
1000
0100
1000
0010
1000
0000
,
0001
1000
0100
0010
0001
0100
0010
1000
,
0001
1000
0001
1000
0001
1000
0001
1000
0001
1000
0001
1000
0001
1000
0001
1000
,
0002
0000
0000
0000
,
0000
0000
0000
0000
,
0003
0000
0000
0000
;

//---------------dance-single - 13 (HPF!)----------------
#NOTES:
     dance-single:
     13 (HPF!):
     Medium:
     13:
     1.000,1.000,0.173,0.227,1.000,2170.000,55.000,72.000,97.000,0.000:
0000
0000
0000
0000
,
0000
0000
0000
0000
,
0000
0000
0000
0000
,
0000
0000
0000
0000
,
0000
0000
0000
0000
,
0000
0000
0000
0000
,
0000
0000
0000
0000
,
0000
0000
0000
0000
,
0000
0000
0000
0000
,
0000
0000
0000
0000
,
0000
0000
0000
0000
,
0000
0000
0000
0000
,
0000
0000
0000
0000
,
0000
0000
0000
0000
,
0000
0000
0000
0000
,
0000
0000
0000
0000
,
0001
0000
1000
0000
0001
0000
1000
0000
0001
0100
0001
0100
0010
1000
0100
0010
,
0001
0000
1001
1000
0000
0001
0101
0000
,
1000
0000
0011
0001
0000
1000
1001
0001
,
0001
0000
0101
0100
0000
0010
0110
0000
,
1000
0000
1001
0001
0000
0010
0110
0100
,
0100
0000
0011
0001
0000
1000
1010
0000
,
0010
0000
0110
0100
0000
0001
0101
0100
,
0100
0000
0110
0010
0000
1000
1010
0000
,
0001
0000
0011
0010
0000
0100
1100
1000
,
1000
0000
0101
0001
0000
0100
0110
0000
,
0010
0000
1010
1000
0000
0001
1001
1000
,
1000
0000
0011
0001
0000
1000
1010
0000
,
0001
0000
0011
0010
0000
0100
0110
0010
,
0010
0000
1100
1000
0000
0001
0101
0000
,
0100
0000
0110
0010
0000
1000
1010
0010
,
0010
0000
1001
1000
0000
0001
0011
0000
,
10M0
00M0
01M1
00M1
0000
1000
1010
0010
,
0010
0000
1000
0001
1000
0000
0001
0010
0100
0000
1000
0100
0000
M100
0001
0000
,
1000
0000
0001
0100
0001
0000
1000
0001
0010
0000
0001
0100
0000
010M
1000
0000
,
0100
0000
1000
0100
1000
0000
0001
0010
0100
0000
1000
0100
0000
M100
0001
0000
,
1000
0000
0001
0010
0001
0000
1000
0001
0100
0000
0001
0010
0000
001M
1000
0000
,
0001
0000
1000
0100
1000
0000
0001
0010
0100
0000
1000
0100
0000
M100
0001
0000
,
1000
0000
0001
1000
0001
0000
1000
0100
0010
0000
0001
0100
0000
010M
1000
0000
,
0100
0000
0010
0001
0010
0000
0001
1000
0100
0000
1000
0100
0000
M100
0001
0000
,
1000
0000
0010
1000
0010
0000
1000
0001
0100
0000
0001
0010
0000
001M
1000
0000
,
0010
0000
1000
0010
1000
0000
0001
1000
0100
0000
1000
0100
0000
M100
0001
0000
,
1000
0000
0001
0100
0001
0000
1000
0100
0010
0000
0001
0100
0000
010M
1000
0000
,
0100
0000
0010
0001
0010
0000
0001
1000
0010
0000
1000
0100
0000
M100
0001
0000
,
1000
0000
0001
0100
0001
0000
1000
0100
0010
0000
0001
0010
0000
001M
1000
0000
,
0001
0000
1000
0010
1000
0000
0001
1000
0100
0000
1000
0100
0000
M100
0001
0000
,
1000
0000
0001
0010
0001
0000
1000
0001
0010
0000
0001
0100
0000
010M
1000
0000
,
0100
0000
0010
0001
0010
0000
0001
1000
0010
0000
1000
0100
0000
M100
0001
0000
,
10M0
0000
00M1
0000
01M1
0000
10M0
0001
1000
0000
0001
0010
0100
0010
0001
0000
,
1000
0100
1000
0100
0010
0001
0010
0001
1000
0000
0001
0100
0000
010M
1000
0000
,
0001
0100
0001
0100
0010
1000
0010
1000
0001
0000
1000
0100
0000
M100
0001
0000
,
0010
0100
0010
0100
1000
0001
1000
0001
0100
0000
0001
0100
0000
010M
1000
0000
,
0001
0010
0100
1000
0001
0010
0100
1000
0001
0000
1000
0100
0000
M100
0001
0000
,
1000
0100
1000
0100
0010
0001
0010
0001
1000
0000
0001
0100
0000
010M
1000
0000
,
0001
0100
0001
0100
0010
1000
0010
1000
0001
0000
1000
0100
0000
M100
0001
0000
,
0010
0100
0010
0100
1000
0001
1000
0001
0100
0000
0001
0100
0000
010M
1000
0000
,
0001
1000
0001
1000
0001
1000
0001
1000
0004
0000
0000
0000
MMM3
0000
0000
0000
,
1000
0100
1000
0100
0010
0001
0010
0001
1000
0000
0001
0100
0000
010M
1000
0000
,
0001
0100
0001
0100
0010
1000
0010
1000
0001
0000
1000
0100
0000
M100
0001
0000
,
0010
0100
0010
0100
1000
0001
1000
0001
0100
0000
0001
0100
0000
010M
1000
0000
,
0001
0010
0100
1000
0001
0010
0100
1000
0001
0000
1000
0100
0000
M100
0001
0000
,
1000
0100
1000
0100
0010
0001
0010
0001
1000
0000
0001
0100
0000
010M
1000
0000
,
0001
0100
0001
0100
0010
1000
0010
1000
0001
0000
1000
0100
0000
M100
0001
0000
,
0010
0100
0010
0100
1000
0001
1000
0001
0100
0000
0001
0100
0000
010M
1000
0000
,
0001
1000
0001
1000
0001
1000
0001
1000
0004
0000
0000
0000
1003
0010
1000
0000
,
0001
0000
1000
0100
1000
0000
0001
0010
0100
1000
0001
0010
0100
1000
0001
0010
,
0100
0000
1000
0001
1000
0000
0001
0100
0010
1000
0001
0100
0010
1000
0001
0100
,
0010
0000
1000
0001
1000
0000
0001
0010
0100
1000
0001
0010
0100
1000
0001
0010
,
0100
0000
1000
0001
1000
0000
0001
0100
0010
1000
0001
0010
0100
1000
0001
0100
,
0010
0000
1000
0100
1000
0000
0001
0010
0100
1000
0001
0010
0100
1000
0001
0010
,
0100
0000
1000
0001
1000
0000
0001
0100
0010
1000
0001
0100
0010
1000
0001
0100
,
0010
0000
1000
0001
1000
0000
0001
0010
0100
1000
0001
0010
0100
1000
0001
0010
,
0001
0100
0001
0100
0001
0100
0001
0100
0004
0000
0000
0000
MMM3
0000
0000
0000
,
1000
0100
1000
0100
0010
0001
0010
0001
1000
0010
1000
0100
1000
0010
1000
0001
,
0010
0100
0010
0100
1000
0001
1000
0001
1000
0010
1000
0100
1000
0001
1000
0010
,
1000
0001
1000
0001
0100
0010
0100
0010
1000
0100
1000
0010
1000
0001
1000
0100
,
0010
0001
0010
0001
1000
0100
1000
0100
1000
0010
1000
0001
1000
0100
1000
0010
,
1000
0001
1000
0001
0010
0100
1000
0001
0100
0001
1000
0001
0010
0100
1000
0001
,
1000
0010
1000
0001
0100
0001
1000
0010
0100
0010
1000
0001
0100
0001
1000
0100
,
0010
0001
1000
0100
1000
0001
0010
0100
1000
0001
0010
0001
0010
0100
1000
0001
,
0100
0001
1000
0010
0100
0010
1000
0001
0100
0001
1000
0001
1000
0001
1000
0001
,
1000
0100
1000
0100
1000
0100
1000
0100
,
0010
0001
0010
0001
0010
0001
0010
0001
,
1000
0010
1000
0010
1000
0010
1000
0010
,
0100
0001
0100
0001
0100
0001
10M0
10M0
,
0100
0010
0100
0010
0100
0010
0100
0010
,
0001
1000
0001
1000
0001
1000
0001
1000
,
0010
1000
0010
1000
0010
1000
0010
1000
,
0001
0000
0100
0000
0001
0000
0100
0000
0001
0100
0000
010M
1000
0000
0001
0010
,
0100
1000
0100
1000
0100
1000
0100
1000
,
0001
0010
0001
0010
0001
0010
0001
0010
,
0100
0010
0100
0010
0100
0010
0100
0010
,
0001
1000
0001
1000
0001
1000
0M10
0M10
,
1000
0100
1000
0100
1000
0100
1000
0100
,
0010
0001
0010
0001
0010
0001
0010
0001
,
1000
0010
1000
0010
1000
0010
1000
0010
,
1000
0000
0001
0000
1000
0000
0001
0000
1000
0100
0000
M100
0001
0000
1000
0100
,
0010
0001
0010
0000
0001
1000
0001
0000
1000
0010
1000
0000
0001
0100
0001
0000
,
1000
0001
1000
0000
0001
0010
0001
0000
1000
0010
1000
0000
0001
0010
0001
0000
,
1000
0100
1000
0000
0001
1000
0001
0000
1000
0100
1000
0000
0001
0010
0001
0000
,
1000
0010
1000
0000
0001
0100
0001
0000
1000
0001
1000
0000
00M1
0000
00M1
0000
,
1000
0100
1000
0000
0001
0010
0001
0000
1000
0010
1000
0000
0001
0100
0001
0000
,
1000
0001
1000
0000
0010
0100
0010
0000
0100
0001
0100
0000
0010
1000
0010
0000
,
1000
0001
1000
0000
0001
0010
0001
0000
1000
0100
1000
0000
0001
0010
0001
0000
,
1000
0100
1000
0000
0001
0100
0001
0000
1000
0100
0000
M100
0001
0000
1000
0100
,
0010
0001
0010
0000
0001
1000
0001
0000
1000
0010
1000
0000
0001
0100
0001
0000
,
0100
0010
0100
0000
0010
1000
0010
0000
1000
0001
1000
0000
0100
1000
0100
0000
,
0010
0001
0010
0000
0001
1000
0001
0000
1000
0010
1000
0000
0001
0010
0001
0000
,
0100
0010
0100
0000
0010
1000
0010
0000
1000
0001
1000
0000
01M0
0000
01M0
0000
,
0010
0001
0010
0000
0001
1000
0001
0000
1000
0010
1000
0000
0001
0100
0001
0000
,
0100
0010
0100
0000
0010
1000
0010
0000
1000
0001
1000
0000
0001
0010
0001
0000
,
1000
0001
0010
0100
1000
0010
0100
0001
,
1000
0001
1000
0001
1000
0001
1000
0001
1000
0001
1000
0001
1000
0001
1000
0001
,
2000
0000
0000
0000
,
0000
0000
0000
0000
,
0000
0000
0000
0000
0000
0000
0000
0000
0000
0000
0000
0000
3000
M000
0000
0000
,
0001
0000
0000
0001
0000
0000
0001
0000
,
1000
0000
0000
1000
0000
0000
0000
0000
,
0010
0000
0000
0010
0000
0000
0000
0000
,
1000
0000
0000
1000
0000
0000
0000
0000
,
0001
0000
0000
0001
0000
0000
0001
0000
,
2MM1
3000
0000
1000
0000
0000
0100
0000
0000
0020
0030
0000
0001
0000
0000
0010
0000
0000
0100
0000
0000
1000
0000
0000
,
0002
0003
0000
0100
0000
0000
0010
0000
0000
2000
3000
0000
0010
0000
0000
0100
0000
0000
0001
0000
0000
1000
0000
0000
,
0200
0300
0000
0010
0000
0000
0100
0000
0000
2000
3000
0000
0001
0000
0000
0010
0000
0000
0100
0000
0000
1000
0000
0000
,
0002
0003
0000
0100
0000
0000
0010
0000
0000
0200
0300
0000
0001
0000
0000
1000
0000
0000
0020
0030
0000
0100
0000
0000
,
0002
0003
0000
0010
0000
0000
0100
0000
0000
2000
3000
0000
0001
0000
0000
0010
0000
0000
0100
0000
0000
0010
0000
0000
,
0002
0003
0000
0100
0000
0000
0010
0000
0000
2000
3000
0000
0010
0000
0000
0100
0000
0000
0001
0000
0000
1000
0000
0000
,
40M4
0000
0000
00M0
0000
0000
0000
0000
,
0M00
0000
0000
0000
0000
0000
0M00
0000
0000
0000
0000
0000
0MM0
0000
0000
3003
,
1001
0000
0101
0100
0000
0001
1001
0000
,
1000
0000
1100
0100
0000
0010
0110
0100
,
0100
0000
0011
0001
0000
1000
1010
0000
,
0001
0000
0110
0100
0000
0010
1010
1000
,
1000
0000
1001
0001
0000
0100
0110
0000
,
0010
0000
1010
1000
0000
0001
0011
0010
,
0010
0000
1001
0001
0000
0100
0101
0000
,
0010
0000
0110
0100
0000
0010
1010
1000
,
1000
0010
1000
1000
0001
0010
0010
0100
,
0010
0001
0100
0100
0010
1000
1000
0001
,
0001
0010
0100
0100
0010
0001
0001
0100
,
0010
1000
0001
0001
0010
0100
0100
1000
,
1000
0001
0010
0100
1000
0001
0010
0001
1000
0100
0010
0001
1000
0100
1000
0001
,
1000
0010
0100
0001
1000
0010
0100
0010
1000
0001
0100
0001
1000
0010
1000
0001
,
0010
0100
0010
0001
1000
0100
1000
0001
0010
0100
1000
0001
0010
0001
0010
0100
,
1000
0001
1000
0001
0100
0010
0100
0001
1000
0010
1000
0001
1000
0001
1000
0001
,
2000
0000
0000
0000
,
0000
0000
0000
0000
,
0000
0000
0000
0000
0000
0000
0000
0000
0000
0000
0000
0000
3000
M000
0000
0000
,
000M
0000
00MM
0000
0MMM
0000
MMMM
0001
,
1000
0010
0000
1000
0000
0001
0000
0010
,
0100
1000
0000
0001
0000
0100
0000
0010
,
1000
0001
0000
0010
0000
0001
0000
0100
,
0010
1000
0000
0001
0000
0010
0000
0100
,
0010
0001
0000
1000
0000
0010
0000
0100
,
0001
1000
0000
0010
0000
1000
0000
0001
,
0010
0100
0000
0010
0000
0001
0000
1000
,
0100
0010
0000
0001
0000
0100
0000
0010
,
1000
0001
0000
0010
0000
0001
0000
0100
,
0010
1000
0000
0001
0000
0010
0000
0001
,
0100
0010
0000
1000
0000
0010
0000
0100
,
0001
0010
0000
0001
0000
1000
0000
0010
,
1000
0001
0000
0100
0000
0010
0000
0100
,
0001
0010
0000
0001
0000
1000
0000
0010
,
0100
0001
0000
1000
0000
0100
0000
0010
,
M001
0100
M00M
0010
MM0M
1000
MMMM
0001
,
2000
0000
3020
0030
0000
0000
0020
0030
0000
0000
0020
0030
0000
0000
0020
0030
,
0100
0000
0002
0003
0000
0000
0002
0003
0000
0000
0002
0003
0000
0000
0002
0003
,
0010
0000
0200
0300
0000
0000
0200
0300
0000
0000
0200
0300
0000
0000
0200
0300
,
1000
0000
0020
0030
0000
0000
0020
0030
0000
0000
0200
0300
0200
0300
0002
0003
,
2000
0000
3200
0300
0000
0000
0200
0300
0000
0000
0200
0300
0000
0000
0200
0300
,
0010
0000
0002
0003
0000
0000
0002
0003
0000
0000
0002
0003
0000
0000
0002
0003
,
0100
0000
0020
0030
0000
0000
0020
0030
0000
0000
0020
0030
0000
0000
0020
0030
,
1000
0000
0200
0300
0000
0000
0200
0300
0000
0000
0020
0030
0020
0030
0002
0003
,
2001
0000
3000
0000
0001
0100
0010
0200
,
0000
0000
0310
2000
0000
3002
0000
0023
,
0000
0000
0030
0000
0100
1000
0001
2000
,
0000
3002
0000
0203
0000
0320
0000
2030
,
3001
0010
0100
0010
0001
1000
0100
1000
0001
0010
0100
1000
0001
0010
0001
1000
,
0001
0100
0010
0100
0001
1000
0010
1000
0001
0100
0010
0100
0001
1000
0010
1000
,
0001
0010
0001
1000
0100
0010
0001
1000
0100
1000
0100
0010
0001
1000
0100
1000
,
0001
0000
1000
0000
0001
0000
1000
0000
0001
0000
1000
0001
1000
0000
0001
0000
,
0010
0001
0010
0000
0001
1000
0001
0000
1000
0010
1000
0000
0001
0100
0001
0000
,
1000
0001
1000
0000
0001
0010
0001
0000
1000
0010
1000
0000
0001
0010
0001
0000
,
1000
0100
1000
0000
0001
1000
0001
0000
1000
0100
1000
0000
0001
0010
0001
0000
,
1000
0010
1000
0000
0001
0100
0001
0000
1000
0001
1000
0000
00M1
0000
00M1
0000
,
1000
0100
1000
0000
0001
0010
0001
0000
1000
0010
1000
0000
0001
0100
0001
0000
,
1000
0001
1000
0000
0010
0100
0010
0000
0100
0001
0100
0000
0010
1000
0010
0000
,
1000
0001
1000
0000
0001
0010
0001
0000
1000
0100
1000
0000
0001
0010
0001
0000
,
1000
0100
1000
0000
0001
0100
0001
0000
1000
0010
0000
M010
0001
0000
1000
0100
,
0010
0001
0010
0000
0001
1000
0001
0000
1000
0010
1000
0000
0001
0100
0001
0000
,
0100
0010
0100
0000
0010
1000
0010
0000
1000
0001
1000
0000
0100
1000
0100
0000
,
0010
0001
0010
0000
0001
1000
0001
0000
1000
0010
1000
0000
0001
0010
0001
0000
,
0100
0010
0100
0000
0010
1000
0010
0000
1000
0001
1000
0000
01M0
0000
01M0
0000
,
0010
0001
0010
0000
0001
1000
0001
0000
1000
0010
1000
0000
0001
0100
0001
0000
,
0100
0010
0100
0000
0010
1000
0010
0000
1000
0001
1000
0000
0001
0010
0001
0000
,
1000
0100
1000
0000
0001
0100
0001
0000
1000
0010
1000
0000
0001
1000
0001
0000
,
1000
0010
1000
0010
1000
0010
1000
0010
4000
0000
0000
0000
3001
0000
0001
0010
,
0100
1000
0100
1000
0001
0010
0001
0010
0100
0000
1000
0010
1000
0001
1000
0000
,
0001
0100
0001
0100
0010
1000
0010
1000
0001
0000
1000
0100
1000
0010
1000
0000
,
0001
1000
0001
1000
0100
0010
0100
0010
0001
0000
1000
0010
1000
0100
1000
0000
,
0001
0100
0001
0100
0010
1000
0010
1000
0001
0000
0100
0010
0100
0001
0100
0000
,
0001
0010
0001
0010
0100
1000
0100
1000
0001
0000
1000
0010
1000
0001
1000
0000
,
0001
0100
0001
0100
0010
1000
0010
1000
0001
0000
1000
0100
1000
0010
1000
0000
,
0001
1000
0001
1000
0100
0010
0100
0010
0001
0000
1000
0010
1000
0100
1000
0000
,
0001
0100
0001
0100
0010
1000
0010
1000
0001
0010
0000
001M
1000
0000
0001
1000
,
0100
1000
0100
1000
0001
0010
0001
0010
0100
0000
1000
0010
1000
0001
1000
0000
,
0001
0100
0001
0100
0010
1000
0010
1000
0001
0000
1000
0100
1000
0010
1000
0000
,
0001
1000
0001
1000
0100
0010
0100
0010
0001
0000
1000
0010
1000
0100
1000
0000
,
0001
0100
0001
0100
0010
1000
0010
1000
0001
0000
0100
0010
0100
0001
0100
0000
,
0001
0100
0010
0100
0001
1000
0010
1000
0001
0100
0010
0100
0001
1000
0010
1000
,
0001
0010
0100
0010
0001
1000
0100
1000
0001
0010
0100
1000
0100
0010
0100
1000
,
0001
1000
0100
0010
0001
1000
0010
0100
,
0001
1000
0001
1000
0001
1000
0001
1000
0001
1000
0001
1000
0001
1000
0001
1000
,
0001
0010
0100
0010
0001
1000
0010
0010
,
2000
0000
0100
0000
0001
0000
3010
0010
,
0200
0000
0001
0000
0010
0000
0301
0001
,
1000
0100
0010
0100
1000
0001
01M0
01M0
,
0001
0010
0100
0010
0001
1000
0100
0100
,
2000
0000
0010
0000
0001
0000
3100
0100
,
0020
0000
0001
0000
0100
0000
0031
0001
,
0200
0000
0000
0000
0010
0000
0000
0000
0301
0010
0000
001M
1000
0000
0001
1000
,
0001
0010
0100
0010
0001
1000
0010
0010
,
2000
0000
0100
0000
0001
0000
3010
0010
,
0200
0000
0001
0000
0010
0000
0301
0001
,
1000
0100
0010
0100
1000
0001
01M0
01M0
,
0001
0010
0100
0010
0001
1000
0100
0100
,
2000
0000
0010
0000
0001
0000
3100
0100
,
0020
0000
0001
0000
0100
0000
0031
0001
,
0200
0000
0000
0000
0010
0000
0000
0000
0301
0010
0000
001M
1000
0000
0001
1000
,
0001
0010
0001
0010
0100
1000
0100
1000
0001
0000
1000
0010
1000
0001
1000
0000
,
0001
0100
0001
0100
0010
1000
0010
1000
0001
0000
1000
0100
1000
0010
1000
0000
,
0001
1000
0001
1000
0100
0010
0100
0010
0001
0000
1000
0010
1000
0100
1000
0000
,
0001
0100
0001
0100
0010
1000
0010
1000
0001
0000
0100
0010
0100
0001
0100
0000
,
0001
0010
0001
0010
0100
1000
0100
1000
0001
0000
1000
0010
1000
0001
1000
0000
,
0001
0100
0001
0100
0010
1000
0010
1000
0001
0000
1000
0100
1000
0010
1000
0000
,
0001
1000
0001
1000
0100
0010
0100
0010
0001
0000
1000
0010
1000
0100
1000
0000
,
0001
0100
0001
0100
0010
1000
0010
1000
0001
0010
0000
001M
1000
0000
0001
1000
,
0100
1000
0100
1000
0001
0010
0001
0010
0100
0000
1000
0010
1000
0001
1000
0000
,
0001
0100
0001
0100
0010
1000
0010
1000
0001
0000
1000
0100
1000
0010
1000
0000
,
0001
1000
0001
1000
0100
0010
0100
0010
0001
0000
1000
0010
1000
0100
1000
0000
,
0001
0100
0001
0100
0010
1000
0010
1000
0001
0000
0100
0010
0100
0001
0100
0000
,
0001
0010
0001
0010
0100
1000
0100
1000
0001
0000
1000
0010
1000
0001
1000
0000
,
0001
0100
0001
0100
0010
1000
0010
1000
0001
0000
1000
0100
1000
0010
1000
0000
,
0001
1000
0100
0010
0001
0100
0010
1000
,
0001
1000
0001
1000
0001
1000
0001
1000
0001
1000
0001
1000
0001
1000
0001
1000
,
0002
0000
0000
0000
,
0000
0000
0000
0000
,
0003
0000
0000
0000
;
