#TITLE:Beethoven's 5th;
#SUBTITLE:Stepped by ~ChaosTheory;
#ARTIST:Ludwig Van Beethoven;
#TITLETRANSLIT:;
#SUBTITLETRANSLIT:;
#ARTISTTRANSLIT:;
#CREDIT:;
#BANNER:ym-banner.PNG;
#BACKGROUND:ym-bg.PNG;
#LYRICSPATH:;
#CDTITLE:;
#MUSIC:Joe Satriani - Beethoven's 5th Symphony.mp3;
#OFFSET:-0.720;
#SAMPLESTART:37.582;
#SAMPLELENGTH:12.000;
#SELECTABLE:YES;
#BPMS:0.000=79.820,9.000=159.650,48.500=79.830,51.750=159.650,120.000=79.820,152.750=159.650,188.750=79.830,192.000=159.650,193.500=79.820,196.250=79.860,196.750=159.650,226.500=79.830,230.000=159.650,333.500=319.299,335.000=159.650,340.000=319.299,341.500=159.649,346.500=319.299,348.000=159.649;
#STOPS:9.000=1.310
,51.750=1.040
,198.250=0.720
,200.250=0.670
,226.500=0.540
,333.500=0.280
,334.000=0.280
,334.500=0.285
,340.000=0.280
,340.500=0.280
,341.000=0.280
,346.500=0.280
,347.000=0.280
,347.500=0.280
;
#BGCHANGES:;
// cache tags:
#FIRSTBEAT:0.000;
#LASTBEAT:455.500;
#SONGFILENAME:Songs/Community Keyboard Megapack - Volume 3/(chaostheory216) beethoven's 5th metal v2/ym.sm;
#HASMUSIC:1;
#HASBANNER:1;
#MUSICLENGTH:204.259;
// end cache tags

//---------------dance-single - ----------------
#NOTES:
     dance-single:
     :
     Challenge:
     10:
     0.776,1.000,0.798,0.739,0.649,795.000,163.000,151.000,0.000,4.000:
0100
0100
0100
0002
0000
0000
0000
0000
0000
0000
0000
0000
0000
0000
0003
0000
,
0010
0010
0010
2000
0000
0000
0000
0000
0000
0000
0000
0000
0000
0000
0000
0000
,
0000
0000
3000
0000
1000
0010
0100
0010
,
1000
0100
0010
0001
0010
0010
0100
2000
,
0000
0000
0000
3000
0010
0001
0100
0001
,
0010
1000
0100
0010
0100
0100
1000
0200
,
0000
0000
0000
0000
0300
0000
1010
0000
0101
0000
0011
0000
1100
0000
0001
0010
,
0001
1000
0100
0010
0011
0101
1100
1010
,
0100
0010
0100
0000
1000
0000
0001
0000
1001
0000
1100
0000
0110
0000
1001
0000
,
0000
0000
0000
1100
0000
0000
0000
0120
,
0000
0000
0000
0100
0000
0000
0000
0100
,
0000
0000
0000
0130
0000
0000
0000
0000
,
0000
0000
0001
0001
0010
0200
0000
0000
0000
0000
0000
0000
0000
0000
0000
0300
,
0001
0001
0001
0010
0100
0010
0001
1000
,
0010
0100
0001
0010
1000
0100
1000
0100
,
0010
0001
0010
0100
0010
0001
0100
0010
,
0100
0000
0000
0001
0000
0000
0010
0000
0000
0100
0000
0000
0001
0000
0000
0100
0000
0000
0001
0000
0000
1000
0100
0010
,
0001
1000
0100
0010
0000
0000
0001
0000
0000
0020
0000
0000
0000
0000
0000
0000
0000
0000
0000
0000
0000
0000
0000
0000
,
1030
0010
0100
0002
0000
0000
0000
0000
,
1003
0001
0010
1100
0100
0010
0100
1010
,
0010
0001
0010
0101
0010
0100
1000
1010
,
0100
0010
0001
0101
0110
1010
0110
1001
,
0110
1100
0110
0202
0000
0000
0000
0000
,
0303
0000
0000
2000
3200
0320
0230
2300
,
3002
0203
0320
2030
0000
0000
0000
0000
,
0000
0000
0000
0000
0000
0000
0000
3000
,
0000
0000
1010
0000
0000
0000
0102
0000
1003
0100
0010
0100
1000
0100
0020
0000
,
0031
0100
0010
0100
0001
0200
0000
0310
1000
0100
0010
0100
2000
3000
0100
0010
,
0100
1000
0100
0010
0002
0000
0000
0000
0000
0000
0000
0000
0000
0000
0000
0000
,
0000
0000
0003
1001
0000
0000
0000
0000
,
1000
1000
0100
0020
0000
0000
0000
0230
0000
0000
0000
0302
0000
0000
0000
0000
,
0003
1000
0000
0100
0010
0100
0010
0001
0000
0010
0000
0100
0000
1000
0000
0002
,
0000
0023
0000
0032
0000
0203
0000
0320
0000
0230
0000
0302
0000
0023
0000
2030
,
0000
3002
0000
0203
0000
0320
0000
2030
0000
3002
0000
0023
0000
0230
0300
2000
,
0000
3200
0000
0302
0000
1000
0000
0100
0000
0010
0003
0200
0000
1000
0000
0001
,
0000
0000
0000
1000
0000
0000
0000
0000
0000
0302
0000
0000
0000
0000
0000
1000
0000
0000
0000
0000
0000
0100
0000
0000
0000
0000
0000
2003
0000
0000
0000
0000
3000
2000
0000
0000
3000
0000
0000
0200
0000
0000
0300
0000
0000
0010
0000
0000
,
0000
1000
0000
0001
0000
0100
0000
1000
0000
0100
0000
0001
0000
0100
0000
1000
,
0000
0100
0000
0001
0000
0100
0000
1000
0000
0100
0000
0001
0000
0010
0000
0100
,
0000
0000
0000
0010
0000
0000
0000
0000
0000
1010
0000
0000
0000
0000
0000
0000
0000
0000
0000
0000
0000
0110
0000
0000
0000
0000
0000
0000
0000
0000
0000
0000
0000
0101
0000
0010
0000
1000
0000
0100
0000
0010
0000
0001
0000
0100
0000
0010
,
0000
0100
0000
0001
0000
0010
0000
0100
0000
2002
0000
0000
0000
0000
0000
0000
0000
0000
0000
0000
0000
0000
0000
0000
0000
0000
0000
0000
0000
0000
0000
0000
0000
0000
0000
0000
0000
0000
0000
0000
0000
0000
0000
0000
0000
0000
0000
0000
,
3003
0000
0000
2001
0000
3200
0000
0320
0000
0230
0000
1320
0000
0032
0000
0023
,
0000
0032
0000
0123
0000
0230
0000
2300
0000
3020
0000
0231
0000
0320
0000
0230
,
0000
0302
0000
2203
0000
0000
0000
0000
0000
3300
0000
0002
0000
0023
0000
0230
,
0000
2300
0000
3200
0000
0320
0000
0032
0000
0000
0000
0000
0003
1000
0000
0010
,
0000
0000
0100
0000
0000
0000
0001
0010
0001
0000
0100
0000
0000
0000
0010
0000
0000
0000
1000
0000
0000
0000
0100
0000
0000
0000
0010
0000
0000
0000
0100
0000
,
0000
0000
0010
0000
0000
0000
0001
0000
0000
0000
0100
0000
0000
0000
0010
0000
0000
0000
1000
0000
0000
0000
0010
1000
0010
0100
0001
0010
0100
0000
1000
0000
,
0000
0000
0010
0000
0000
0000
0001
0100
0001
0010
0100
1000
0100
0000
0020
0030
0000
0000
0100
0000
0000
0000
1001
0000
0000
0000
1100
0000
0000
0000
0110
0000
,
0000
0011
0000
1010
0100
0100
0010
0001
0001
0010
0100
1000
1000
0001
0001
0010
,
0110
0000
1010
0000
0110
0000
0101
1000
1000
0100
0001
0001
0100
0010
1000
1000
,
0100
0100
0010
0110
0000
1100
0000
0110
0000
0011
0000
1001
0000
0110
0000
0101
,
0000
1100
0000
0000
1100
0000
1010
0000
0101
0000
0011
0000
0010
0000
0010
0000
,
0010
0110
0010
0010
0010
0010
0010
0010
,
0010
0110
0010
0010
0010
0010
0010
0010
,
0010
0110
0010
0010
0010
0010
0010
0010
,
0010
0110
0010
0010
0010
0001
0001
0001
,
0001
1001
0001
0001
0001
0001
0001
0001
,
0001
0000
1001
0000
0001
0000
0001
0000
0001
0000
1001
0000
0100
0100
0100
0010
,
0000
0000
0000
0000
1010
1100
0110
0101
,
0011
1001
1100
0110
1010
0110
0101
0110
,
1001
0100
0010
0100
0010
0000
0000
0000
1000
0001
1000
0001
1000
0000
0100
0000
,
2002
0000
0000
0000
,
0000
0000
0000
0000
,
0000
0000
0000
3003
0000
0000
0100
0000
0100
0000
1010
0000
0100
0000
0010
0000
,
0001
1000
0010
0200
0302
0203
0302
0203
,
0302
0203
0302
1003
0100
0010
0001
2000
,
3020
2030
3020
2030
3020
2030
3020
1030
,
0001
0000
0000
0000
1000
0000
0000
0000
0010
0000
0000
0000
1000
0010
1000
0001
0100
0001
0000
0000
0010
0000
0000
0000
0010
0000
0000
0000
0100
0001
0100
0010
,
1000
0010
0000
0000
0001
0000
0000
0000
0001
0000
0000
0000
1000
0010
0100
0001
0100
0010
1000
0000
0100
0000
0000
0000
0100
0000
0000
0000
0001
0100
0010
1000
,
0010
0100
0001
0000
1000
0000
0000
0000
1000
0000
0000
0000
1000
0100
0010
0001
0010
0100
1000
0000
0010
0000
0000
0000
0010
0000
0000
0000
0001
0010
0100
1000
,
0001
0010
0100
0000
1000
0000
0000
0000
1000
0000
0000
0000
0001
0010
0001
0010
0100
1000
0100
0000
0010
0000
0000
0000
0010
0000
0000
0000
0100
1000
0100
0010
,
0100
1000
0100
0000
0020
0000
0000
0000
0032
0000
0000
0000
0203
0000
0000
0000
0320
0000
0000
0000
2030
0000
0000
0000
3200
0000
0000
0000
0320
0000
0000
0000
,
0230
2300
3200
0320
0032
0023
0032
0203
,
0302
2003
3002
0203
0302
0023
0230
2300
,
3020
2030
3002
2003
3200
2300
3200
0302
,
0000
0013
0000
1000
0000
0100
0000
0200
,
0000
0310
0000
0001
0000
0100
0000
0020
,
0000
1030
0000
1000
0000
0010
0000
0002
,
0000
0013
0000
1010
0000
0110
0000
0210
,
0000
0301
0000
1010
0000
0110
0000
0101
,
0010
0000
0000
0110
0000
0000
0100
0000
0000
1010
0000
0000
0100
0000
0000
0001
0010
0100
1000
0000
0000
1100
0000
0000
,
0100
1010
0000
0110
0000
0011
0000
0110
,
0000
1100
0000
0110
0000
0101
0000
0022
,
0000
0000
0000
0000
,
0000
0033
0000
1010
0110
0101
1100
0000
,
0000
0000
0000
0000
,
0101
0110
1010
1001
0000
1000
0000
0100
,
0000
0010
0000
1000
0000
1100
0110
0011
,
1001
0001
0010
0100
,
1000
0100
0001
0010
,
1000
0100
0010
0100
,
0010
1100
0110
0101
,
0000
1001
2100
3200
,
0320
0230
2300
3002
,
0203
0300
1010
0100
0101
0000
0200
0000
,
0310
1100
0110
0002
,
0013
0000
2000
0000
3100
0000
1000
0100
,
0010
0100
2000
0100
0010
0001
0010
0100
,
0010
0001
0010
0100
0001
0010
0100
0010
,
0001
0010
3100
0010
0101
0010
0100
1010
,
0101
0110
1010
0101
0110
1100
0110
0011
,
1001
0000
0000
0011
0000
0000
0110
0000
0000
0011
0000
0000
0101
0000
0000
1010
0000
0000
0110
0001
1000
0001
1000
0001
,
1000
0001
1000
0001
1000
0001
1000
0001
1000
0001
1000
0001
1000
0001
1000
0001
0000
0000
0000
0000
0000
0000
0000
0000
,
0000
0000
1100
0011
0110
1001
0000
0000
,
0000
0000
0000
0000
0100
0000
0010
0000
0100
0000
0010
0000
0100
0000
0010
0000
0100
0000
0010
0000
0100
0000
0000
0000
0000
0000
0001
0100
0010
1000
0000
0000
,
0000
0000
0000
0000
2100
3020
0230
0000
,
0000
0000
0000
0000
,
0000
0000
0000
0300
0102
0203
0320
0000
,
0000
0000
0000
0000
,
0000
0000
0030
1010
1100
0110
0101
0000
,
0000
0000
0000
0101
0011
1100
1001
0000
,
0000
0000
0000
1010
0110
0101
0110
0100
,
1010
0100
0101
0010
0101
0010
0110
0100
,
1100
0000
0000
0000
0000
0000
0000
0000
0000
0000
0000
0000
0000
0000
0000
0000
0000
0000
0000
0000
0000
0000
0000
0000
0100
0000
0000
0000
0000
0000
0000
0000
0000
0000
0000
0000
0000
0000
0000
0000
0000
0000
0000
0000
0000
0000
0000
0000
0110
0000
0000
0000
0000
0000
0000
0000
0000
0000
0000
0000
0000
0000
0000
0000
0000
0000
0000
0000
0000
0000
0000
0000
0010
0000
0000
0000
0000
0000
0000
0000
0000
0000
0000
0000
0000
0000
0000
0000
0000
0000
0000
0000
0000
0000
0000
0000
0101
0000
0000
0000
0000
0000
0000
0000
0000
0000
0000
0000
0000
0000
0000
0000
0000
0000
0000
0000
0000
0000
0000
0000
0010
0000
0000
0000
0000
0000
0000
0000
0000
0000
0000
0000
0000
0000
0000
0000
0000
0000
0000
0000
0000
0000
0000
0000
0001
0000
0000
0000
0000
0000
0010
0000
0000
0000
0000
0000
0100
0000
0000
0000
0000
0000
1000
0000
0000
0000
0000
0000
0100
0000
0000
0000
0000
0000
0000
0000
0010
0000
0000
0000
0000
0000
0000
0000
0100
0000
0000
0000
0000
0000
0000
0000
,
1000
0010
0100
0001
0010
0100
1000
0001
0010
0100
1000
0100
0010
0001
1000
0100
0010
0001
0010
0100
1000
1001
0000
0000
;
