#TITLE:SF-C;
#SUBTITLE:;
#ARTIST:DJ SHARPNEL;
#TITLETRANSLIT:;
#SUBTITLETRANSLIT:;
#ARTISTTRANSLIT:;
#CREDIT:;
#BANNER:SF-C-bn.png;
#BACKGROUND:SF-C-bg.png;
#LYRICSPATH:;
#CDTITLE:;
#MUSIC:SF-C.ogg;
#OFFSET:-0.040;
#SAMPLESTART:29.720;
#SAMPLELENGTH:18.000;
#SELECTABLE:YES;
#BPMS:0.000=158.500,56.000=317.000,64.000=290.000,64.500=230.000,65.000=180.000,65.500=130.000,66.000=100.000,66.500=200.000,68.000=79.250,72.000=158.500,135.000=317.000,135.500=634.000,136.000=1268.000,136.500=2536.001,137.000=5072.003,137.500=10144.006,139.500=5072.003,140.000=2536.001,140.500=1268.001,141.000=634.000,141.500=317.000,205.000=634.000,205.500=1268.001,207.500=634.000,208.000=317.000,236.000=20000.002,240.000=317.000,255.000=2000.000,260.000=317.000,273.000=1000.000,276.000=317.000,307.000=2000.000,312.000=158.500,342.500=2000.000,348.000=79.250,352.375=2000.000,356.000=317.000,396.000=1000.000,400.000=158.500,423.500=2000.000,428.000=158.520,436.750=3000.000,440.000=317.000,468.000=158.500,496.000=317.000,499.000=2000.000,504.000=317.020,508.000=158.500,538.000=2000.000,544.000=158.520;
#STOPS:67.000=0.060
,67.500=0.060
,233.000=0.186
,234.000=0.186
,235.000=0.186
,236.000=0.106
,237.000=0.040
,238.000=0.020
,239.000=0.040
,256.500=0.020
,258.500=0.020
,268.000=0.140
,269.000=0.060
,271.000=0.140
,272.000=0.040
,308.500=0.040
,310.500=0.040
,346.000=0.010
,346.500=0.010
,347.000=0.010
,347.500=0.010
,356.500=0.186
,357.500=0.186
,358.500=0.186
,359.500=0.186
,397.000=0.020
,397.500=0.020
,398.000=0.020
,398.500=0.020
,399.000=0.020
,425.000=0.020
,426.000=0.020
,427.000=0.020
,437.000=0.020
,438.000=0.020
,439.000=0.020
,448.021=0.020
,448.042=0.020
,448.063=0.020
,448.104=0.020
,448.125=0.020
,448.146=0.020
,448.167=0.020
,448.188=0.020
,448.208=0.020
,448.229=0.020
,448.250=0.020
,448.271=0.020
,448.292=0.020
,448.313=0.020
,448.333=0.020
,448.354=0.020
,448.375=0.020
,448.396=0.020
,449.583=0.020
,449.604=0.020
,449.625=0.020
,449.646=0.020
,449.667=0.020
,449.688=0.020
,449.708=0.020
,449.729=0.020
,449.750=0.020
,449.771=0.020
,449.792=0.020
,449.813=0.020
,449.833=0.020
,449.854=0.020
,449.875=0.020
,449.896=0.020
,449.917=0.020
,449.938=0.020
,449.979=0.020
,500.000=0.100
,501.000=0.120
,502.000=0.120
,503.000=0.100
,539.500=0.040
,540.500=0.060
,541.500=0.040
,542.500=0.040
;
#BGCHANGES:56.000=lightcross left.avi=2.000=0=0=1,
72.000=lightsheet1.avi=1.000=0=0=1,
208.000=rays.avi=2.000=0=0=1,
368.000=lightsheet1.avi=2.000=0=0=1,
99999=-nosongbg-=1.000=0=0=0 // don't automatically add -songbackground-
;
// cache tags:
#FIRSTBEAT:0.000;
#LASTBEAT:556.750;
#SONGFILENAME:Songs/cedric step/SF-C/SF-C.sm;
#HASMUSIC:1;
#HASBANNER:1;
#MUSICLENGTH:154.041;
// end cache tags

//---------------dance-single - ----------------
#NOTES:
     dance-single:
     :
     Hard:
     10:
     0.842,0.994,0.532,0.279,0.386,783.000,82.000,43.000,0.000,0.000:


1000
0000
0000
0100
0000
0000
1000
0000
0000
0010
0000
0000
1000
0000
0000
0001
0000
0000
1000
0001
1000
0000
0000
0000
,
0100
0000
0000
0010
0000
0000
0100
0000
0000
1000
0000
0000
0100
0000
0000
0001
0000
0000
0100
1000
0100
0000
0000
0000
,
0010
0000
0000
0001
0000
0000
0010
0000
0000
0100
0000
0000
0010
0000
0000
1000
0000
0000
0010
0100
0010
0000
0000
0000
,
0001
0000
0000
0010
0000
0000
0001
0000
0000
0100
0000
0000
0001
0000
0000
1000
0000
0000
0001
0100
0001
0000
0000
0000
,
0010
0000
0000
0010
0100
0000
0010
0000
0100
0000
0000
0100
1000
0000
0001
0000
,
0010
0000
0000
0000
0100
0000
1000
0000
0100
0000
0000
1000
0010
0000
1000
0000
,
0100
0000
0000
0100
0010
0000
0001
0000
1000
0000
0010
0000
0100
0000
0001
1000
,
0001
0000
0010
0100
1010
0000
0100
0000
,
0110
0000
0000
0001
1001
0000
0010
0100
,
0001
0000
0000
0001
0100
0000
0010
0000
0001
0000
0000
0000
1000
0000
0000
1000
,
0001
0000
0000
0100
0010
0000
1001
0000
0100
0000
0001
0000
0010
0000
0100
0000
,
0001
0000
0100
0010
1001
0000
0100
0010
,
0101
0000
0010
0100
1001
0000
0010
0100
,
0001
0000
0000
1000
0100
0000
1000
0000
0011
0000
0000
0000
0100
0010
0100
0010
,
0200
0001
0302
0010
,
0023
1000
2030
0010
,
3020
0000
0000
0130
,
1001
0000
0010
0000
0100
0000
0001
0000
0010
0000
0100
0000
1000
0000
0010
0100
0020
0000
0000
0000
0000
0000
0000
0000
0000
0000
0000
0000
1000
0000
1030
0000
,
1001
0000
0000
0100
0010
0000
0100
0000
0010
0000
0000
0100
1000
0000
0100
0000
,
0021
0000
0000
0000
0100
0000
0000
0000
1030
0000
0000
0010
0100
0000
0010
0000
,
1000
0000
0000
1000
0001
0000
0010
0000
0001
1000
0001
0000
0010
0000
0010
0000
,
1200
0000
0010
0000
0301
0000
0010
0100
,
0002
0000
0000
0000
0000
0000
0010
0000
0013
0000
0000
0000
0100
0010
0100
0000
,
0020
0000
0000
0000
0200
0000
0000
0330
,
2002
0000
0000
0000
3003
0000
0100
0000
0100
0000
0000
0001
0010
0000
1000
0000
,
0200
0000
0010
0000
0010
0300
1001
0000
,
0110
0000
0000
0000
1000
0000
0010
0000
0100
0000
0000
0100
1000
0000
0010
0000
,
0001
0000
0000
0100
1000
0000
0010
0000
1000
0000
0010
0000
1000
0000
0010
0000
,
0001
0000
0000
0010
0001
0000
0010
0000
0100
0000
0000
0000
0001
0000
0010
0100
,
0010
0001
0010
0001
0010
0001
0010
0001
,
1001
0000
1000
0100
1000
0000
0000
0000
0100
0010
0100
0000
0100
0000
0000
0000
,
0020
0001
0001
0000
0100
0100
0100
0000
,
1030
0000
1000
0100
1000
0000
0000
0000
0100
0000
0110
0000
0100
0000
0000
0000
,
0002
0010
0010
0000
0100
0100
0100
0000
,
0003
0000
0000
0000
,
0000
0000
0010
0001
,
1000
0000
0100
0000
0010
0100
0010
0100
,
0010
0100
0010
0100
0010
0000
0000
1001
,
0000
0000
0110
0000
1010
0000
0000
0011
,
0000
0110
0110
0010
,
1000
0000
0100
0000
0001
0010
0001
0010
,
0001
0010
0001
0010
0001
0000
1010
0000
,
0000
0110
0000
0011
,
0000
0110
1001
0010
,
0100
0001
0010
0000
1000
0010
0100
1000
,
0001
0100
0010
0000
1000
0100
1000
0100
,
1000
0100
1000
0100
1000
0000
0010
0000
,
0100
0010
0100
0000
0001
0000
1000
0000
,
0010
0100
0010
0000
1000
0000
0001
0000
,
0010
0100
0010
0000
0001
1000
0001
1000
,
0001
0010
0001
0010
0001
0100
0001
0000
,
1001
0220
0000
0330
,
1001
0000
0010
0100
0001
1000
0100
0000
,
0010
0001
1000
0010
0100
0010
0100
0000
,
1010
0000
0000
0011
0000
0000
0110
0000
,
1001
0000
0000
0101
0000
0000
1100
0000
,
0110
0000
0010
0001
0100
0010
1000
0000
,
1000
0010
1000
0010
0100
0001
0010
0000
,
0100
1100
0110
0011
,
1001
0000
0000
0000
,
1000
0100
1000
0000
0100
0010
0100
0000
,
0001
0010
0001
0000
0100
0001
0100
0000
,
1000
0010
1000
0010
1000
0010
1000
0010
,
0100
0001
0100
0001
0100
0001
0010
0000
,
0000
0000
0000
0000
,
0100
0010
0100
0001
0100
0010
0100
0000
,
0010
0100
0010
1000
0010
0100
0010
0000
,
0011
0110
1010
0110
,
0011
0110
0000
0000
,
1000
0100
1000
0000
0010
0000
0100
0000
,
0001
0000
0000
0001
0010
0100
0010
0000
,
0001
0000
0000
1000
0010
0000
0100
0000
,
0001
0010
0100
0000
,
0010
0100
1000
0000
0010
0000
0100
0000
,
1000
0000
0000
0100
0010
0000
0001
0000
,
1000
0001
0010
0100
0010
0000
1001
0000
,
0010
0000
0100
0010
0100
0000
0110
0000
,
0000
0000
0000
0000
,
1001
0000
0000
0000
0010
0000
0100
0000
1010
0000
0000
0100
1000
0000
0100
0000
,
0010
0000
0000
0010
0001
0000
0100
0000
0010
0000
0000
0000
1000
0001
0010
0000
,
0100
0000
0001
1000
0010
0000
1000
0000
0100
0000
0010
0000
0001
0000
0100
1000
,
0010
0000
0000
0000
1000
0100
1000
0100
1000
0000
0000
0000
0010
0001
0010
0000
,
0011
0000
0000
0000
0100
0000
0010
0000
0110
0000
0000
0100
1000
0000
0010
0000
,
0100
0000
0000
0001
1000
0000
0100
0000
0010
0000
0000
0000
0100
0010
0100
0000
,
0010
0000
0000
0001
0010
0000
0101
0000
1000
0000
0010
0000
0100
0000
0001
1000
,
0010
0000
0000
0000
0100
0010
0001
0010
0100
0000
0000
0000
0000
0000
0000
0000
,
0000
0000
0000
0000
,
1000
0000
0100
0000
0001
0000
0000
0000
0010
0100
0010
0000
0100
0000
0000
0000
1000
0000
0010
0000
0100
0000
0000
0010
0100
0000
0001
0000
0010
0000
0000
0000
,
1000
0010
1000
0010
0000
0000
0000
0000
0000
0000
0000
0000
0000
0000
0000
0000
0000
0000
0000
0000
0000
0000
0000
0000
0000
0000
0000
0000
0000
0000
0000
0000
,
1010
0101
1100
0011
,
0220
0000
0000
0000
,
0030
0000
0000
0300
,
0100
0000
0010
0000
1000
0010
0100
0010
,
1000
0100
0010
0001
1000
0100
0010
0001
,
0200
0000
0000
0000
,
0301
0100
0010
1000
0001
0100
0010
1000
,
0002
0000
1000
0000
0000
0013
0100
0000
,
0100
0010
0001
0100
,
0010
0000
1000
0100
,
0010
0000
0000
0000
,
1000
0000
0001
0000
1000
0000
0000
0100
0010
0000
1000
0000
0001
0000
0100
0000
,
0010
0000
1000
0100
0010
0000
0001
0100
0010
0000
0100
0001
0010
0000
0100
0000
,
0010
0000
0000
0000
0110
0000
0000
0000
1000
0100
1000
0000
1001
0000
0000
0000
,
0001
0010
0001
0000
1001
0000
0000
1000
0001
0000
0010
0000
0101
0000
0000
0000
,
0010
0100
1000
0010
0100
0000
0000
0100
0001
0000
0000
0001
0010
0000
0100
0000
,
1000
0000
0001
1000
0001
0000
0010
0000
1000
0001
1000
0000
0110
0000
0000
0000
,
0000
0000
0000
0000
,
0100
0010
0110
0000
0001
1000
0110
0000
,
0001
0010
0100
0000
0110
0000
0000
1000
0100
0000
0110
0000
1001
0000
0000
0000
,
0010
1000
0010
1000
0000
0000
0000
0000
0000
0000
0000
0000
0000
0000
0000
0000
,
1020
0100
0230
1000
,
2300
0001
3002
0010
,
0023
0000
0030
0000
,
0010
0100
0010
0100
,
0010
0100
0010
0100
,
0001
1000
0001
1000
0001
1000
0001
1000
,
0001
1000
0001
1000
0001
1000
0001
1000
0100
0000
0000
0000
0100
0000
0000
0000
,
0100
0000
0000
0100
0010
0000
0001
0000
1000
0000
0010
0000
0100
0000
0101
0000
,
2000
0100
0000
0100
0000
0000
0100
0000
3000
0100
0000
0100
1000
0100
1000
0000
,
0011
0000
0100
0010
1000
0000
0100
0000
0010
0000
0000
0001
0010
0000
1100
0000
,
0002
0010
0000
0010
0000
0000
0010
0010
0003
0010
0100
0000
0010
0000
0200
0000
,
0020
0300
0000
1000
2030
0000
0001
0001
,
0002
0000
3003
0000
0220
0000
0000
0330
,
1001
0000
0000
0000
0000
0000
0100
0001
0010
0000
0000
0000
1000
0000
0001
0000
,
0220
0000
0000
0000
,
0000
0000
0000
0000
0000
0000
0000
0330
,
1001
0000
0110
0000
,
0001
0010
0100
0000
0010
0000
0000
0000
0001
1000
0010
0000
0100
0000
0000
0100
,
0001
0000
0000
0001
1000
0000
0000
1000
0010
0000
0000
0010
0100
0000
0000
0000
,
0001
0000
0000
0000
0000
0000
0001
0000
0000
0010
0000
0000
0001
0000
0000
0000
0000
0000
0000
0000
0000
0010
0000
0000
0100
0000
0000
0000
0000
0000
1000
0000
0000
0000
0000
0000
0010
0000
0000
0000
0000
0000
0000
0000
0010
0000
0000
0000
,
0001
0000
0001
0100
0000
0100
1000
0000
0010
1000
0000
0000
,
0100
0000
0010
0000
0100
0000
0000
0000
0010
0100
0010
0100
0220
0000
0000
0000
,
0000
0000
0000
0330
,
0001
0010
1000
0010
0001
0000
0100
0010
1000
0010
0001
0000
2002
0000
0000
0000
,
0000
0000
0000
0000
,
0000
0000
0000
3003
0000
0000
0000
0000
,
1001
0000
0000
0100
0010
0000
0000
1000
0001
0000
0100
0000
0010
0000
0000
1000
,
0001
1000
0000
0000
0010
0000
0001
0000
0010
0000
0100
0000
1000
0000
0100
0000
,
0020
0000
0000
0200
,
0000
0000
0300
0030
0000
0000
0000
0000
0000
0000
0000
0000
0000
0000
0000
0000
;

//---------------dance-single - ----------------
#NOTES:
     dance-single:
     :
     Medium:
     9:
     0.524,0.723,0.299,0.325,0.029,469.000,46.000,50.000,0.000,0.000:





0000
0000
0000
0000
,
0000
0000
0000
0000
,
0000
0000
0000
0000
,
0000
0000
0000
0000
,
1000
0000
0010
1000
0010
0000
0100
0001
,
1000
0000
0010
0100
0010
0000
1000
0100
,
0010
0000
1000
0001
0100
1000
0010
0001
,
0001
0000
1000
0010
1000
0000
0010
0000
,
1010
0000
0001
0000
0101
0000
1000
0010
,
0001
0000
0010
1000
0001
0000
0100
0000
,
0001
0000
1000
0001
0010
0001
1000
0010
,
0001
0000
0010
1000
0100
0000
0010
0000
,
0011
0000
1000
0100
0010
0000
0100
0010
,
0001
0100
0010
0100
1001
0000
0010
0010
,
0020
0000
0000
0000
,
0230
0000
0000
0000
0000
0000
0000
0300
,
2002
0000
0000
3003
,
0200
0010
0010
0010
0000
0310
0010
0000
,
1001
0000
1000
0010
1000
0000
0100
0010
,
2000
0000
0010
0000
3100
0000
0010
1000
,
0100
0000
0001
1000
0001
0001
1000
1000
,
0020
0000
0000
0000
0030
0000
1000
0010
,
0002
0000
0000
1000
1003
0000
0010
0010
,
2000
0000
0000
0000
0010
0000
0000
3000
,
0002
0000
0003
0010
0010
0000
1000
0100
,
0020
0000
0000
0000
0000
0030
0010
0000
,
0010
0000
0100
1000
0010
0000
0100
1000
,
0001
0000
0100
1000
1000
0000
0100
0010
,
0001
0000
0001
1000
0010
0000
0001
1000
,
0100
0000
1000
0001
1000
0001
1000
0001
,
0100
0100
0010
0010
,
2000
3002
0023
0032
,
0203
2300
3010
0010
,
0002
2003
3020
0230
,
0300
0000
0000
0000
,
0000
0000
1000
0000
,
1001
0000
0001
0000
,
1001
0000
0000
0000
0010
0000
0000
0010
,
0000
0000
0010
0000
0100
0000
0000
0100
,
0000
0100
0010
0000
,
0011
0000
0010
0000
,
0011
0000
0100
0100
,
0000
0010
0000
0100
,
0000
0010
0100
0000
,
0110
0000
0010
0000
,
0110
0000
0100
0100
,
0001
0001
0010
0010
,
1000
1000
0001
1000
,
0001
0000
1000
0001
,
1000
0000
0010
0100
,
0010
0100
0001
0010
,
0100
2000
0000
3000
,
0002
0000
0013
0000
,
2000
0000
3010
0000
,
1000
0000
0000
0010
0000
0000
0100
0000
,
0001
0000
0000
0010
0000
0000
0100
0000
,
1000
0001
1000
0000
,
0010
0100
0020
0000
,
0000
1000
1000
0001
,
0031
0000
0000
0000
,
0100
0100
0200
0000
,
0001
0001
0301
0000
,
0100
0010
0100
0000
0200
0000
0000
0000
,
1000
1000
1300
1000
,
0000
0000
0000
0000
,
1000
0100
0010
0001
,
1000
0010
0100
0001
,
0100
0010
1000
0001
,
0010
1000
0000
0000
,
1000
1000
1000
0010
,
0001
0000
1001
0000
,
0001
0001
0001
0010
,
1000
0000
1010
0000
,
1000
1000
1000
0001
,
0100
0000
0110
0000
,
0001
0001
0001
0100
,
0010
0000
2020
0000
,
0000
0000
0000
0000
,
3030
0000
1000
0010
1000
0000
1000
0010
,
1000
0000
1000
0001
1000
0000
0110
0000
,
0011
0000
1010
0000
0110
0000
0001
0010
,
1000
0000
0001
0010
1000
0000
1000
0000
,
1001
0000
0010
1000
1000
0000
0100
0001
,
0001
0000
0100
0010
1000
0000
0010
0000
,
0110
1001
0101
1010
,
0011
0110
0110
0000
,
0000
0000
0000
0000
,
0100
0001
1000
0010
0100
1000
0100
0010
,
0001
0000
0000
0000
,
0200
0000
0000
0000
0000
0000
0000
0300
,
2000
0000
0000
0000
,
3000
0000
0000
0000
,
0010
1000
0100
0010
,
0100
1000
0001
0010
,
0200
0000
0000
0000
,
0000
0000
0000
0300
,
0110
0000
0000
0000
0000
0000
0010
0100
,
0010
0000
0000
0000
0000
0000
1000
0001
,
1000
0000
0000
0000
0000
0000
0010
0100
,
0010
0000
0000
0000
,
0100
0001
0100
0000
0100
0001
0100
0000
,
1000
0100
1100
0000
1010
0000
1001
0000
,
1100
0000
1010
0000
0000
0100
0001
0000
,
0000
0001
0100
0000
0000
1000
0010
0000
,
1000
1000
1100
0000
0011
0000
1001
0000
,
0110
0101
1100
0011
,
0000
0000
0000
0000
,
0010
1000
1000
0000
0001
0100
1000
0000
,
0001
0010
0010
0000
0010
0010
0001
0000
,
1000
1000
0000
0000
0000
0000
0000
0000
,
2000
0000
3020
0000
,
0230
0000
0302
0000
,
2003
0000
3000
0000
,
1000
0010
1000
0010
,
1000
0000
0010
0000
1000
0010
1000
0000
,
0001
0000
0100
0000
0001
0000
0100
0010
,
0100
0000
0010
0000
,
0010
0000
1000
0001
0100
0000
0100
0100
,
0200
0000
0000
0000
0300
0000
0100
0010
,
0001
0000
0100
0010
1000
0000
0001
0001
,
0002
0000
0003
0010
,
0010
0000
0000
0000
0000
0000
0100
0010
0100
0000
0000
0000
0001
0000
0000
0000
,
0002
0000
0003
0000
0020
0000
0000
0030
,
0200
0000
2300
3100
,
0022
0000
0000
0000
,
0000
0000
0000
0000
,
0000
0033
0000
0000
1010
0000
0000
0000
,
0001
0010
1000
0000
0001
1000
0010
0000
,
0001
0000
0000
0000
0100
0000
0000
0000
1000
0100
0000
0000
0010
0000
0000
0000
,
0001
0001
0001
0000
0010
0100
1000
0000
,
0001
0000
0000
0000
0010
0100
0000
0000
1000
0000
0000
0000
0100
0000
0000
0000
,
0001
0000
0001
0000
0001
0000
0000
0000
0010
0000
0010
0100
0020
0000
0000
0000
,
0000
0000
0000
0031
,
0100
0000
0000
0000
1000
0100
0000
0000
0010
0000
0000
0000
0202
0000
0000
0000
,
0000
0000
0000
0000
,
0000
0000
0000
0303
0000
0000
0000
0000
,
0101
1000
0001
1000
,
0001
1000
0000
0000
1000
0001
0000
0000
0001
1000
0000
0000
1000
0001
0000
0000
,
2002
0000
0000
0000
,
0000
0000
0003
3000
0000
0000
0000
0000
0000
0000
0000
0000
0000
0000
0000
0000
;

//---------------dance-single - ----------------
#NOTES:
     dance-single:
     :
     Easy:
     5:
     0.356,0.678,0.357,0.260,0.000,289.000,55.000,40.000,0.000,0.000:
















0000
0000
0000
0000
,
0000
0000
0000
0000
,
0000
0000
0000
0000
,
0000
0000
0000
0000
,
1000
0010
0010
0100
,
1000
0010
0010
1000
,
0010
1000
0100
0010
,
0001
1000
1000
0010
,
1010
0001
0101
1000
,
0001
0010
0001
0100
,
0001
1000
0010
1000
,
0001
0010
0100
0010
,
0011
1000
0010
0100
,
0001
0010
1001
0010
,
0020
0000
0000
0000
,
0230
0000
0000
0000
0000
0000
0000
0300
,
2002
0000
0000
3003
,
0200
0000
0010
0000
0000
0300
0010
0000
,
1001
1000
1000
0100
,
2000
0000
3000
0010
,
0100
0001
0001
1000
,
0020
0000
0030
1000
,
0002
0000
0003
0010
,
2000
0000
0000
0000
0000
0000
0000
3000
,
0002
0003
0010
1000
,
0020
0000
0000
0000
0000
0030
0000
0000
,
0010
0100
0010
0100
,
0001
0100
1000
0100
,
0001
0001
0010
0001
,
0100
1000
1000
1000
,
0100
0000
0010
0000
,
2002
0000
0000
0000
,
3003
0000
0010
0010
,
2002
0000
0000
0000
,
0000
0000
0000
0000
,
0000
3003
1000
0000
,
1000
0000
1000
0000
,
1000
0000
0010
0000
,
0000
0010
0010
0000
,
0000
0010
0001
0000
,
0001
0000
0001
0000
,
0001
0000
0000
0100
,
0000
0100
0000
0100
,
0000
0100
0100
0000
,
0110
0000
0010
0000
,
0110
0000
0110
0000
,
0110
0000
1001
0000
,
0110
0000
1001
0000
,
1001
0000
1001
0000
,
1001
0000
0110
0000
,
1001
0000
0110
0000
,
2000
0000
0000
0000
,
3001
0000
0010
0000
,
1000
0000
0010
0000
,
1000
0000
0100
0000
,
0001
0000
0010
0000
,
1000
0000
0001
0000
,
0010
0000
0020
0000
,
0000
0000
0000
0000
,
0030
0000
0000
0000
,
0100
0000
0200
0000
,
0000
0000
0300
0000
,
0100
0000
0200
0000
,
0000
0000
1300
0000
,
0000
0000
0000
0000
,
1000
0000
0001
0000
,
1000
0000
0100
0000
,
0100
0010
1000
0001
,
0010
1000
0000
0000
,
1000
0000
1000
0000
,
0001
0000
1001
0000
,
0001
0000
0001
0000
,
1000
0000
1001
0000
,
1000
0000
1000
0000
,
0100
0000
0110
0000
,
0001
0000
0001
0000
,
0010
0000
2020
0000
,
0000
0000
0000
0000
,
3030
1000
1000
1000
,
0000
1000
1000
1000
,
0011
0101
1001
0101
,
0000
0110
0110
0110
,
0001
0001
0001
0000
,
1100
1010
1001
0000
,
1001
1001
1001
0010
,
0100
0010
0100
0000
,
0000
0000
0000
0000
,
0000
1000
0000
0100
0000
0100
0000
0001
,
0000
0000
0000
0000
,
0200
0000
0000
0000
,
0000
0000
0000
0000
,
0000
0000
0000
0000
,
0320
0000
0000
0000
,
0000
0000
0000
0030
,
2002
0000
0000
0000
,
0000
0000
0000
3003
,
0110
0000
0010
0000
,
0010
0000
0010
0000
,
0100
0000
0100
0000
,
0100
0000
0000
0000
,
0100
0100
0100
0100
,
1000
1100
1010
1001
,
1100
1010
0000
0001
,
0000
0100
0000
0010
,
1000
1100
0011
1001
,
0110
0101
1100
0011
,
0000
0000
0000
0000
,
0000
1000
0001
1000
,
0001
0010
0000
0001
,
1000
0000
0000
0000
,
2002
0000
0000
0000
,
0000
0000
0000
0000
,
0000
0000
0000
3003
,
1000
0010
1000
0000
,
1000
0010
1000
0000
,
1000
0010
1000
0000
,
1000
0100
0010
0001
,
1000
1000
0100
0100
,
0200
0000
0300
0000
,
0001
0100
1000
0001
,
0002
0000
0003
0000
,
0010
0000
0100
0001
,
0002
0000
0003
0000
0020
0000
0000
0030
,
0200
0000
2300
0000
,
0020
0000
0000
0000
,
0000
0000
0000
0000
,
0000
0030
3000
0000
1010
0000
0000
0000
,
0010
0010
0010
0100
,
0001
0100
1000
0010
,
0001
0001
0010
1000
,
0001
0010
1000
0200
,
0000
0000
0000
0020
,
0000
0000
0300
0032
,
0000
0000
0000
0200
,
0000
0000
0000
0000
,
0000
0000
0003
0300
0000
0000
0000
0000
,
0000
1000
0001
0000
,
0001
1000
0001
1000
,
2002
0000
0000
0000
,
0000
0000
0003
3000
0000
0000
0000
0000
0000
0000
0000
0000
0000
0000
0000
0000
;

//---------------dance-single - Blank----------------
#NOTES:
     dance-single:
     Blank:
     Challenge:
     12:
     1.000,1.000,1.000,0.292,0.990,1040.000,189.000,45.000,0.000,38.000:

0001
0000
0000
0000
0010
0000
0000
0000
0001
0000
0000
0000
0100
0000
0000
0000
0001
0000
0000
0000
1000
0000
0000
0000
0001
1000
0001
1000
0001
1000
0001
0000
,
0010
0000
0000
0100
0000
0000
0010
0000
0000
0001
0000
0000
0010
0000
0000
1000
0000
0000
0010
0001
0010
0001
0010
0001
,
0100
0000
0000
1000
0000
0000
0100
0000
0000
0010
0000
0000
0100
0000
0000
0001
0000
0000
0100
0010
0100
0010
0100
0010
,
1000
0000
0000
0100
0000
0000
1000
0000
0000
0010
0000
0000
1000
0000
0000
0001
0000
0000
1000
0010
1000
0010
1000
0010
,
0100
0000
0000
0000
0000
0000
0100
0000
0010
0000
0000
0000
0100
0000
0000
0000
0010
0000
0000
0000
0000
0000
0010
0000
0001
0010
0001
0010
0001
0010
0001
0000
,
0100
0000
0000
0000
0000
0000
0000
0000
0000
0000
0000
0000
0010
0000
0000
0000
0000
0000
0001
0000
0000
0000
0000
0000
0010
0000
0000
0000
0000
0000
0000
0000
0000
0001
0000
0000
0100
0000
1000
0000
0100
0000
1000
0000
0100
0000
1000
0000
,
0010
0000
0000
0000
0000
0000
0000
0000
0000
0010
0000
0000
0100
0000
0000
0000
0000
0000
1000
0000
0000
0000
0000
0000
0001
0000
0000
0000
0000
0000
0100
0000
0000
0000
0000
0000
0010
0000
0100
0000
0010
0000
0100
0000
0010
0001
0000
0000
,
1000
0000
0000
0000
0000
0000
0100
0000
0000
0010
0000
0000
0101
0000
0000
0000
0000
0000
0010
1000
0001
1000
0001
1000
,
0110
0000
0000
0000
0000
0000
0000
0000
0000
0000
0000
0000
1000
0000
0000
0000
1001
0000
0000
0000
0000
0000
0000
0000
0100
0010
0100
0010
0100
0010
0000
0000
,
1000
0000
0000
0000
0000
0000
1000
0000
0010
0000
0000
0000
0100
0000
0000
0000
1000
0000
0000
0000
0000
0000
0000
0000
0001
1000
0001
1000
0001
1000
0001
0000
,
1000
0000
0000
0000
0000
0000
0000
0000
0000
0010
0000
0000
0100
0000
0000
0000
0000
0000
1001
0000
0000
0000
0000
0000
0010
0000
0000
0000
0000
0000
1000
0000
0000
0000
0000
0000
0100
0000
0010
0000
0100
0000
0010
0000
0100
0000
0010
0000
,
1000
0000
0000
0000
0000
0000
0010
0000
0000
0100
0000
0000
1001
0000
0000
0000
0000
0000
0010
0001
0010
0001
0010
0001
,
1010
0000
0000
0000
0000
0000
0100
0000
0000
0010
0000
0000
1001
0000
0000
0000
0000
0000
1000
0010
1000
0010
1000
0010
,
1000
0000
0000
0001
0010
0000
0001
0000
1100
0000
0000
0000
0010
0100
0010
0100
,
0020
1101
2030
0111
,
3200
1011
0302
1110
,
2220
0000
0030
3313
,
1001
0000
0000
0000
0100
0000
0000
0000
0010
0000
0000
0000
1000
0000
0000
0000
0100
0000
0000
0000
0010
0000
0000
0000
0001
0000
0010
1000
0100
0000
0010
1000
0200
0000
0000
0000
0000
0000
0000
0000
0000
0000
0000
0000
0000
0000
0000
0000
0001
0000
1000
0000
0001
0000
0000
0000
0001
0000
1000
0000
0301
0000
0000
0000
,
1001
0000
0000
0010
0100
0001
0010
1000
0100
0000
0100
1010
0001
0000
0010
0001
,
1200
0000
0010
0001
0010
0000
1001
0000
0301
0000
0010
1100
0010
0000
0101
0000
,
0001
0000
0100
0001
1000
0010
0100
0001
1000
0101
1000
0010
0100
1000
0100
0000
,
0021
0000
1000
0100
1000
0000
0101
0000
0031
0100
0001
0000
0110
0000
0010
0000
,
2000
0000
0110
0000
0000
0000
0110
0000
3101
0000
0000
0001
0010
0100
0010
1000
,
0210
0000
1001
0000
0020
0000
0000
0330
,
2002
0000
0000
0000
3003
0000
0010
0100
0010
0001
0000
1000
0100
0000
0001
0100
,
0020
0001
0100
1000
0100
1000
0100
1000
0100
0000
0030
0000
1001
0000
0110
0000
,
0110
0000
0000
0000
1001
0000
0110
0000
0011
0000
0000
0010
0101
0000
0110
0000
,
1000
0000
0000
0010
1001
0000
0110
0000
1001
0000
0100
0000
1001
0000
0100
0000
,
1010
0000
0000
0100
1001
0000
0100
0000
0110
0000
0000
0000
1000
0000
0100
0010
,
0100
0000
1000
0010
0100
0010
1000
0001
0100
0001
1000
0010
0100
0010
1000
0100
,
1001
0100
0001
1010
0001
1000
0000
0100
0010
0101
0010
1000
0010
0001
0000
0001
,
0200
0000
1010
0000
1010
0000
0000
0000
0010
1000
0010
1000
0010
0000
0000
0000
,
0311
0000
0101
0010
0001
0000
0000
0000
0010
0000
0110
0000
0010
0000
0000
0000
,
2000
0100
0110
0000
0010
0111
0010
0000
,
3000
0000
0000
0000
,
0000
0000
0110
1001
,
1001
0000
1010
0000
1100
0010
0100
0010
,
0100
0010
0100
0010
1100
0000
0000
1001
,
0000
0000
0110
0000
0101
0000
0000
1100
,
0000
0000
0110
0000
0110
0000
0100
0010
,
0001
0100
0010
0001
1000
0110
1000
0100
,
1000
0110
1000
0100
1000
0000
0111
0000
,
1001
0111
1001
0111
,
1001
0110
1001
0100
,
0010
1000
0100
0000
0001
0100
0010
0001
,
1000
0000
0010
0000
0100
0000
0000
0000
0001
1000
0010
0000
0001
0000
0010
0000
,
0001
0000
0010
0000
0001
0000
0010
1000
0001
0000
0000
0000
0100
0000
0000
0000
,
0010
0100
0010
0000
1100
0000
1001
0000
,
0101
0010
0101
0000
0011
0000
1001
0010
,
0101
0010
0100
0000
1100
0001
1000
0001
,
1010
0100
1000
0100
1001
0010
1000
0000
,
1101
0220
0000
0330
,
1001
0000
0100
0010
1000
0001
0010
0000
,
0100
1000
0001
0100
0010
0100
0010
0000
,
0111
0000
0000
1100
0010
0000
0110
0000
,
1101
0000
0000
1010
0100
0000
0011
0000
,
0111
0000
0100
1000
1010
0100
0001
0000
,
1001
0100
0001
0100
0011
1000
0100
0000
,
0110
1011
0111
1101
,
1111
0000
0000
0000
0000
0000
0000
0100
,
0001
0010
0001
1000
0010
0100
0010
0001
,
1000
0100
1000
0100
0010
1000
0010
1000
,
0001
0100
0001
0110
0001
0100
0001
1100
,
0010
1000
0010
1001
0010
1001
0100
0000
,
0000
0000
0000
0000
0000
0000
0000
0100
,
0010
0100
0010
1000
0010
0100
0010
0000
,
0100
0010
0100
0001
0100
0010
0100
0000
,
1100
0001
0110
1000
0101
1000
0110
0001
,
1100
0001
0110
0000
0000
0000
0000
0000
,
1001
0110
1001
0000
0100
0000
0010
0000
,
1000
0000
0000
1000
0100
0010
0100
0000
,
1000
0000
0000
0001
0100
0000
0010
0000
,
1000
0000
0110
0110
0110
0000
0000
0000
,
1100
1010
1001
0000
0100
0000
0010
0000
,
0001
0000
0000
0010
0100
0000
1000
0000
,
0001
1000
0100
0010
0100
0000
1001
0000
,
0100
0000
0010
0100
0010
0000
0110
0000
,
0000
0000
0000
0000
,
1001
0000
0010
0000
0100
1000
0010
0000
0101
0000
1000
0010
0001
0100
0010
0001
,
0100
0000
0000
0100
1000
0000
0010
0001
0100
0000
0000
0010
0001
1000
0100
0000
,
0010
0000
1000
0001
0100
0000
0001
1000
0010
0001
0100
0010
1000
0000
0010
0001
,
0100
0000
0000
0000
0000
0000
0000
0000
0001
1000
0010
0000
0001
0000
0010
0000
0001
0000
0000
0000
0000
0000
0000
0000
0100
0010
1000
0000
0100
0000
0000
0000
,
1100
0000
0000
0000
0000
0000
0000
0000
0010
0001
0000
0000
0100
1000
0000
0000
0110
0000
0000
0000
0000
0000
0010
0100
0001
0000
0000
0000
0100
0000
0000
0000
,
0010
0000
0100
1000
0001
0000
0010
0000
0100
0001
0000
0000
0010
0100
0010
0001
,
0100
0000
0010
0000
0000
0000
1010
0000
0100
0000
0001
0000
1010
0000
0000
0000
0001
0010
0000
0000
0100
1000
0000
0000
0010
0001
0000
0000
1000
0000
0001
0000
,
0100
0000
0000
0000
0000
0000
0000
0000
0010
0001
0100
0000
1000
0000
0100
0000
0010
0001
0000
0000
0000
0000
0000
0000
0000
0000
0000
0000
0000
0000
0000
0000
,
0000
0000
0000
0000
,
0001
0100
0010
0000
1000
0000
0000
0000
0100
0010
0100
0000
0010
0000
0000
1000
0001
0000
0100
0000
0010
0000
0000
0100
0010
0000
1000
0000
0100
0000
0000
0010
,
0001
0100
0001
0100
0000
0000
0000
0000
0000
0000
0000
0000
0000
0000
0000
0000
0000
0000
0000
0000
0000
0000
0000
0000
0000
0000
0000
0000
0000
0000
0000
0000
,
0101
0000
0000
0000
0000
0100
0000
0000
1010
0000
0000
0000
0000
0100
0000
0000
0011
0000
0000
0000
0000
0010
0000
0000
1100
0000
0000
0000
0000
0001
0000
0000
,
0220
0000
0000
0000
,
1300
0001
1000
0001
1000
0001
1030
0001
,
0010
0000
0100
0000
0001
0100
0010
0100
,
0001
0010
0100
1000
0001
0010
0100
1000
,
0020
0000
0000
0000
,
1030
0100
0010
0001
1000
0100
0010
0001
1000
0010
0100
0001
1000
0010
0100
0001
,
2000
0000
0001
0000
0001
3001
0001
0000
,
0010
0000
0100
0000
1000
1000
1000
0000
,
0100
0000
0010
0000
0001
0001
0001
0000
,
0100
0000
0010
0000
,
0001
0000
1000
0000
0001
0000
1000
0010
0100
0010
0001
0100
1000
0001
0010
0000
,
0100
1000
0001
0010
0100
0000
1000
0010
0100
1000
0010
1000
0100
0001
0010
0000
,
0100
0000
0000
0000
0110
0000
1001
0000
0001
0010
0101
0000
1001
0000
0000
0000
,
1000
0100
1010
0000
1001
0000
0000
0001
1000
0000
0110
0000
1010
0000
0001
0000
,
0100
1010
0001
0100
1010
0000
0000
0010
1000
0100
0000
1000
0100
0010
0010
0000
,
0001
0100
1000
0001
1001
0000
0100
0000
0011
1000
0001
1000
0110
0000
0000
1000
,
0000
0000
0000
0000
,
0010
1000
0100
0000
0110
0000
0000
0000
1000
0010
0001
0000
0110
0000
0000
0000
,
1000
0100
0010
0000
0110
0000
0000
0001
0010
1000
0110
0000
1001
0000
0000
0000
,
0100
0001
0100
0001
0000
0100
0000
0001
0000
0000
0100
0000
0001
0000
0010
0000
,
0201
1011
0320
1101
,
0032
1110
2003
0111
,
3200
0000
0300
0000
,
0100
0010
0100
0010
,
0100
0010
0100
0010
,
1000
0001
1000
0001
1000
0001
1000
0001
,
1000
0001
1000
0001
1000
0001
1000
0001
0010
0100
1000
0001
0010
0100
1000
0001
,
0010
0100
1000
0010
0100
0010
1000
0000
0001
1000
0100
0000
0010
0100
1010
0000
,
0002
0110
0000
0010
0000
0100
0010
0000
0003
0110
0000
0110
0001
0010
0001
0010
,
1100
0000
0010
1100
0001
0000
0011
0000
0110
0000
0000
1000
0101
0000
0011
0000
,
2000
0110
0000
0101
0000
0000
0100
0110
3000
0100
0010
0001
0100
1000
0020
0000
,
0200
0001
0030
0000
0000
0000
0001
0010
0302
0000
0000
0000
1000
0100
1000
0010
,
2000
0000
0000
0000
3003
0000
0000
0110
0220
0000
0000
0000
0000
0000
0330
1001
,
1001
0000
0000
0000
0000
0100
0010
1000
0100
0001
0010
0000
0101
0000
1000
0001
,
0220
0000
0000
0000
,
0000
0000
0000
0000
0000
0000
0000
0330
,
1001
0110
0110
1001
,
1000
0100
0010
0001
0100
0000
0000
0010
1000
0001
0100
0000
0010
0100
0000
0010
,
1000
0000
0000
1010
0001
0000
0000
0001
0100
1000
0000
0100
0010
0000
0000
0001
,
1000
0000
0000
0010
0000
0000
1000
0000
0000
0100
0000
0000
1000
0000
0000
0001
0000
0000
0000
0000
0000
0100
0000
0000
0010
0000
0000
1000
0000
0000
0001
0000
0000
0010
0000
0000
0100
0000
0000
0001
0000
0000
0000
0000
0100
0010
0000
0000
,
1000
0000
0000
0000
0000
0000
0000
0000
1000
0100
0000
0000
0010
0000
0000
0000
0000
0000
0000
0000
0010
0000
0000
0000
0001
0000
0000
1000
0000
0000
0000
0000
0100
0010
0000
0000
0001
0000
0000
1000
0000
0000
0000
0000
0000
0000
0000
0000
,
0010
0001
0100
1000
0010
0100
0000
0000
0100
0010
0100
0010
0220
0000
0000
0000
,
0000
0000
0000
0330
,
1000
0100
0001
0100
1000
0001
0010
0100
0001
0110
1000
0000
2002
0000
0000
0000
,
0000
0000
0000
0000
,
0000
0000
0000
3003
0000
0000
0000
0000
,
1001
0000
0100
0010
0100
0000
0010
0001
1000
0000
0010
1000
0100
0010
0000
0001
,
1000
0101
0000
0000
0100
0010
1000
0000
0100
1000
0010
0000
0001
0100
0010
0000
,
0200
0010
0000
0000
0000
0000
0000
0000
0000
0000
0000
0000
0020
0000
0000
0000
,
0000
0000
0030
0300
0000
0000
0000
0000
0000
0000
0000
0000
0000
0000
0000
0000
;
