#TITLE:Shit Pallette 2.0;
#SUBTITLE:;
#ARTIST:Goreshit;
#TITLETRANSLIT:;
#SUBTITLETRANSLIT:;
#ARTISTTRANSLIT:;
#CREDIT:Mad Matt;
#BANNER:../banner.png;
#BACKGROUND:../bg.png;
#LYRICSPATH:;
#CDTITLE:;
#MUSIC:Shit Pallette 2.0.ogg;
#OFFSET:-0.015;
#SAMPLESTART:24.111;
#SAMPLELENGTH:20.000;
#SELECTABLE:YES;
#BPMS:0.000=249.000;
#STOPS:;
#BGCHANGES:;
// cache tags:
#FIRSTBEAT:31.000;
#LASTBEAT:304.000;
#SONGFILENAME:Songs/Tachyon Epsilon Short Cuts/Shit Pallette 2.0 - [Mad Matt]/Shit Pallette 2.0.sm;
#HASMUSIC:1;
#HASBANNER:1;
#MUSICLENGTH:80.973;
// end cache tags

//---------------dance-single - Mad Matt----------------
#NOTES:
     dance-single:
     Mad Matt:
     Challenge:
     22:
     1.000,1.000,0.000,0.025,1.000,1061.000,0.000,2.000,0.000,0.000:





0000
0000
0000
0000
,
0000
0000
0000
0000
,
0000
0000
0000
0000
,
0000
0000
0000
0000
,
0000
0000
0000
0000
,
0000
0000
0000
0000
,
0000
0000
0000
0000
,
0000
0000
0000
0000
0000
0000
0001
1000
,
0001
0010
0100
1000
0001
0100
0001
0010
0001
1000
0100
0010
0100
1000
0010
1000
,
0001
0010
0001
0100
0010
1000
0001
1000
0100
0010
0100
1000
0010
1000
0001
0100
,
0001
0010
0001
0010
0100
1000
0010
1000
0001
0100
0001
0010
0100
1000
0001
0010
,
0001
0010
0100
1000
0010
1000
0100
1000
0001
0010
0100
1000
0001
1000
0010
0100
,
0001
0010
0001
1000
0010
0100
0010
1000
0100
1000
0001
0100
0001
0010
0100
0010
,
0001
1000
0010
1000
0100
1000
0001
0010
0001
0100
0010
0100
0001
1000
0010
0100
,
0010
1000
0100
1000
0001
0010
0001
0100
0001
1000
0010
0100
0010
1000
0100
1000
,
0001
0010
0100
1000
0001
0010
0100
1000
0001
0100
0001
0010
0100
0010
0001
1000
,
0001
0100
0010
1000
0001
0010
0001
0100
0001
1000
0010
0100
0010
1000
0100
1000
,
0001
0100
0001
0010
0100
1000
0001
1000
0010
0100
0010
1000
0100
1000
0001
0010
,
0001
0100
0001
1000
0010
0100
0001
0010
0100
1000
0001
0100
0010
1000
0001
0100
,
0001
0100
0010
1000
0100
1000
0010
1000
0001
0100
0010
1000
0001
1000
0100
0010
,
0001
0100
0001
1000
0100
0010
0100
1000
0010
1000
0001
0010
0001
0100
0010
0100
,
0001
1000
0100
1000
0010
1000
0001
0100
0001
0010
0100
0010
0001
1000
0100
0010
,
0100
1000
0010
1000
0001
0100
0001
0010
0001
1000
0100
0010
0100
1000
0010
1000
,
0001
0100
0010
1000
0001
0100
0010
1000
0001
0010
0001
0100
0010
1000
0100
0010
,
0001
1000
0010
1000
0100
0010
0001
1000
0010
0100
0001
0010
0001
1000
0010
0100
,
0010
1000
0100
1000
0100
0010
0001
1000
0010
0100
0001
0010
0001
1000
0010
1000
,
0001
0010
0001
0010
0100
0010
0001
1000
0010
0100
0010
0100
0001
1000
0100
1000
,
0010
1000
0001
0100
0010
1000
0100
0010
0001
1000
0010
0100
0001
1000
0100
0010
,
0100
1000
0010
1000
0001
0010
0100
0010
0001
0100
0001
1000
0010
0100
0010
1000
,
0100
1000
0001
0100
0010
1000
0100
0010
0001
1000
0001
0100
0001
0010
0100
0010
,
0001
1000
0001
1000
0010
0100
0001
0010
0100
1000
0001
1000
0001
0100
0010
1000
,
0100
0010
0001
1000
0010
1000
0100
0010
0100
1000
0001
1000
0010
0100
0001
0010
,
0100
1000
0001
0100
0010
1000
0001
0010
0100
1000
0010
1000
0001
0010
0100
0010
,
0001
0100
0001
0100
0010
1000
0001
0010
0100
1000
0010
1000
0001
0010
0001
1000
,
0010
1000
0010
0100
0010
1000
0001
0010
0100
0010
0100
1000
0001
0100
0001
0010
,
0001
1000
0100
0010
0001
0100
0010
1000
0001
0010
0100
1000
0001
0100
0010
0100
,
0001
0010
0001
1000
0010
0100
0010
1000
0100
1000
0001
0010
0100
0010
0001
0100
,
0001
1000
0100
0010
0001
1000
0010
0100
0001
1000
0100
1000
0010
0100
0010
1000
,
0001
1000
0001
0010
0100
1000
0010
0100
0001
1000
0001
1000
0100
0010
0001
0100
,
0010
1000
0100
1000
0001
0100
0010
0100
0001
1000
0001
0010
0100
1000
0010
0100
,
0001
1000
0010
0100
0010
1000
0100
0010
0001
1000
0100
1000
0010
1000
0001
0100
,
0010
1000
0100
0010
0001
1000
0010
0100
0001
1000
0100
0010
0100
1000
0001
0100
,
0010
1000
0001
0100
0010
0100
0001
0010
0100
1000
0001
0010
0001
0100
0001
1000
,
0010
0100
0001
0010
0100
1000
0001
0100
0010
1000
0001
0010
0100
0010
0001
1000
,
0001
0100
0010
0100
0001
0010
0001
1000
0010
1000
0100
1000
0001
0010
0100
1000
,
0010
1000
0001
0100
0001
0010
0100
0010
0001
1000
0010
1000
0100
0010
0001
1000
,
0010
0100
0001
1000
0001
0010
0100
1000
0010
1000
0001
0100
0010
0100
0001
1000
,
0100
0010
0001
1000
0100
0010
0001
1000
0010
0100
0001
0010
0100
1000
0001
0100
,
0010
1000
0001
0100
0010
0100
0001
0010
0100
1000
0001
0010
0001
0100
0001
1000
,
0010
0100
0001
0010
0100
1000
0001
0100
0010
1000
0001
0010
0100
0010
0001
1000
,
0010
0100
0001
1000
0010
0100
0010
1000
0100
0010
0001
1000
0100
1000
0010
1000
,
0001
0100
0010
1000
0100
0010
0001
1000
0010
0100
0001
1000
0100
0010
0100
1000
,
0001
1000
0010
0100
0010
1000
0100
1000
0001
0100
0001
0010
0001
1000
0100
0010
,
0001
0100
0001
1000
0010
1000
0100
0010
0100
1000
0001
0100
0001
0010
0100
1000
,
0001
0100
0010
1000
0001
1000
0100
0010
0001
0100
0001
1000
0010
0100
0010
1000
,
0001
0010
0100
1000
0001
0010
0100
1000
0001
0100
0010
1000
0100
0010
0001
1000
,
0010
0100
0001
0010
0100
1000
0001
0010
0001
0100
0001
1000
0010
0100
0010
1000
,
0001
0010
0001
0010
0100
1000
0001
0100
0010
1000
0010
1000
0001
0010
0100
1000
,
0002
0000
0000
0000
,
0203
0300
0000
0000
0000
0000
0000
0000
,
0001
0010
0100
1000
0001
1000
0010
0100
0001
0010
0001
1000
0010
0100
0010
1000
,
0001
0010
0100
1000
0001
0100
0001
1000
0001
0010
0100
0010
0001
1000
0010
0100
,
0010
1000
0001
1000
0100
0010
0001
0100
0001
1000
0100
0010
0100
1000
0010
1000
,
0001
0100
0001
1000
0010
1000
0001
0010
0100
1000
0001
0100
0010
0100
0001
0010
,
0100
1000
0001
0100
0001
0010
0100
1000
0001
1000
0010
0100
0010
1000
0001
0010
,
0100
1000
0001
0100
0010
0100
0001
0010
0100
1000
0001
1000
0010
0100
0010
1000
,
0100
1000
0001
0100
0010
0100
0001
0010
0001
1000
0010
1000
0100
0010
0100
1000
,
0001
0100
0010
1000
0001
1000
0100
0010
0001
1000
0010
0100
0001
0010
0100
1000
,
0001
0100
0010
1000
0001
1000
0100
0010
0001
1000
0001
0100
0010
1000
0001
1000
,
0100
0010
0100
1000
0001
1000
0010
0100
0001
1000
0001
0010
0100
1000
0010
0100
,
0001
1000
0001
0010
0100
1000
0010
0100
0001
1000
0100
0010
0100
1000
0010
0100
,
0001
1000
0100
0010
0100
1000
0010
0100
0001
1000
0001
0010
0100
1000
0001
1000
,
0010
0100
0001
1000
0001
0010
0100
1000
0010
0100
0001
1000
0100
1000
0010
0100
,
0001
1000
0100
0010
0100
1000
0010
0100
0001
1000
0100
1000
0010
0100
0001
1000
,
0001
0010
0100
1000
0001
0100
0010
1000
0001
1000
0100
0010
0001
1000
0010
0100
,
0001
1000
0001
0010
0100
1000
0001
1000
0010
0100
0001
1000
0001
0010
0100
1000
,
0001
0000
0000
0000
;

//---------------dance-single - Mad Matt----------------
#NOTES:
     dance-single:
     Mad Matt:
     Hard:
     21:
     1.000,1.000,0.000,0.025,1.000,1061.000,0.000,2.000,0.000,0.000:




0000
0000
0000
0000
,
0000
0000
0000
0000
,
0000
0000
0000
0000
,
0000
0000
0000
0000
,
0000
0000
0000
0000
,
0000
0000
0000
0000
,
0000
0000
0000
0000
,
0000
0000
0000
0000
0000
0000
0001
1000
,
0001
1000
0001
0100
0010
0100
0001
1000
0001
0010
0001
1000
0100
0010
0001
1000
,
0001
0010
0100
1000
0001
1000
0010
0100
0010
1000
0001
1000
0010
0100
0001
0100
,
0010
1000
0001
1000
0100
0010
0100
1000
0001
0010
0100
0010
0001
1000
0001
0100
,
0010
1000
0001
0100
0010
0100
0001
1000
0001
0010
0001
1000
0100
0010
0100
1000
,
0001
1000
0100
0010
0001
1000
0001
0100
0010
1000
0001
0100
0010
0100
0001
1000
,
0001
0100
0010
1000
0001
1000
0100
0010
0100
1000
0001
1000
0100
0010
0001
1000
,
0001
0100
0010
1000
0001
0100
0010
0100
0001
1000
0001
0010
0100
0010
0001
1000
,
0100
0010
0001
1000
0001
0100
0010
1000
0001
0100
0001
1000
0010
0100
0001
1000
,
0001
0010
0001
1000
0100
0010
0100
1000
0001
1000
0010
1000
0001
0100
0010
1000
,
0001
1000
0010
0100
0001
1000
0001
0010
0100
0010
0001
1000
0001
0010
0100
1000
,
0001
1000
0010
0100
0001
1000
0010
0100
0010
1000
0001
0100
0010
1000
0001
1000
,
0100
0010
0001
1000
0100
0010
0100
1000
0001
1000
0010
1000
0001
0100
0010
0100
,
0001
1000
0001
0100
0010
1000
0001
1000
0100
0010
0001
1000
0100
0010
0100
1000
,
0001
1000
0010
0100
0001
1000
0001
0100
0010
0100
0001
1000
0001
0010
0100
1000
,
0001
1000
0100
0010
0001
1000
0100
0010
0100
1000
0001
1000
0010
0100
0010
1000
,
0001
0100
0010
1000
0001
1000
0100
0010
0001
1000
0100
1000
0001
0010
0100
1000
,
0001
1000
0010
0100
0010
1000
0001
1000
0100
1000
0001
0010
0100
0010
0001
1000
,
0001
0100
0010
0100
0001
1000
0001
0010
0100
1000
0100
0010
0001
1000
0001
0100
,
0010
1000
0001
0100
0010
0100
0001
1000
0001
0010
0001
1000
0100
0010
0001
1000
,
0001
0100
0010
1000
0001
1000
0100
0010
0100
1000
0001
1000
0010
0100
0001
1000
,
0001
0010
0100
0010
0001
1000
0100
0010
0001
1000
0001
0100
0010
1000
0001
1000
,
0010
0100
0001
1000
0001
0010
0001
1000
0100
0010
0001
1000
0100
0010
0001
1000
,
0001
0100
0010
0100
0001
1000
0010
0100
0001
1000
0001
0010
0001
1000
0100
0010
,
0100
1000
0001
0010
0100
1000
0001
1000
0010
0100
0010
1000
0001
0100
0010
1000
,
0001
1000
0100
0010
0100
1000
0001
1000
0010
1000
0001
0100
0010
0100
0001
1000
,
0001
0010
0100
0010
0001
1000
0001
0100
0010
1000
0010
0100
0001
1000
0001
0010
,
0100
1000
0001
0010
0100
0010
0001
1000
0001
0100
0001
1000
0010
0100
0001
1000
,
0001
0010
0100
1000
0001
1000
0010
0100
0010
1000
0001
1000
0100
0010
0001
1000
,
0001
0100
0010
0100
0001
1000
0010
0100
0001
1000
0001
0010
0100
1000
0001
1000
,
0100
0010
0001
1000
0001
0100
0001
1000
0010
0100
0001
1000
0010
0100
0001
1000
,
0001
0010
0100
0010
0001
1000
0100
0010
0001
1000
0001
0100
0001
1000
0010
0100
,
0010
1000
0001
0100
0010
1000
0001
1000
0100
0010
0100
1000
0001
0010
0001
1000
,
0001
0100
0010
0100
0001
1000
0001
0010
0001
1000
0100
0010
0100
1000
0001
1000
,
0010
0100
0010
1000
0001
1000
0100
0010
0001
0010
0100
1000
0001
1000
0010
0100
,
0001
1000
0010
0100
0010
1000
0001
1000
0100
1000
0001
0010
0100
1000
0001
1000
,
0010
0100
0001
1000
0001
0010
0100
0010
0001
1000
0001
0100
0010
1000
0001
1000
,
0100
0010
0100
1000
0001
0010
0100
1000
0001
1000
0010
0100
0001
1000
0001
0100
,
0010
1000
0001
1000
0100
1000
0001
0010
0100
1000
0001
0010
0100
1000
0001
1000
,
0010
0100
0010
1000
0001
0100
0010
1000
0001
1000
0100
1000
0001
0010
0100
0010
,
0001
1000
0100
0010
0001
1000
0001
0100
0010
0100
0001
1000
0010
0100
0001
1000
,
0001
0010
0100
0010
0001
1000
0001
0100
0001
1000
0010
0100
0010
1000
0001
1000
,
0100
0010
0100
1000
0001
1000
0010
0100
0001
0100
0010
1000
0001
1000
0100
0010
,
0001
1000
0100
0010
0100
1000
0001
1000
0010
1000
0001
0100
0010
1000
0001
1000
,
0100
0010
0001
1000
0001
0100
0010
0100
0001
1000
0001
0010
0100
1000
0001
1000
,
0010
0100
0010
1000
0001
0100
0010
1000
0001
1000
0100
0010
0001
1000
0001
0010
,
0100
1000
0001
1000
0010
1000
0001
0100
0010
1000
0001
0100
0010
1000
0001
1000
,
0100
0010
0100
1000
0001
0010
0100
1000
0001
1000
0010
1000
0001
0100
0010
0100
,
0001
1000
0010
0100
0001
1000
0001
0010
0100
0010
0001
1000
0100
0010
0100
1000
,
0001
1000
0010
0100
0001
1000
0001
0010
0100
1000
0001
0010
0100
1000
0001
0010
,
0001
1000
0001
0100
0010
0100
0001
1000
0100
1000
0001
0010
0100
1000
0001
0100
,
0002
0000
0000
0000
,
0203
0300
0000
0000
0000
0000
0000
0000
,
0001
1000
0010
1000
0001
0100
0010
1000
0001
1000
0100
0010
0001
1000
0100
1000
,
0001
0010
0100
1000
0001
1000
0010
1000
0001
0100
0010
0100
0001
1000
0010
0100
,
0010
1000
0001
1000
0100
0010
0001
1000
0100
1000
0001
1000
0010
0100
0001
1000
,
0010
1000
0001
1000
0100
0010
0001
1000
0100
0010
0100
1000
0001
1000
0010
0100
,
0010
1000
0001
1000
0010
0100
0001
1000
0010
1000
0001
0010
0001
1000
0100
0010
,
0001
1000
0100
1000
0001
0010
0001
1000
0001
0100
0010
1000
0010
0100
0001
1000
,
0001
0010
0100
0010
0001
1000
0100
1000
0001
0010
0100
1000
0001
1000
0010
0100
,
0001
1000
0010
1000
0001
0100
0010
0100
0001
1000
0010
1000
0001
0010
0001
1000
,
0100
0010
0001
1000
0100
0010
0001
1000
0001
0100
0010
1000
0001
0100
0001
1000
,
0010
0100
0001
1000
0001
0010
0001
1000
0100
0010
0100
1000
0001
0010
0100
0010
,
0001
1000
0001
0100
0010
1000
0001
0100
0001
1000
0001
0010
0100
1000
0001
0010
,
0001
1000
0001
0100
0010
1000
0001
0100
0010
0100
0001
1000
0001
0010
0100
0010
,
0001
1000
0001
0010
0100
1000
0001
0010
0001
1000
0010
1000
0001
0100
0010
1000
,
0001
0100
0001
1000
0010
1000
0001
1000
0100
0010
0001
0010
0100
1000
0001
1000
,
0010
0100
0010
1000
0001
0100
0001
1000
0010
0100
0001
1000
0001
0010
0100
1000
,
0001
0010
0001
1000
0100
0010
0100
1000
0001
0010
0001
1000
0010
0100
0001
1000
,
0001
0000
0000
0000
;

//---------------dance-single - Mad Matt----------------
#NOTES:
     dance-single:
     Mad Matt:
     Beginner:
     19:
     1.000,1.000,0.000,1.000,1.000,805.000,0.000,110.000,0.000,0.000:

0000
0000
0000
0000
,
0000
0000
0000
0000
,
0000
0000
0000
0000
,
0000
0000
0000
0000
,
0000
0000
0000
0000
,
0000
0000
0000
0000
,
0000
0000
0000
0000
,
0000
0000
0000
0000
0000
0000
0001
1000
,
0002
0003
0000
0000
0020
0030
0000
0000
0100
0000
0000
0000
2000
3000
0000
0000
0010
0000
0000
0000
2000
3000
0000
0000
0010
0000
0000
0000
0200
0300
0000
0000
,
0001
0000
0000
0000
0010
0000
0000
0000
0100
0000
0000
0000
1000
0000
0000
0000
0010
0000
0000
0000
1000
0000
0000
0000
0002
0003
0000
0000
0020
0030
0000
0000
,
0002
0003
0000
0000
0100
0000
0000
0000
0020
0030
0000
0000
0200
0300
0000
0000
0001
0000
0000
0000
0020
0030
0000
0000
0100
0000
0000
0000
2000
3000
0000
0000
,
0001
0000
0000
0000
0200
0300
0000
0000
0002
0003
0000
0000
1000
0000
0000
0000
0010
0000
0000
0000
0100
0000
0000
0000
0010
0000
0000
0000
1000
0000
0000
0000
,
0002
0003
0000
0000
0020
0030
0000
0000
0200
0300
0000
0000
0020
0030
0000
0000
0001
0000
0000
0000
1000
0000
0000
0000
0020
0030
0000
0000
0200
0300
0000
0000
,
0020
0030
0000
0000
2000
3000
0000
0000
0001
0000
0000
0000
0100
0000
0000
0000
0002
0003
0000
0000
2000
3000
0000
0000
0200
0300
0000
0000
0020
0030
0000
0000
,
0002
0003
0000
0000
1000
0000
0000
0000
0200
0300
0000
0000
2000
3000
0000
0000
0010
0000
0000
0000
0200
0300
0000
0000
0001
0000
0000
0000
2000
3000
0000
0000
,
0002
0003
0000
0000
0010
0000
0000
0000
0100
0000
0000
0000
1000
0000
0000
0000
0001
0000
0000
0000
0100
0000
0000
0000
0020
0030
0000
0000
0200
0300
0000
0000
,
0002
0003
0000
0000
1000
0000
0000
0000
0200
0300
0000
0000
0020
0030
0000
0000
0001
0000
0000
0000
2000
3000
0000
0000
0100
0000
0000
0000
2000
3000
0000
0000
,
0001
0000
0000
0000
0100
0000
0000
0000
0010
0000
0000
0000
0100
0000
0000
0000
0001
0000
0000
0000
1000
0000
0000
0000
0002
0003
0000
0000
0020
0030
0000
0000
,
0200
0300
0000
0000
2000
3000
0000
0000
0020
0030
0000
0000
0200
0300
0000
0000
0001
0000
0000
0000
0020
0030
0000
0000
0001
0000
0000
0000
2000
3000
0000
0000
,
0100
0000
0000
0000
2000
3000
0000
0000
0002
0003
0000
0000
0100
0000
0000
0000
0001
0000
0000
0000
0010
0000
0000
0000
0100
0000
0000
0000
1000
0000
0000
0000
,
0002
0003
0000
0000
0200
0300
0000
0000
0020
0030
0000
0000
0200
0300
0000
0000
0001
0000
0000
0000
1000
0000
0000
0000
0200
0300
0000
0000
0020
0030
0000
0000
,
0002
0003
0000
0000
2000
3000
0000
0000
0100
0000
0000
0000
1000
0000
0000
0000
0002
0003
0000
0000
0200
0300
0000
0000
0020
0030
0000
0000
0200
0300
0000
0000
,
0002
0003
0000
0000
0010
0000
0000
0000
0200
0300
0000
0000
2000
3000
0000
0000
0001
0000
0000
0000
0020
0030
0000
0000
0001
0000
0000
0000
2000
3000
0000
0000
,
0002
0003
0000
0000
0010
0000
0000
0000
0100
0000
0000
0000
1000
0000
0000
0000
0010
0000
0000
0000
0100
0000
0000
0000
0001
0000
0000
0000
0010
0000
0000
0000
,
0002
0003
0000
0000
1000
0000
0000
0000
0020
0030
0000
0000
1000
0000
0000
0000
0200
0300
0000
0000
2000
3000
0000
0000
0001
0000
0000
0000
0200
0300
0000
0000
,
0010
0000
0000
0000
0100
0000
0000
0000
0002
0003
0000
0000
0010
0000
0000
0000
0002
0003
0000
0000
1000
0000
0000
0000
0200
0300
0000
0000
0010
0000
0000
0000
,
0200
0300
0000
0000
1000
0000
0000
0000
0001
0000
0000
0000
0200
0300
0000
0000
0020
0030
0000
0000
0100
0000
0000
0000
0001
0000
0000
0000
1000
0000
0000
0000
,
0010
1000
0100
1000
0001
0010
0100
1000
,
0002
0003
0000
0000
0100
0000
0000
0000
0020
0030
0000
0000
0100
0000
0000
0000
0002
0003
0000
0000
2000
3000
0000
0000
0100
0000
0000
0000
0020
0030
0000
0000
,
0001
0000
0000
0000
0100
0000
0000
0000
0002
0003
0000
0000
1000
0000
0000
0000
0020
0030
0000
0000
0100
0000
0000
0000
0020
0030
0000
0000
1000
0000
0000
0000
,
0002
0003
0000
0000
0010
0000
0000
0000
0001
0000
0000
0000
1000
0000
0000
0000
0200
0300
0000
0000
0010
0000
0000
0000
0100
0000
0000
0000
1000
0000
0000
0000
,
0001
0010
0100
1000
0010
0100
0001
1000
,
0002
0003
0000
0000
0100
0000
0000
0000
0020
0030
0000
0000
1000
0000
0000
0000
0002
0003
0000
0000
0020
0030
0000
0000
0001
0000
0000
0000
2000
3000
0000
0000
,
0010
0000
0000
0000
1000
0000
0000
0000
0002
0003
0000
0000
0010
0000
0000
0000
0200
0300
0000
0000
1000
0000
0000
0000
0002
0003
0000
0000
0100
0000
0000
0000
,
0020
0030
0000
0000
1000
0000
0000
0000
0001
0000
0000
0000
0010
0000
0000
0000
0200
0300
0000
0000
0010
0000
0000
0000
0001
0000
0000
0000
1000
0000
0000
0000
,
0010
0100
0010
1000
0001
1000
0100
1000
,
0002
0003
0000
0000
0100
0000
0000
0000
0020
0030
0000
0000
1000
0000
0000
0000
0002
0003
0000
0000
0020
0030
0000
0000
0100
0000
0000
0000
0020
0030
0000
0000
,
0001
0000
0000
0000
0100
0000
0000
0000
0002
0003
0000
0000
1000
0000
0000
0000
0020
0030
0000
0000
1000
0000
0000
0000
0200
0300
0000
0000
1000
0000
0000
0000
,
0002
0003
0000
0000
0010
0000
0000
0000
0001
0000
0000
0000
1000
0000
0000
0000
0200
0300
0000
0000
0010
0000
0000
0000
0100
0000
0000
0000
1000
0000
0000
0000
,
0001
0010
0100
1000
0010
0100
0001
1000
,
0001
1000
0100
0010
0100
1000
0001
1000
0010
1000
0001
0100
0010
0100
0001
1000
,
0001
0010
0100
0010
0001
1000
0001
0100
0010
1000
0010
0100
0001
1000
0001
0010
,
0100
1000
0001
0010
0100
0010
0001
1000
0001
0100
0001
1000
0010
0100
0001
1000
,
0001
0010
0100
1000
0001
1000
0010
0100
0010
1000
0001
1000
0100
0010
0001
1000
,
0001
0100
0010
0100
0001
1000
0010
0100
0001
1000
0001
0010
0100
1000
0001
1000
,
0010
0100
0001
1000
0001
0010
0001
1000
0100
0010
0001
1000
0001
0100
0010
1000
,
0001
1000
0100
0010
0001
1000
0100
0010
0100
1000
0001
1000
0010
1000
0001
0100
,
0010
1000
0001
1000
0100
0010
0001
1000
0100
0010
0001
1000
0001
0100
0010
1000
,
0001
1000
0100
0010
0100
1000
0001
1000
0010
1000
0001
0100
0010
0100
0001
1000
,
0001
0010
0100
0010
0001
1000
0001
0100
0010
1000
0010
0100
0001
1000
0001
0010
,
0100
1000
0001
0010
0100
0010
0001
1000
0001
0100
0001
1000
0010
0100
0001
1000
,
0001
0010
0100
1000
0001
1000
0010
0100
0010
1000
0001
1000
0100
0010
0001
1000
,
0001
0100
0010
0100
0001
1000
0010
0100
0001
1000
0001
0010
0100
1000
0001
1000
,
0010
0100
0001
1000
0001
0010
0001
1000
0100
0010
0001
1000
0001
0100
0010
1000
,
0001
1000
0100
0010
0001
1000
0100
0010
0100
1000
0001
1000
0010
1000
0001
0100
,
0010
1000
0001
1000
0100
0010
0001
1000
0100
0010
0001
1000
0001
0100
0010
1000
,
0001
1000
0100
0010
0001
1000
0001
0100
0010
1000
0001
0100
0010
1000
0001
0100
,
0001
1000
0001
0010
0100
0010
0001
1000
0010
1000
0001
0100
0010
1000
0001
0010
,
0002
0000
0000
0000
,
0203
0300
0000
0000
0000
0000
0000
0000
,
0001
1000
0010
1000
0001
0100
0010
1000
0001
1000
0100
0010
0001
1000
0100
1000
,
0001
0010
0100
1000
0001
1000
0010
1000
0001
0100
0010
0100
0001
1000
0010
0100
,
0010
1000
0001
1000
0100
0010
0001
1000
0100
1000
0001
1000
0010
0100
0001
1000
,
0010
1000
0001
1000
0100
0010
0001
1000
0100
0010
0100
1000
0001
1000
0010
0100
,
0010
1000
0001
1000
0010
0100
0001
1000
0010
1000
0001
0010
0001
1000
0100
0010
,
0001
1000
0100
1000
0001
0010
0001
1000
0001
0100
0010
1000
0010
0100
0001
1000
,
0001
0010
0100
0010
0001
1000
0100
1000
0001
0010
0100
1000
0001
1000
0010
0100
,
0001
1000
0010
1000
0001
0100
0010
0100
0001
1000
0010
1000
0001
0010
0001
1000
,
0100
0010
0001
1000
0001
0100
0010
1000
0001
1000
0100
0010
0001
1000
0001
0100
,
0010
0100
0001
1000
0001
0010
0100
1000
0001
1000
0010
0100
0001
1000
0001
0010
,
0001
0100
0010
1000
0001
1000
0100
0010
0100
1000
0010
0100
0001
1000
0001
0010
,
0100
0010
0001
1000
0010
0100
0001
1000
0001
0010
0100
1000
0001
1000
0010
0100
,
0010
1000
0001
1000
0100
0010
0001
1000
0010
0100
0001
1000
0001
0010
0100
1000
,
0001
1000
0010
0100
0010
1000
0001
0010
0100
1000
0001
1000
0010
0100
0001
1000
,
0001
0010
0100
0010
0001
0100
0010
1000
0001
1000
0100
0010
0001
1000
0010
0100
,
0001
1000
0001
0010
0100
1000
0001
1000
0010
0100
0001
1000
0100
0010
0001
1000
,
0001
0000
0000
0000
;

//---------------dance-single - Mad Matt----------------
#NOTES:
     dance-single:
     Mad Matt:
     Easy:
     19:
     1.000,1.000,0.000,0.531,1.000,933.000,0.000,43.000,0.000,0.000:


0000
0000
0000
0000
,
0000
0000
0000
0000
,
0000
0000
0000
0000
,
0000
0000
0000
0000
,
0000
0000
0000
0000
,
0000
0000
0000
0000
,
0000
0000
0000
0000
,
0000
0000
0000
0000
0000
0000
0001
1000
,
0001
1000
0001
0100
0010
0100
0001
1000
0001
0010
0001
1000
0100
0010
0001
1000
,
0001
0010
0100
1000
0001
1000
0010
0100
0010
1000
0001
1000
0010
0100
0001
0100
,
0010
1000
0001
1000
0100
0010
0100
1000
0001
0010
0100
0010
0001
1000
0001
0100
,
0010
1000
0001
0100
0010
0100
0001
1000
0001
0010
0001
1000
0100
0010
0100
1000
,
0001
1000
0100
0010
0001
1000
0001
0100
0010
1000
0001
0100
0010
0100
0001
1000
,
0001
0100
0010
1000
0001
1000
0100
0010
0100
1000
0001
1000
0100
0010
0001
1000
,
0001
0100
0010
1000
0001
0100
0010
0100
0001
1000
0001
0010
0100
0010
0001
1000
,
0100
0010
0001
1000
0001
0100
0010
1000
0001
0100
0001
1000
0010
0100
0001
1000
,
0001
0010
0001
1000
0100
0010
0100
1000
0001
1000
0010
1000
0001
0100
0010
1000
,
0001
1000
0010
0100
0001
1000
0001
0010
0100
0010
0001
1000
0001
0010
0100
1000
,
0001
1000
0010
0100
0001
1000
0010
0100
0010
1000
0001
0100
0010
1000
0001
1000
,
0100
0010
0001
1000
0100
0010
0100
1000
0001
1000
0010
1000
0001
0100
0010
0100
,
0001
1000
0001
0100
0010
1000
0001
1000
0100
0010
0001
1000
0100
0010
0100
1000
,
0001
1000
0010
0100
0001
1000
0001
0100
0010
0100
0001
1000
0001
0010
0100
1000
,
0001
1000
0100
0010
0001
1000
0100
0010
0100
1000
0001
1000
0010
0100
0010
1000
,
0001
0100
0010
1000
0001
1000
0100
0010
0001
1000
0100
1000
0001
0010
0100
1000
,
0002
0003
0000
0000
1000
0000
0000
0000
0020
0030
0000
0000
1000
0000
0000
0000
0200
0300
0000
0000
2000
3000
0000
0000
0001
0000
0000
0000
0200
0300
0000
0000
,
0010
0000
0000
0000
0100
0000
0000
0000
0002
0003
0000
0000
0010
0000
0000
0000
0002
0003
0000
0000
1000
0000
0000
0000
0200
0300
0000
0000
0010
0000
0000
0000
,
0200
0300
0000
0000
1000
0000
0000
0000
0001
0000
0000
0000
0200
0300
0000
0000
0020
0030
0000
0000
0100
0000
0000
0000
0001
0000
0000
0000
1000
0000
0000
0000
,
0010
1000
0100
1000
0001
0010
0100
1000
,
0002
0003
0000
0000
0100
0000
0000
0000
0020
0030
0000
0000
0100
0000
0000
0000
0002
0003
0000
0000
2000
3000
0000
0000
0100
0000
0000
0000
0020
0030
0000
0000
,
0001
0000
0000
0000
0100
0000
0000
0000
0002
0003
0000
0000
1000
0000
0000
0000
0020
0030
0000
0000
0100
0000
0000
0000
0020
0030
0000
0000
1000
0000
0000
0000
,
0002
0003
0000
0000
0010
0000
0000
0000
0001
0000
0000
0000
1000
0000
0000
0000
0200
0300
0000
0000
0010
0000
0000
0000
0100
0000
0000
0000
1000
0000
0000
0000
,
0001
0010
0100
1000
0010
0100
0001
1000
,
0002
0003
0000
0000
0100
0000
0000
0000
0020
0030
0000
0000
1000
0000
0000
0000
0002
0003
0000
0000
0020
0030
0000
0000
0001
0000
0000
0000
2000
3000
0000
0000
,
0010
0000
0000
0000
1000
0000
0000
0000
0002
0003
0000
0000
0010
0000
0000
0000
0200
0300
0000
0000
1000
0000
0000
0000
0002
0003
0000
0000
0100
0000
0000
0000
,
0020
0030
0000
0000
1000
0000
0000
0000
0001
0000
0000
0000
0010
0000
0000
0000
0200
0300
0000
0000
0010
0000
0000
0000
0001
0000
0000
0000
1000
0000
0000
0000
,
0010
0100
0010
1000
0001
1000
0100
1000
,
0002
0003
0000
0000
0100
0000
0000
0000
0020
0030
0000
0000
1000
0000
0000
0000
0002
0003
0000
0000
0020
0030
0000
0000
0100
0000
0000
0000
0020
0030
0000
0000
,
0001
0000
0000
0000
0100
0000
0000
0000
0002
0003
0000
0000
1000
0000
0000
0000
0020
0030
0000
0000
1000
0000
0000
0000
0200
0300
0000
0000
1000
0000
0000
0000
,
0002
0003
0000
0000
0010
0000
0000
0000
0001
0000
0000
0000
1000
0000
0000
0000
0200
0300
0000
0000
0010
0000
0000
0000
0100
0000
0000
0000
1000
0000
0000
0000
,
0001
0010
0100
1000
0010
0100
0001
1000
,
0001
0100
0010
0100
0001
1000
0001
0010
0001
1000
0100
0010
0100
1000
0001
1000
,
0010
0100
0010
1000
0001
1000
0100
0010
0001
0010
0100
1000
0001
1000
0010
0100
,
0001
1000
0010
0100
0010
1000
0001
1000
0100
1000
0001
0010
0100
1000
0001
1000
,
0010
0100
0001
1000
0001
0010
0100
0010
0001
1000
0001
0100
0010
1000
0001
1000
,
0100
0010
0100
1000
0001
0010
0100
1000
0001
1000
0010
0100
0001
1000
0001
0100
,
0010
1000
0001
1000
0100
1000
0001
0010
0100
1000
0001
0010
0100
1000
0001
1000
,
0010
0100
0010
1000
0001
0100
0010
1000
0001
1000
0100
1000
0001
0010
0100
0010
,
0001
1000
0100
0010
0001
1000
0001
0100
0010
0100
0001
1000
0010
0100
0001
1000
,
0001
0010
0100
0010
0001
1000
0001
0100
0001
1000
0010
0100
0010
1000
0001
1000
,
0100
0010
0100
1000
0001
1000
0010
0100
0001
0100
0010
1000
0001
1000
0100
0010
,
0001
1000
0100
0010
0100
1000
0001
1000
0010
1000
0001
0100
0010
1000
0001
1000
,
0100
0010
0001
1000
0001
0100
0010
0100
0001
1000
0001
0010
0100
1000
0001
1000
,
0010
0100
0010
1000
0001
0100
0010
1000
0001
1000
0100
0010
0001
1000
0001
0010
,
0100
1000
0001
1000
0010
1000
0001
0100
0010
1000
0001
0100
0010
1000
0001
1000
,
0100
0010
0100
1000
0001
0010
0100
1000
0001
1000
0010
1000
0001
0100
0010
0100
,
0001
1000
0010
0100
0001
1000
0001
0010
0100
0010
0001
1000
0100
0010
0100
1000
,
0001
1000
0010
0100
0001
1000
0001
0010
0100
1000
0001
0010
0100
1000
0001
0010
,
0001
1000
0001
0100
0010
0100
0001
1000
0100
1000
0001
0010
0100
1000
0001
0100
,
0002
0000
0000
0000
,
0203
0300
0000
0000
0000
0000
0000
0000
,
0001
1000
0010
1000
0001
0100
0010
1000
0001
1000
0100
0010
0001
1000
0100
1000
,
0001
0010
0100
1000
0001
1000
0010
1000
0001
0100
0010
0100
0001
1000
0010
0100
,
0010
1000
0001
1000
0100
0010
0001
1000
0100
1000
0001
1000
0010
0100
0001
1000
,
0010
1000
0001
1000
0100
0010
0001
1000
0100
0010
0100
1000
0001
1000
0010
0100
,
0010
1000
0001
1000
0010
0100
0001
1000
0010
1000
0001
0010
0001
1000
0100
0010
,
0001
1000
0100
1000
0001
0010
0001
1000
0001
0100
0010
1000
0010
0100
0001
1000
,
0001
0010
0100
0010
0001
1000
0100
1000
0001
0010
0100
1000
0001
1000
0010
0100
,
0001
1000
0010
1000
0001
0100
0010
0100
0001
1000
0010
1000
0001
0010
0001
1000
,
0100
0010
0001
1000
0001
0100
0010
1000
0001
1000
0100
0010
0100
1000
0001
1000
,
0010
0100
0001
1000
0001
0010
0100
0010
0001
1000
0001
0100
0010
1000
0001
1000
,
0100
0010
0001
1000
0001
0100
0010
0100
0001
1000
0001
0010
0100
1000
0001
1000
,
0010
0100
0001
1000
0001
0010
0100
0010
0001
1000
0001
0100
0010
1000
0001
1000
,
0100
0010
0001
1000
0100
0010
0001
1000
0001
0100
0010
1000
0001
1000
0100
0010
,
0001
1000
0001
0100
0010
1000
0001
0100
0010
1000
0001
1000
0100
0010
0001
1000
,
0001
0100
0010
0100
0001
1000
0001
0010
0100
1000
0001
1000
0010
0100
0001
1000
,
0001
0010
0100
0010
0001
1000
0001
0100
0010
1000
0001
1000
0100
0010
0001
1000
,
0001
0000
0000
0000
;

//---------------dance-single - Mad Matt----------------
#NOTES:
     dance-single:
     Mad Matt:
     Medium:
     20:
     1.000,1.000,0.000,0.531,1.000,933.000,0.000,43.000,0.000,0.000:



0000
0000
0000
0000
,
0000
0000
0000
0000
,
0000
0000
0000
0000
,
0000
0000
0000
0000
,
0000
0000
0000
0000
,
0000
0000
0000
0000
,
0000
0000
0000
0000
,
0000
0000
0000
0000
0000
0000
0001
1000
,
0001
0010
0100
1000
0001
0100
0001
0010
0001
1000
0100
0010
0100
1000
0010
1000
,
0001
0010
0001
0100
0010
1000
0001
1000
0100
0010
0100
1000
0010
1000
0001
0100
,
0001
0010
0001
0010
0100
1000
0010
1000
0001
0100
0001
0010
0100
1000
0001
0010
,
0001
0010
0100
1000
0010
1000
0100
1000
0001
0010
0100
1000
0001
1000
0010
0100
,
0001
0010
0001
1000
0010
0100
0010
1000
0100
1000
0001
0100
0001
0010
0100
0010
,
0001
1000
0010
1000
0100
1000
0001
0010
0001
0100
0010
0100
0001
1000
0010
0100
,
0010
1000
0100
1000
0001
0010
0001
0100
0001
1000
0010
0100
0010
1000
0100
1000
,
0001
0010
0100
1000
0001
0010
0100
1000
0001
0100
0001
0010
0100
0010
0001
1000
,
0001
0100
0010
1000
0001
0010
0001
0100
0001
1000
0010
0100
0010
1000
0100
1000
,
0001
0100
0001
0010
0100
1000
0001
1000
0010
0100
0010
1000
0100
1000
0001
0010
,
0001
0100
0001
1000
0010
0100
0001
0010
0100
1000
0001
0100
0010
1000
0001
0100
,
0001
0100
0010
1000
0100
1000
0010
1000
0001
0100
0010
1000
0001
1000
0100
0010
,
0001
0100
0001
1000
0100
0010
0100
1000
0010
1000
0001
0010
0001
0100
0010
0100
,
0001
1000
0100
1000
0010
1000
0001
0100
0001
0010
0100
0010
0001
1000
0100
0010
,
0100
1000
0010
1000
0001
0100
0001
0010
0001
1000
0100
0010
0100
1000
0010
1000
,
0001
0100
0010
1000
0001
0100
0010
1000
0001
0010
0001
0100
0010
1000
0100
0010
,
0002
0003
0000
0000
1000
0000
0000
0000
0020
0030
0000
0000
1000
0000
0000
0000
0200
0300
0000
0000
2000
3000
0000
0000
0001
0000
0000
0000
0200
0300
0000
0000
,
0010
0000
0000
0000
0100
0000
0000
0000
0002
0003
0000
0000
0010
0000
0000
0000
0002
0003
0000
0000
1000
0000
0000
0000
0200
0300
0000
0000
0010
0000
0000
0000
,
0200
0300
0000
0000
1000
0000
0000
0000
0001
0000
0000
0000
0200
0300
0000
0000
0020
0030
0000
0000
0100
0000
0000
0000
0001
0000
0000
0000
1000
0000
0000
0000
,
0010
1000
0100
1000
0001
0010
0100
1000
,
0002
0003
0000
0000
0100
0000
0000
0000
0020
0030
0000
0000
0100
0000
0000
0000
0002
0003
0000
0000
2000
3000
0000
0000
0100
0000
0000
0000
0020
0030
0000
0000
,
0001
0000
0000
0000
0100
0000
0000
0000
0002
0003
0000
0000
1000
0000
0000
0000
0020
0030
0000
0000
0100
0000
0000
0000
0020
0030
0000
0000
1000
0000
0000
0000
,
0002
0003
0000
0000
0010
0000
0000
0000
0001
0000
0000
0000
1000
0000
0000
0000
0200
0300
0000
0000
0010
0000
0000
0000
0100
0000
0000
0000
1000
0000
0000
0000
,
0001
0010
0100
1000
0010
0100
0001
1000
,
0002
0003
0000
0000
0100
0000
0000
0000
0020
0030
0000
0000
1000
0000
0000
0000
0002
0003
0000
0000
0020
0030
0000
0000
0001
0000
0000
0000
2000
3000
0000
0000
,
0010
0000
0000
0000
1000
0000
0000
0000
0002
0003
0000
0000
0010
0000
0000
0000
0200
0300
0000
0000
1000
0000
0000
0000
0002
0003
0000
0000
0100
0000
0000
0000
,
0020
0030
0000
0000
1000
0000
0000
0000
0001
0000
0000
0000
0010
0000
0000
0000
0200
0300
0000
0000
0010
0000
0000
0000
0001
0000
0000
0000
1000
0000
0000
0000
,
0010
0100
0010
1000
0001
1000
0100
1000
,
0002
0003
0000
0000
0100
0000
0000
0000
0020
0030
0000
0000
1000
0000
0000
0000
0002
0003
0000
0000
0020
0030
0000
0000
0100
0000
0000
0000
0020
0030
0000
0000
,
0001
0000
0000
0000
0100
0000
0000
0000
0002
0003
0000
0000
1000
0000
0000
0000
0020
0030
0000
0000
1000
0000
0000
0000
0200
0300
0000
0000
1000
0000
0000
0000
,
0002
0003
0000
0000
0010
0000
0000
0000
0001
0000
0000
0000
1000
0000
0000
0000
0200
0300
0000
0000
0010
0000
0000
0000
0100
0000
0000
0000
1000
0000
0000
0000
,
0001
0010
0100
1000
0010
0100
0001
1000
,
0001
1000
0010
0100
0010
1000
0100
0010
0001
1000
0100
1000
0010
1000
0001
0100
,
0010
1000
0100
0010
0001
1000
0010
0100
0001
1000
0100
0010
0100
1000
0001
0100
,
0010
1000
0001
0100
0010
0100
0001
0010
0100
1000
0001
0010
0001
0100
0001
1000
,
0010
0100
0001
0010
0100
1000
0001
0100
0010
1000
0001
0010
0100
0010
0001
1000
,
0001
0100
0010
0100
0001
0010
0001
1000
0010
1000
0100
1000
0001
0010
0100
1000
,
0010
1000
0001
0100
0001
0010
0100
0010
0001
1000
0010
1000
0100
0010
0001
1000
,
0010
0100
0001
1000
0001
0010
0100
1000
0010
1000
0001
0100
0010
0100
0001
1000
,
0100
0010
0001
1000
0100
0010
0001
1000
0010
0100
0001
0010
0100
1000
0001
0100
,
0010
1000
0001
0100
0010
0100
0001
0010
0100
1000
0001
0010
0001
0100
0001
1000
,
0010
0100
0001
0010
0100
1000
0001
0100
0010
1000
0001
0010
0100
0010
0001
1000
,
0010
0100
0001
1000
0010
0100
0010
1000
0100
0010
0001
1000
0100
1000
0010
1000
,
0001
0100
0010
1000
0100
0010
0001
1000
0010
0100
0001
1000
0100
0010
0100
1000
,
0001
1000
0010
0100
0010
1000
0100
1000
0001
0100
0001
0010
0001
1000
0100
0010
,
0001
0100
0001
1000
0010
1000
0100
0010
0100
1000
0001
0100
0001
0010
0100
1000
,
0001
0100
0010
1000
0001
1000
0100
0010
0001
0100
0001
1000
0010
0100
0010
1000
,
0001
0010
0100
1000
0001
0010
0100
1000
0001
0100
0010
1000
0100
0010
0001
1000
,
0010
0100
0001
0010
0100
1000
0001
0010
0001
0100
0001
1000
0010
0100
0010
1000
,
0001
0010
0001
0010
0100
1000
0001
0100
0010
1000
0010
1000
0001
0010
0100
1000
,
0002
0000
0000
0000
,
0203
0300
0000
0000
0000
0000
0000
0000
,
0001
0010
0100
1000
0001
1000
0010
0100
0001
0010
0001
1000
0010
0100
0010
1000
,
0001
0010
0100
1000
0001
0100
0001
1000
0001
0010
0100
0010
0001
1000
0010
0100
,
0010
1000
0001
1000
0100
0010
0001
0100
0001
1000
0100
0010
0100
1000
0010
1000
,
0001
0100
0001
1000
0010
1000
0001
0010
0100
1000
0001
0100
0010
0100
0001
0010
,
0100
1000
0001
0100
0001
0010
0100
1000
0001
1000
0010
0100
0010
1000
0001
0010
,
0100
1000
0001
0100
0010
0100
0001
0010
0100
1000
0001
1000
0010
0100
0010
1000
,
0100
1000
0001
0100
0010
0100
0001
0010
0001
1000
0010
1000
0100
0010
0100
1000
,
0001
0100
0010
1000
0001
1000
0100
0010
0001
1000
0010
0100
0001
0010
0100
1000
,
0001
0100
0010
1000
0001
1000
0100
0010
0001
1000
0001
0100
0010
1000
0001
1000
,
0100
0010
0100
1000
0001
1000
0010
0100
0001
1000
0001
0010
0100
1000
0010
0100
,
0001
1000
0001
0010
0100
1000
0010
0100
0001
1000
0100
0010
0100
1000
0010
0100
,
0001
1000
0100
0010
0100
1000
0010
0100
0001
1000
0001
0010
0100
1000
0001
1000
,
0010
0100
0001
1000
0001
0010
0100
1000
0010
0100
0001
1000
0100
1000
0010
0100
,
0001
1000
0100
0010
0100
1000
0010
0100
0001
1000
0100
1000
0010
0100
0001
1000
,
0001
0010
0100
1000
0001
0100
0010
1000
0001
1000
0100
0010
0001
1000
0010
0100
,
0001
1000
0001
0010
0100
1000
0001
1000
0010
0100
0001
1000
0001
0010
0100
1000
,
0001
0000
0000
0000
;
