#TITLE:Forever;
#SUBTITLE:;
#ARTIST:Kamelot;
#TITLETRANSLIT:;
#SUBTITLETRANSLIT:;
#ARTISTTRANSLIT:;
#CREDIT:DukAmok;
#BANNER:Forever.png;
#BACKGROUND:Forever-bg.png;
#LYRICSPATH:;
#CDTITLE:!duktitle.png;
#MUSIC:Forever.mp3;
#OFFSET:1.280;
#SAMPLESTART:37.500;
#SAMPLELENGTH:10.000;
#SELECTABLE:YES;
#BPMS:0.000=170.000;
#STOPS:;
#BGCHANGES:;
// cache tags:
#FIRSTBEAT:4.000;
#LASTBEAT:695.500;
#SONGFILENAME:Songs/IzzySM Keyboard Mega Pack/Forever/Forever.sm;
#HASMUSIC:1;
#HASBANNER:1;
#MUSICLENGTH:247.954;
// end cache tags

//---------------dance-single - Heavy----------------
#NOTES:
     dance-single:
     Heavy:
     Hard:
     11:
     1.000,1.000,1.000,0.157,1.000,1701.000,299.000,39.000,0.000,0.000:
0000
0000
0000
0000
,
2200
0000
0000
3300
0110
0000
0011
0000
,
0202
0000
0000
0303
0110
0000
1010
0000
,
1100
0110
0110
1001
,
2020
0000
0000
3030
0110
0000
1010
0000
,
0101
0011
1100
1010
,
0220
0000
0000
0000
0000
0330
1001
1010
,
0202
0000
0000
0000
0000
0300
0103
0000
,
0202
0000
0000
0303
1001
0000
1010
0000
,
0022
0000
0000
0033
1001
0000
1100
0000
,
0101
1001
1001
0110
,
2200
0000
0000
3300
1001
0000
1100
0000
,
0011
1010
0101
1100
,
1002
1000
2000
0000
3003
0000
1000
0001
,
0010
0000
0001
0100
0010
0000
0000
0000
1000
0000
0100
0000
0010
0000
0100
0000
,
0010
0000
0000
0001
0000
0000
0010
0000
0000
0001
0000
0000
0100
0000
0000
0000
0000
0000
0010
0000
1000
0000
0100
0000
0010
0000
0000
0000
0000
0000
0002
0000
0000
0000
0000
0000
0000
0000
0000
0000
0000
0000
0003
0000
0000
0000
0000
0000
,
0010
0001
1000
0010
0100
0010
2000
0000
0000
0000
3000
0000
0110
0000
0010
0001
,
1000
0001
1000
0001
1000
0001
1000
0001
0100
0001
0100
0001
0100
0010
0100
0010
,
1000
0010
1000
0010
1000
0010
1000
0010
1000
0100
1000
0100
0010
0100
0010
0100
,
0010
0001
0010
0001
0100
0001
0100
0001
0100
0010
0100
0010
1000
0010
1000
0010
,
0100
0001
0100
0001
0100
0001
0100
0001
1000
0001
1000
0001
1000
0100
1000
0100
,
0020
0000
0001
0000
0001
0000
0100
0030
,
1000
0010
0100
0010
1000
0100
0010
0001
0010
0001
0100
0010
,
0100
0001
0010
0100
1000
0010
0100
0010
1000
0001
0010
0001
,
1000
0100
1000
0010
0100
0001
0100
0010
1000
0100
0010
0001
,
0010
0000
0100
0000
1000
0000
0010
0000
1000
0000
0100
0000
0010
0000
0001
0000
0100
0000
0020
0000
0000
0030
0000
0000
,
1000
0001
1000
0001
0010
0001
1000
0001
1000
0001
0100
0001
1000
0001
1000
0001
,
0100
0010
0100
0010
0100
0010
1000
0010
0100
0010
0100
0010
1000
0000
1001
0000
,
0001
1000
0001
1000
0100
1000
0001
1000
0001
1000
0010
1000
0001
1000
0001
1000
,
0010
0100
0010
0100
0010
0100
0001
0100
0010
0100
0010
0100
0001
0000
1001
0000
,
0101
0000
0100
0001
0100
0000
0001
0100
0001
0000
0100
0001
0100
0000
0001
0100
,
0001
0000
1000
0100
1000
0000
0001
0010
0001
0000
1000
0010
0100
0000
0010
0100
,
0010
0000
1000
0001
0010
0000
0001
0010
0100
0000
0010
0100
0010
0000
0100
0010
,
0001
0000
1000
0010
0100
0000
0010
1000
0001
0000
0100
0001
0100
0000
0010
1000
,
0010
0000
1000
0100
1000
0000
0100
0010
0100
0000
0010
0001
0100
0000
0001
1000
,
0010
0000
0100
0001
0010
0000
0100
0010
0001
0000
1000
0010
0100
0000
0010
0100
,
0001
0000
0010
0100
1000
0000
0100
0010
0100
0000
0010
0001
0100
0000
0010
0100
,
0001
0000
1000
0001
1000
0000
0010
0100
0001
0000
0100
0010
0100
0000
0000
0000
,
0010
1000
0010
1000
0001
0000
0010
0000
0110
0000
0110
0000
0000
0000
0000
0000
,
1000
0100
1000
0100
0010
0000
0001
0000
0101
0000
0101
0000
0000
0000
0000
0000
,
0001
1000
0001
1000
0100
0000
1000
0000
1010
0000
1010
0000
0000
0000
0000
0000
,
1000
0001
0010
0001
0100
0000
0010
0000
0110
0000
0110
0000
0000
0000
0000
0000
,
0100
0001
0100
0001
1000
0000
0100
0000
0110
0000
0110
0000
0000
0000
0000
0000
,
0001
0010
0001
0010
0100
0000
1000
0000
1010
0000
1010
0000
0000
0000
0000
0000
,
1000
0001
1000
0001
0010
0000
0001
0000
0101
0000
0101
0000
0000
0000
0000
0000
,
0001
1000
0100
1000
0010
0000
0100
0000
0110
0000
0110
0000
1001
0000
0011
0000
,
0101
0000
0100
0000
0110
0000
0010
0000
1010
0000
1000
0010
1000
0000
0010
0000
,
0110
0000
0100
0000
0101
0000
0001
0000
0011
0000
0010
0100
1000
0000
0010
0100
,
1010
0000
0010
0000
0110
0000
0100
0000
0101
0000
0001
0100
0001
0000
0100
0000
,
0110
0000
0010
0000
1010
0000
1000
0000
1100
0000
0100
0010
0001
0100
0010
1000
,
0100
0000
1000
0000
1010
0000
0010
0000
0110
0000
0100
0001
0010
0000
0010
0000
,
0110
0000
0100
0000
1100
0000
1000
0000
1010
0000
1000
0001
0010
0000
0010
0001
,
0100
0000
0010
0000
1010
0000
1000
0000
1100
0000
0100
1000
0100
0000
1000
0000
,
1010
0000
0010
0000
0011
0000
0001
0000
1001
0000
1000
0010
0100
0001
0010
0001
,
0110
0000
1000
0001
0010
0000
0100
0000
1010
0000
0100
0000
0011
0000
0100
0000
,
1010
0000
0100
0001
0010
0000
0001
0000
1100
0000
0010
0000
0101
0000
0010
0000
,
1100
0010
0101
0010
1100
0010
1001
0100
,
1010
0000
0001
0010
0100
0000
0010
0000
1010
0000
0001
0000
0110
0000
1000
0000
,
0101
0010
1001
0010
1100
0001
0110
1000
,
0101
0000
0001
0100
0001
0000
0100
0010
1000
0000
0100
0010
0100
0010
0001
0100
,
0010
0000
0100
0001
0010
0000
0100
1000
0001
0000
1000
0001
1000
0010
0100
0010
,
0101
0000
0001
1000
0100
0000
0010
0000
0101
0000
0010
0000
1100
0000
0010
0000
,
0101
0000
0010
1000
0100
0000
1000
0000
0011
0000
0100
0000
1010
0000
0100
0000
,
0011
0100
1010
0100
0011
0100
1001
0010
,
0101
0000
1000
0100
0010
0000
0100
0000
0101
0000
1000
0000
0110
0000
0001
0000
,
1010
0100
1001
0100
0011
1000
0110
0001
,
1010
0000
1000
0010
1000
0000
0010
0100
0001
0000
0010
0100
0010
0100
1000
0010
,
0100
0000
0010
1000
0100
0000
0010
0001
1000
0000
0001
1000
0001
0100
0010
0100
,
0001
1000
0100
0010
0100
0000
0010
0001
1000
0010
0100
0001
0010
0000
0100
0010
,
0001
1000
0010
0100
0001
0000
1000
0001
0010
0100
0010
0001
1000
0010
0100
0001
,
0100
0001
0100
0001
1000
0000
0100
0000
0110
0000
0110
0000
0000
0000
0000
0000
,
0001
0010
0001
0010
0100
0000
1000
0000
1010
0000
1010
0000
0000
0000
0000
0000
,
1000
0001
1000
0001
0010
0000
0001
0000
0101
0000
0101
0000
0000
0000
0000
0000
,
0001
1000
0100
1000
0010
0000
0100
0000
0110
0000
0110
0000
0000
0000
0000
0000
,
0010
1000
0010
1000
0001
0000
0010
0000
0110
0000
0110
0000
0000
0000
0000
0000
,
1000
0100
1000
0100
0010
0000
0001
0000
0101
0000
0101
0000
0000
0000
0000
0000
,
0001
1000
0001
1000
0100
0000
1000
0000
1010
0000
1010
0000
0000
0000
0000
0000
,
1000
0001
0010
0001
0100
0000
0010
0000
0110
0000
0110
0000
1001
0000
0000
0000
,
0001
1000
0001
1000
0001
1000
0001
1000
0001
0100
0001
0100
0001
0100
0001
0100
,
0010
0100
0010
0100
0010
0100
0010
0100
0010
1000
0010
1000
0100
0010
0100
0010
,
0001
0010
0001
0010
0001
0010
0001
0010
0100
0010
0100
0010
0100
0010
0100
0010
,
0100
1000
0100
1000
0100
1000
0100
1000
0001
1000
0001
1000
0010
0100
0010
0100
,
0001
0100
0001
0100
0001
0100
0001
0100
0001
0010
0001
0010
0001
0010
0001
0010
,
0100
0010
0100
0010
0100
0010
0100
0010
0100
1000
0100
1000
0001
0010
0001
0010
,
0001
0100
0001
0100
0001
0100
0001
0100
0010
0100
0010
0100
0010
0100
0010
0100
,
0010
0000
1100
0000
0000
0000
0110
0000
1001
0000
0000
0000
0011
1000
0010
0100
,
1010
0000
0010
0000
0110
0000
0100
0000
0101
0000
0001
0100
0001
0000
0100
0000
,
0110
0000
0010
0000
1010
0000
1000
0000
1100
0000
0100
0010
0001
0000
0100
0010
,
0101
0000
0100
0000
0110
0000
0010
0000
1010
0000
1000
0010
1000
0000
0010
0000
,
0110
0000
0100
0000
0101
0000
0001
0000
0011
0000
0010
0100
1000
0010
0100
0001
,
0010
0000
0001
0000
0101
0000
0100
0000
0110
0000
0010
1000
0100
0000
0100
0000
,
0110
0000
0010
0000
0011
0000
0001
0000
0101
0000
0001
1000
0100
0000
0100
1000
,
0202
0000
0300
2000
0000
0003
0020
3030
,
0110
0000
0000
0101
0000
0000
0110
0000
,
1010
0000
0001
1000
0100
0000
0010
0000
0101
0000
0010
0000
1100
0000
0010
0000
,
0101
0000
0010
1000
0100
0000
1000
0000
0011
0000
0100
0000
1010
0000
0100
0000
,
0011
0100
1010
0100
0011
0100
1001
0010
,
0101
0000
1000
0100
0010
0000
0100
0000
0101
0000
1000
0000
0110
0000
0001
0000
,
1010
0100
1001
0100
0011
1000
0110
0001
,
1010
0000
1000
0010
1000
0000
0010
0100
0001
0000
0010
0100
0010
0100
1000
0010
,
0100
0000
0010
1000
0100
0000
0010
0001
1000
0000
0001
1000
0001
0100
0010
0100
,
0001
0010
0100
1000
0100
0010
0100
1000
0010
0100
0001
0010
0100
1000
0100
0010
,
0001
1000
0010
0100
0010
1000
0100
0010
0100
0010
0001
0100
0001
0100
0010
1000
,
0100
0010
0100
1000
0010
0100
0001
0100
0001
0010
0100
1000
0100
1000
0010
0100
,
0010
1000
0100
0010
0001
0100
0001
0010
0100
1000
0001
0100
0001
0010
0100
1000
,
0010
0100
0001
0100
0001
0010
0100
1000
0100
0010
0100
1000
0010
0100
0001
0010
,
0100
1100
0000
0100
0110
0000
0011
0000
,
0101
0011
0110
1100
1010
0110
0101
0011
,
0110
1001
0000
0101
0011
0000
1010
0000
,
1000
0001
1000
0001
0100
0001
1000
0001
1000
0001
1000
0001
0010
0001
1000
0001
,
2000
0001
0000
0001
,
3000
0000
1001
0000
0000
0000
1001
0100
,
0110
0011
0000
1010
,
0000
0000
0101
0000
0110
0000
1100
0100
,
0110
0001
0101
0000
0100
0000
1010
0000
,
1000
0000
0101
0000
1000
0000
0011
0110
,
0001
0101
0100
0011
,
1000
0000
0110
0000
0110
0100
0101
0001
,
0011
0000
0110
0000
0000
0001
0101
0000
,
1000
0000
1010
0000
0000
0100
0101
0001
,
1000
0000
0011
0000
0000
0100
1010
0000
,
0001
0000
0101
0000
0001
0000
1001
0100
,
0010
0000
1100
0000
0000
0001
1010
0000
,
0100
0001
0010
0100
0010
0100
1000
0010
0100
0001
0010
0100
,
0010
0000
0101
0000
0000
0100
1100
0000
,
0100
0010
0100
0010
0011
0011
0101
0101
,
0010
1000
0010
1000
0001
0100
0001
0100
0001
0100
0010
0100
0010
0100
0010
0100
,
0001
0010
0001
0010
0001
0010
0100
1000
0100
1000
0100
1000
0010
0100
0010
0100
,
0001
0100
0001
0100
0001
0010
0001
0010
0001
1000
0010
1000
0010
1000
0010
1000
,
0001
0100
0001
0100
0001
0010
0100
0010
0100
0010
0100
0010
0001
1000
0001
1000
,
0010
1000
0010
1000
0100
0010
0100
0010
0100
0010
0001
0010
0001
0010
0001
0010
,
0100
1000
0100
1000
0100
1000
0010
0100
0010
0100
0010
0100
0001
0010
0001
0010
,
0100
0010
0100
0010
0001
0100
0001
0100
0001
0100
0010
1000
0010
1000
0010
1000
,
0100
1000
0100
1000
0100
1000
0001
0010
0001
0010
0001
0010
0001
0000
1001
0000
,
2100
0000
0000
3020
0000
0000
0130
0001
,
0010
0100
1000
0002
0000
0000
0003
0000
,
0010
0000
0000
0100
0000
0000
0010
0000
0000
0001
0010
0100
1000
0000
0000
0001
0000
0000
0100
0000
0000
0010
0000
0000
,
0200
0000
0000
0000
0000
0000
0000
0000
0000
0000
0000
0000
0000
0000
0000
0000
0000
0000
0300
0000
0000
0001
0000
0000
0100
0000
0000
0001
0000
0000
0100
0000
0000
0001
0000
0000
1000
0000
0001
0000
1000
0000
0001
0000
1000
0000
0001
0000
,
0010
0000
0000
0100
0000
0000
1000
0000
0001
0000
0100
0000
0010
0000
0000
1000
0000
0000
0002
0000
0000
0000
0000
0000
0000
0000
0000
0000
0000
0000
0013
0000
0000
0100
0000
0000
0020
0000
0000
0000
0000
0000
0000
0000
0000
0030
0000
0000
,
0001
0000
0010
0000
0100
0000
0020
0000
0000
0000
0000
0000
0030
0000
0000
0000
0000
0000
0001
0000
0000
0000
0000
0000
2000
0000
0000
0000
0000
0000
0000
0000
0000
0000
0000
0000
3000
0000
0000
0000
0000
0000
0010
0000
0000
0100
0000
0000
,
0001
0101
1001
0011
0110
1100
0110
0011
,
0001
1000
0001
1000
0100
1000
0001
1000
0001
1000
0010
1000
0001
1000
0001
1000
,
0010
0100
0010
0100
0010
0100
0001
0100
0010
0100
0010
0100
0001
0000
1001
0000
,
1000
0001
1000
0001
0010
0001
1000
0001
1000
0001
0100
0001
1000
0001
1000
0001
,
0100
0010
0100
0010
0100
0010
1000
0010
0100
0010
0100
0010
1000
0000
1001
0000
,
1010
0000
0010
1000
0010
0000
1000
0010
1000
0000
0010
1000
0010
0000
1000
0010
,
1000
0000
0001
0010
0001
0000
1000
0100
1000
0000
0001
0100
0010
0000
0100
0010
,
0100
0000
0001
1000
0100
0000
1000
0100
0010
0000
0100
0010
0100
0000
0010
0100
,
1000
0000
0001
0100
0010
0000
0100
0001
1000
0000
1000
0001
0100
0010
0100
0001
,
0100
0000
0001
0010
0001
0000
0010
0100
0010
0000
0100
1000
0010
0000
1000
0001
,
0100
0000
0010
1000
0100
0000
0010
0100
1000
0000
0001
0100
0010
0000
0100
0010
,
2000
0000
0000
0200
3000
0000
0020
0300
,
0002
0000
0030
0000
0000
0000
0000
0000
0003
0000
0010
0100
1000
0100
0010
0001
,
0110
0000
0001
1000
0100
0000
0010
0000
0101
0000
0010
0000
1100
0000
0010
0000
,
0101
0000
0010
1000
0100
0000
1000
0000
0011
0000
0100
0000
1010
0000
0100
0000
,
0011
0100
1010
0100
0011
0100
1001
0010
,
0101
0000
1000
0100
0010
0000
0100
0000
0101
0000
1000
0000
0110
0000
0001
0000
,
1010
0100
1001
0100
0011
1000
0110
0001
,
1010
0000
1000
0010
1000
0000
0010
0100
0001
0000
0010
0100
0010
0100
1000
0010
,
0100
0000
0010
1000
0100
0000
0010
0001
1000
0000
0001
1000
0001
0100
0010
0100
,
1010
0000
1000
0001
0010
0000
0100
0000
1010
0000
0100
0000
0011
0000
0100
0000
,
1010
0000
0100
0001
0010
0000
0001
0000
1100
0000
0010
0000
0101
0000
0010
0000
,
1100
0010
0101
0010
1100
0010
1001
0100
,
1010
0000
0001
0010
0100
0000
0010
0000
1010
0000
0001
0000
0110
0000
1000
0000
,
0101
0010
1001
0010
1100
0001
0110
1000
,
1001
0000
0010
0100
1000
0000
0001
0000
1010
0000
0001
0000
1100
0000
0001
0000
,
1010
0000
0001
0100
1000
0000
0100
0000
0011
0000
1000
0000
0101
0000
1000
0000
,
0011
0010
0101
1000
0011
1000
0110
0001
,
1010
0000
0100
1000
0001
0000
1000
0000
1010
0000
0100
0000
1001
0000
0010
0000
,
0101
0011
0000
0110
1001
0000
1001
0110
,
0001
0100
0001
0100
0010
0100
0010
0100
0010
0100
0001
0100
0001
0100
0001
0100
,
0001
1000
0001
1000
0001
1000
0010
1000
0010
1000
0010
1000
0001
0000
1001
0000
,
1000
0010
1000
0010
0100
0010
0100
0010
0100
0010
1000
0010
1000
0010
1000
0010
,
1000
0001
1000
0001
1000
0001
0100
0001
0100
0001
0100
0001
1000
0000
1001
0000
;
