#TITLE:Severe Emotional Distress;
#SUBTITLE:Rice;
#ARTIST:Into Eternity;
#TITLETRANSLIT:;
#SUBTITLETRANSLIT:;
#ARTISTTRANSLIT:;
#CREDIT:;
#BANNER:../fallback-bn.png;
#BACKGROUND:../fallback-bg.png;
#LYRICSPATH:;
#CDTITLE:;
#MUSIC:Distress.ogg;
#OFFSET:0.015;
#SAMPLESTART:0.217;
#SAMPLELENGTH:12.000;
#SELECTABLE:YES;
#DISPLAYBPM:220.000;
#BPMS:0.000=219.800,229.000=209.800,293.000=219.800,295.000=219.800;
#STOPS:;
#BGCHANGES:;
// cache tags:
#FIRSTBEAT:0.500;
#LASTBEAT:532.000;
#SONGFILENAME:Songs/SSSC PACK/[Riceplz] - Severe Emotional Distress/Distress.sm;
#HASMUSIC:1;
#HASBANNER:1;
#MUSICLENGTH:237.008;
// end cache tags

//---------------dance-single - Blank----------------
#NOTES:
     dance-single:
     Blank:
     Challenge:
     15:
     0.759,0.926,0.173,0.232,0.757,1163.000,41.000,55.000,0.000,0.000:



0000
2200
0000
0000
0000
0000
0000
0000
,
0000
0000
0000
0000
3000
0000
0300
0000
0022
0000
0000
0000
0030
0000
0003
0202
,
0000
0000
0000
0000
,
0300
0000
0003
0000
0000
2020
0000
0000
0000
0000
3030
0000
0000
2200
0000
0000
,
0000
0000
0000
0000
,
0000
0000
0000
0000
0000
0000
0000
3300
0000
0000
0022
0000
0000
0000
0000
0000
,
0000
0000
0000
0000
,
0000
0000
0000
0000
0033
0000
0000
0020
0000
0000
0000
0000
0000
0000
0000
0000
,
0000
0000
0000
0000
0000
0000
0000
0000
0000
0000
0000
0000
0000
0200
0030
0000
,
0000
0000
0000
0000
0000
2000
0300
0000
0000
0000
0000
0000
0000
0000
0000
0000
,
0000
0000
0000
0000
0000
0000
0000
0000
0000
3000
0020
0000
0000
0000
0000
0000
,
0000
0230
0000
0000
0000
0000
0000
0000
,
0000
0000
0000
0000
0000
0000
0000
0000
0302
0000
0000
0000
0000
0000
0000
0020
,
0000
0000
0000
0000
,
0000
0000
0033
0000
0000
0000
0000
0000
0000
0000
0000
0000
1000
0001
1000
0100
,
1000
0100
0010
0001
0010
0001
0100
0010
1000
0010
1000
0100
0010
0100
0010
0001
,
0100
0001
0100
0001
1000
0100
1000
0100
1000
0010
0100
0001
0100
0001
0010
0100
,
1000
0100
1000
0100
0010
0001
1000
0100
0010
0100
1000
0001
0010
0100
0010
0001
,
1000
0001
0010
0100
1000
0001
0010
0100
1000
0100
1000
0001
0100
0001
0100
0001
,
0010
0100
1000
0010
0200
0000
0000
0000
0300
0000
0002
0000
0000
0000
0003
0000
,
2000
0000
0000
0000
3000
0000
0002
0000
0000
0000
0003
0000
0001
0010
0100
1000
,
0001
0010
0100
1000
0100
0010
0001
1000
0100
0010
0001
1000
0100
1000
0100
0010
,
0100
0010
0100
1000
0100
1000
0100
1000
0001
1000
0001
0100
0001
0100
0001
0100
,
0010
0100
0010
0100
0001
1000
0100
0010
0100
1000
0001
0010
0100
0010
0001
0100
,
0010
1000
0010
1000
0001
0010
0001
0010
0001
0100
0001
0100
0010
1000
0010
1000
,
0100
0010
0001
1000
0200
0000
0000
0000
0000
0300
2000
0000
0000
0000
0000
3000
,
0002
0000
0000
0000
0000
0003
0020
0000
0000
0000
0000
0030
1000
0100
1000
0100
,
1000
0100
1000
0100
1000
0100
1000
0100
1000
0100
1000
0100
1000
0100
1000
0100
,
1000
0100
1000
0100
1000
0001
0100
0001
0100
0001
0100
0001
0100
0001
0100
0001
,
0100
0001
0100
0001
0100
0001
0100
0001
0100
0001
0100
0001
0100
0001
1000
0001
,
1000
0001
1000
0001
1000
0001
1000
0001
1000
0001
1000
0001
1000
0001
1000
0001
,
1000
0001
1000
0001
2000
0000
0000
0000
3000
0000
0200
0000
0000
0000
0000
0300
,
0100
0010
0001
1000
0100
0010
0001
1000
0100
0010
0001
1000
0001
0000
1000
0000
,
0100
1000
0100
0000
1000
0000
0100
0010
0100
0000
1000
0000
0001
0100
0001
0000
,
0010
0000
0100
0000
0010
0000
0001
0000
2000
0000
3000
0000
0001
0000
0010
0100
,
1000
0000
0100
0000
0010
0001
0100
0000
0010
0000
0010
1000
0001
0000
0010
0000
,
0100
0000
1000
0000
0100
0000
0001
0000
0200
0000
0300
0000
1000
0000
0001
0100
,
0001
0000
1000
0000
0001
0010
0001
0000
1000
0000
0001
1000
0001
0000
0010
0000
,
0100
0000
1000
0000
0100
0000
0001
0000
0200
0000
0300
0000
1000
0100
1000
0001
,
0100
0001
1000
0010
1000
0001
0010
0001
1000
0100
0010
0001
1000
0100
0010
0001
,
0010
0100
1000
0001
0010
0100
1000
0001
0010
0100
1000
0001
1001
0000
1000
0000
,
0100
1000
0100
1000
0100
1000
0100
1000
,
0100
1000
1100
0100
1000
0001
0101
0001
,
0010
0100
1000
0100
0010
0100
1000
0001
,
0100
0010
1010
1000
0100
0010
0011
0001
,
0100
0010
1000
0010
1000
0100
0010
0001
,
0100
0010
1000
0100
0010
0001
1001
0001
,
0100
0010
0100
0010
1000
0100
0010
0100
,
0001
0100
1000
0100
0010
0100
1100
1000
,
0100
1000
0100
0010
0001
0010
1000
0010
,
0100
0010
0110
0010
0001
1000
1001
0001
,
0100
0001
1000
0100
1000
0100
0010
0001
,
0100
0010
1010
1000
0001
0100
0101
0001
,
0100
0001
0010
0100
1000
0100
0001
0100
,
1000
0100
0010
0001
1000
0001
1001
0001
,
0010
0100
1000
0100
0010
0100
1000
0001
,
1000
0000
0100
0000
1000
0100
0010
0001
1000
0100
0010
0001
1000
0000
0100
0000
,
1000
1100
0000
0001
0100
0001
0010
0100
,
0110
0000
1000
0100
0010
0011
0000
0001
,
0010
0001
1000
0001
0101
0000
0001
0010
,
0100
0000
1000
0000
0100
0000
0010
0000
0001
0010
0100
0000
1000
0000
0100
0000
,
1000
0100
2100
3000
0000
0001
0000
0001
,
1000
0100
0010
0001
0010
0000
0100
1000
,
0100
1100
0000
0001
0100
0001
0010
0100
,
0110
0000
0010
0100
0010
0110
0000
0010
,
0100
1000
0100
0010
0011
0000
0001
1000
,
0100
0000
2000
0000
3000
0000
1000
0100
1000
0000
0100
0000
0010
0000
0001
0000
,
1000
0100
2000
0000
3000
0100
0000
0010
,
0001
0010
0100
1000
0100
0000
1000
0000
,
0000
0100
0000
0010
0001
0010
0100
1000
,
0100
0000
1000
0000
0000
0100
0000
1000
,
0100
0001
0100
1000
0100
0010
0110
0000
,
0000
1001
0000
0000
0000
0000
0010
0000
0010
0000
0010
0000
0010
0000
0110
0000
,
0000
0000
0000
0000
0000
0000
0000
0000
0000
0000
0000
0000
1000
0100
1000
0100
,
1000
0001
0100
0001
0100
0001
0100
0010
1000
0100
0010
0001
0010
0100
1000
0001
,
0010
0100
1000
0100
0010
0001
1000
0100
0010
0001
0010
0001
0010
0001
0100
0001
,
0100
0001
0100
0010
0100
0010
0100
0010
1000
0010
1000
0010
1000
0100
1000
0100
,
1000
0100
0010
0100
0010
0100
0010
0001
0010
0001
0010
0001
1000
0001
1000
0001
,
1000
0100
0010
0001
2000
0000
0000
0000
3000
0000
0200
0000
0000
0000
0300
0000
,
0020
0000
0000
0000
0030
0000
0002
0000
0000
0000
0003
0000
1000
0100
1000
0001
,
0100
0001
1000
0010
1000
0001
0010
0001
1000
0100
0010
0100
1000
0001
0010
0100
,
0010
0001
1000
0100
0010
0001
0010
0100
0010
0001
0010
0100
1000
0100
1000
0100
,
0010
0100
0010
0100
0010
0001
0010
0001
0100
0001
0100
0001
1000
0100
1000
0100
,
1000
0010
1000
0010
1000
0001
0010
0001
0010
0001
1000
0100
0010
0001
0100
0010
,
1000
0100
0010
0001
2000
0000
0000
0000
3000
0000
0200
0000
0000
0000
0300
0000
,
2000
0000
0000
0000
3000
0000
0020
0000
0000
0000
0030
0000
1000
0100
1000
0100
,
1000
0100
1000
0100
1000
0100
1000
0100
1000
0100
1000
0100
1000
0100
1000
0100
,
1000
0100
1000
0100
1000
0001
0100
0001
0100
0001
0100
0001
0100
0001
0100
0001
,
0100
0001
0100
0001
0100
0001
0100
0001
0100
0001
0100
0001
1000
0001
1000
0001
,
1000
0001
1000
0001
1000
0001
1000
0001
1000
0001
1000
0001
1000
0001
1000
0001
,
1000
0001
1000
0001
1000
0100
0010
0001
1000
0100
0010
0100
1000
0001
0010
0100
,
0010
0001
1000
0100
0010
0001
1000
0100
0010
0001
1000
0001
1000
0000
1000
0100
,
1000
0000
0001
0000
0010
0100
1000
0000
0100
0000
0010
0001
0100
0000
0010
0000
,
1000
0000
0100
0000
0010
0000
0001
0000
0200
0000
0300
0000
0010
0000
1000
0100
,
1000
0000
0001
0000
0100
0010
0100
0000
0001
0000
1000
0100
1000
0000
0100
0000
,
0010
0000
0001
0000
0010
0000
0001
0000
2000
0000
3000
0000
0100
0000
0010
0001
,
0010
0000
0001
0000
0100
0010
0100
0000
0001
0000
0100
0010
1000
0000
0100
0000
,
0001
0000
0100
0000
1000
0000
0100
0000
2000
0000
3000
0000
1000
0100
1000
0100
,
0010
0100
0010
0001
0010
0001
0100
0001
0100
0010
0100
0010
1000
0010
1000
0100
,
1000
0100
0010
0100
0010
0100
1000
0100
0010
0001
1000
0100
0010
0000
1000
0000
,
0100
1000
0100
0001
0100
1000
0100
0001
,
0100
1000
1100
1000
0001
1000
1001
0001
,
0100
0010
1000
0010
0100
0010
0001
0010
,
1000
0001
0101
0100
0001
0100
0110
0100
,
0010
1000
0100
0010
0001
0100
0010
1000
,
0100
0010
0100
1000
0010
1000
1010
1000
,
0100
1000
0001
0100
0001
0010
0100
0010
,
0001
1000
0100
0010
0001
0010
0011
0001
,
0100
0001
0100
0001
0010
0100
1000
0100
,
1000
0100
1100
0100
1000
0001
0101
0100
,
0010
1000
0100
0010
0001
0010
0001
0100
,
0010
1000
1010
1000
0100
0010
0011
0001
,
0010
0100
1000
0100
0010
0100
1000
0001
,
0100
0010
1000
0100
0010
0001
1001
1000
,
0001
0100
0010
1000
0001
0100
0010
1000
,
0100
0010
0001
0010
0100
1000
2000
0000
,
0000
0000
0000
3200
,
0000
0010
0000
0000
1000
0000
1300
0000
,
0000
0100
0000
0000
0010
0000
0002
0000
,
0000
0000
0000
0000
0000
0000
0000
0003
,
0000
0000
0000
2000
,
0000
0000
0000
3002
,
0000
0000
2000
3003
,
0000
0000
0000
0000
0000
0000
0000
0000
0000
0000
0000
0000
0010
0100
1000
0010
,
0100
0001
0010
0100
1000
0010
0100
0001
0100
0010
1000
0100
0010
0001
0100
0010
,
1000
0100
0010
0001
0100
0010
1000
0100
0010
0001
0100
0010
1000
0100
1000
0100
,
1000
0100
1000
0001
0100
0001
0100
0001
0100
0001
0010
0100
1000
0100
0010
0100
,
1000
0100
1000
0100
0010
0001
1000
0100
0020
0000
0000
0000
0030
0000
1000
0100
,
0010
0001
1000
0100
0010
0001
0010
0100
1000
0100
0010
0100
1000
0001
0010
0100
,
0010
0000
0000
0001
0000
0000
0100
0000
0000
0010
0000
0000
1000
0000
0000
0100
0000
0000
0010
0000
0000
0001
0000
0000
0100
0000
0000
0010
0000
0000
1000
0000
0000
0001
0000
0000
1000
0000
0000
0000
0100
0000
0000
0000
0010
0000
0000
0000
,
0001
0010
0100
0010
0001
1000
0100
0010
0100
1000
0100
1000
,
0001
0100
0001
0100
0010
0100
0010
0100
0002
0000
0000
0000
,
0000
0000
0000
0000
0000
0000
0000
0000
0000
0000
0000
0000
0000
0000
0000
2000
0000
0000
0000
0000
0003
0000
0000
0000
,
3000
0000
0000
0000
;
