#TITLE:Can't Stop My Love;
#SUBTITLE:;
#ARTIST:Yuzi Kawamura;
#TITLETRANSLIT:;
#SUBTITLETRANSLIT:;
#ARTISTTRANSLIT:;
#CREDIT:;
#BANNER:;
#BACKGROUND:;
#LYRICSPATH:;
#CDTITLE:popnmusic.png;
#MUSIC:CSML.mp3;
#OFFSET:0.570;
#SAMPLESTART:55.000;
#SAMPLELENGTH:12.000;
#SELECTABLE:YES;
#BPMS:0.000=100.000;
#STOPS:;
#BGCHANGES:;
// cache tags:
#FIRSTBEAT:4.000;
#LASTBEAT:187.750;
#SONGFILENAME:Songs/toune 6/csml/CSML.sm;
#HASMUSIC:1;
#HASBANNER:0;
#MUSICLENGTH:117.818;
// end cache tags

//---------------dance-single - ----------------
#NOTES:
     dance-single:
     :
     Easy:
     2:
     0.245,0.278,0.204,0.034,0.034,174.000,24.000,4.000,0.000,0.000:  // measure 1
0000
0000
0000
0000
,  // measure 2
1000
1000
0001
0001
,  // measure 3
1000
0100
1000
0100
,  // measure 4
0001
0100
0001
0100
,  // measure 5
0010
0010
0100
0100
,  // measure 6
0001
0010
1000
0010
,  // measure 7
0010
1000
0010
0001
,  // measure 8
0100
0001
0100
0010
,  // measure 9
1000
0100
0010
1000
,  // measure 10
0010
0100
0001
0100
,  // measure 11
0010
0100
0001
1000
,  // measure 12
0100
0001
0010
1000
,  // measure 13
0200
0000
0000
0300
,  // measure 14
1000
0001
0101
0001
,  // measure 15
0001
1000
1100
1000
,  // measure 16
0010
1000
0010
0001
,  // measure 17
0100
0010
0110
1000
,  // measure 18
0001
0010
1000
0010
,  // measure 19
0100
0010
0001
0100
,  // measure 20
1000
0100
0010
0100
,  // measure 21
0001
0000
1000
0000
0002
0000
1000
0003
,  // measure 22
1001
0000
0010
0100
,  // measure 23
0110
0000
1000
0001
,  // measure 24
1100
0000
0010
0001
,  // measure 25
0001
0001
1000
1000
,  // measure 26
0110
0000
1000
0100
,  // measure 27
0101
0000
0010
1000
,  // measure 28
1001
0000
0100
0001
,  // measure 29
0000
0100
0000
0000
0010
0000
0000
1001
0000
0000
0000
0000
0100
0000
0100
0000
,  // measure 30
1000
0100
0011
0010
,  // measure 31
0001
0100
1010
0010
,  // measure 32
0100
0010
0100
0010
,  // measure 33
1000
0100
0010
0100
,  // measure 34
0001
0100
0101
0001
,  // measure 35
1000
0010
1010
0010
,  // measure 36
0100
0010
0110
0010
,  // measure 37
0001
1000
1001
1000
,  // measure 38
0100
0010
0001
1000
,  // measure 39
0200
0000
0000
0300
0010
0000
0010
0000
,  // measure 40
1001
0000
0000
0000
0000
0100
0000
0010
0000
0000
0000
0000
0001
0000
0001
0000
,  // measure 41
1001
0000
0000
0000
0000
0010
0000
0100
0000
0000
0000
0000
1000
0000
1000
0000
,  // measure 42
1100
0000
0000
0000
0000
0000
0000
0011
0000
0000
0000
0000
0000
0000
0000
0000
,  // measure 43
0101
0000
0000
0000
0000
0000
0000
1010
0000
0000
0000
0000
0100
0000
0100
0000
,  // measure 44
1100
0000
0001
0000
0100
0000
0010
0010
,  // measure 45
0101
0000
0010
0000
1000
0000
0100
0100
,  // measure 46
0001
0100
1000
0010
,  // measure 47
0002
0000
0000
0003
;

//---------------dance-single - ----------------
#NOTES:
     dance-single:
     :
     Medium:
     6:
     0.440,0.438,0.373,0.178,0.437,298.000,44.000,21.000,0.000,0.000:  // measure 1
0000
0000
0000
0000
,  // measure 2
1001
1001
0000
1000
0100
0000
0100
0100
,  // measure 3
1001
1001
0000
0001
0100
0000
0100
0100
,  // measure 4
0110
0110
0000
1000
0001
0000
0001
0001
,  // measure 5
0110
0110
0000
0001
1000
0000
1000
1000
,  // measure 6
1000
0000
0001
1000
0000
0100
0000
0010
0000
0000
0000
0000
0100
0000
0100
0000
,  // measure 7
0001
0000
1000
0001
0000
0100
0000
0010
0000
0000
0000
0000
0100
0000
0100
0000
,  // measure 8
1000
0000
0100
0010
0000
0001
0000
0100
0000
0100
0010
0100
0000
0001
0000
0000
,  // measure 9
1000
0100
1000
0000
1000
0000
0100
0010
0000
0100
0000
0001
0000
1000
0000
0000
,  // measure 10
1000
0000
0100
1000
0000
0100
0000
0011
0000
0000
0000
0000
0100
0000
0100
0000
,  // measure 11
0001
0000
0100
0001
0000
0100
0000
1010
0000
0000
0000
0000
0100
0000
0100
0000
,  // measure 12
2000
0000
0000
0000
0000
0000
0000
0002
3000
0000
0000
0000
0000
0003
0000
0000
,  // measure 13
0220
0000
0000
0000
0000
0000
0000
0000
0000
0330
0000
0000
0000
0000
0000
0000
0000
0000
0100
0000
0001
0000
0100
0000
,  // measure 14
0100
0010
0000
0010
0100
0000
0000
0110
0000
0000
0000
0000
0100
0000
0100
0000
,  // measure 15
1000
0001
0000
0001
1000
0000
0000
1001
0000
0000
0000
0000
1000
0000
1000
0000
,  // measure 16
1000
0010
0000
0010
1000
0000
0000
1010
0000
0000
0000
0000
0010
0000
0010
0000
,  // measure 17
0001
0010
0000
0010
0001
0000
0000
0011
0000
0000
0000
0000
0001
0000
0001
0000
,  // measure 18
1000
0010
0000
0100
0001
0000
0000
0101
0000
0000
0000
0000
1100
0000
1100
0000
,  // measure 19
0001
0010
0000
0100
1000
0000
0000
1100
0000
0000
0000
0000
0011
0000
0011
0000
,  // measure 20
1000
0100
0000
0010
0100
0000
0000
0110
0000
0100
0000
0100
0000
1000
0100
0010
,  // measure 21
0100
0000
1000
0001
0000
1000
0000
0200
0000
0000
0000
0000
0310
0000
0000
0000
,  // measure 22
1100
0000
1000
0100
0010
0100
0001
0000
,  // measure 23
0101
0000
0001
0100
0010
0100
1000
0000
,  // measure 24
0110
0000
1000
0100
0001
0100
1000
0100
,  // measure 25
0002
0000
0000
0003
0200
0000
0000
0300
2000
0000
0000
3000
0200
0000
0000
0300
,  // measure 26
1001
0000
1000
0001
0010
0100
0010
0001
,  // measure 27
0011
0000
0010
1000
0100
0010
0001
0100
,  // measure 28
0101
0000
0100
0010
1000
0100
0010
0100
,  // measure 29
0000
1100
0000
0000
0101
0000
0000
1100
0000
0000
0000
1000
0001
0000
0001
0000
,  // measure 30
0100
0000
0010
0100
0000
0010
0000
0100
0000
0000
0000
0000
0001
0000
0001
0000
,  // measure 31
1000
0000
0100
1000
0000
0100
0000
1000
0000
0000
0000
0000
0010
0000
0010
0000
,  // measure 32
0100
0000
0001
0010
0000
0100
0000
0001
0000
0001
0000
0001
0100
0000
0100
0000
,  // measure 33
0000
1000
0100
1000
0000
0001
0100
0001
0000
1000
0001
1000
0000
0001
1000
0001
,  // measure 34
0100
0000
0100
0010
0000
1000
0000
0100
0000
0000
0000
0000
1010
0000
1010
0000
,  // measure 35
1000
0000
0100
0010
0000
0100
0000
0001
0000
0000
0000
0000
0101
0000
0101
0000
,  // measure 36
1000
0100
1000
0100
0000
0010
0000
0002
0000
0000
0000
0000
0100
0000
0103
0000
,  // measure 37
0001
0100
0001
0100
0000
0010
0000
2000
0000
0000
0000
0000
0100
0000
3100
0000
,  // measure 38
1000
0100
0010
0100
0001
0100
1000
0010
,  // measure 39
0200
0000
0000
0000
0000
0000
0001
0301
,  // measure 40
1000
0000
0100
1000
0000
0100
0000
0001
0000
0000
0000
0000
0011
0000
0011
0000
,  // measure 41
0001
0000
0100
0001
0000
0100
0000
1000
0000
0000
0000
0000
1010
0000
1010
0000
,  // measure 42
2000
0000
0000
0000
0000
0000
3000
0020
0000
0000
0000
0000
0000
0000
0030
0000
,  // measure 43
0200
0000
0000
0000
0000
0000
0300
0002
0000
0000
0000
0000
2000
0000
3003
0000
,  // measure 44
1001
0000
1001
0000
0000
0010
0000
0010
0000
0000
0000
0000
0100
0000
0100
0000
,  // measure 45
0110
0000
0110
0000
0000
1000
0000
1000
0000
0000
0000
0000
0001
0000
0001
0000
,  // measure 46
2000
0000
0100
0000
0100
0000
3000
0002
0000
0000
0100
0000
0100
0000
0003
0000
,  // measure 47
0220
0000
0000
0000
0000
0000
0000
0330
;

//---------------dance-single - ----------------
#NOTES:
     dance-single:
     :
     Hard:
     9:
     0.540,0.517,0.407,0.238,0.806,369.000,48.000,28.000,0.000,0.000:  // measure 1
0000
0000
0000
0000
,  // measure 2
1001
0000
1001
0000
0000
1000
0100
0010
0000
0001
0000
0100
0000
0000
0010
0000
,  // measure 3
1001
0000
1001
0000
0000
0001
0100
0010
0000
1000
0000
0100
0000
0000
0010
0000
,  // measure 4
0110
0000
0110
0000
0000
0010
0100
0010
0000
0001
0000
1000
0000
0000
0100
0000
,  // measure 5
0110
0000
0110
0000
0000
0100
0010
0100
0000
1000
0000
0100
0000
0000
0010
0000
,  // measure 6
1000
0100
1000
0100
0000
1000
0000
0011
0000
0001
0000
0100
0010
0000
0010
0000
,  // measure 7
0001
0100
0001
0100
0000
0001
0000
1010
0000
1000
0000
0100
0010
0000
0010
0000
,  // measure 8
2000
0000
0010
0000
0010
3000
0000
0002
0000
0000
0000
0000
1000
0000
1003
0000
,  // measure 9
0200
0000
0010
0000
0010
0000
0300
0001
0000
0000
0000
0001
0100
0000
0101
0000
,  // measure 10
1000
0100
1000
0010
0000
0100
0000
0101
0000
0000
0000
0001
0100
0000
0100
0000
,  // measure 11
0001
0100
0001
0010
0000
0100
0000
1100
0000
0000
0000
1000
0100
0000
0100
0000
,  // measure 12
0010
0100
0010
1000
0000
0010
0100
0001
0000
0100
0010
1000
0000
0100
0010
0001
,  // measure 13
2000
0000
0000
0000
0000
0000
0000
0000
0000
3001
0001
0001
,  // measure 14
1000
0100
0000
1000
0001
0000
0000
0110
0000
0000
0000
0010
0100
0000
0100
0000
,  // measure 15
0001
0100
0000
0001
1000
0000
0000
0110
0000
0000
0000
0100
0010
0000
0010
0000
,  // measure 16
1000
0100
0000
0010
0001
0000
0000
0011
0000
0000
0000
0001
0100
0000
0100
0000
,  // measure 17
0001
0100
0000
0010
1000
0000
0000
1010
0000
0000
0000
1000
0100
0000
0100
0000
,  // measure 18
0010
0100
0000
0100
0010
0000
0000
0110
0000
0000
0000
0001
0100
0000
0100
0000
,  // measure 19
0100
0010
0000
0010
0100
0000
0000
0110
0000
0000
0000
1000
0100
0000
0100
0000
,  // measure 20
1000
0001
0000
0100
0010
0000
0000
1001
0000
0000
0000
0010
0100
0000
0100
0000
,  // measure 21
0001
0010
0000
1000
0000
0100
0000
0002
0000
0000
0003
0000
1100
0000
0000
0000
,  // measure 22
0002
0000
0000
0000
0003
0000
1000
0100
0001
0000
0001
0100
0000
1000
0000
0001
,  // measure 23
0020
0000
0000
0030
0000
0000
0001
0100
0010
0000
0010
0100
0000
1000
0000
0001
,  // measure 24
0200
0000
0000
0000
0300
0000
0010
0100
0010
0000
1000
0100
0000
0001
0000
0100
,  // measure 25
0020
0000
0000
0030
0002
0000
0000
0003
0200
0000
0000
0300
2000
0000
0000
3000
,  // measure 26
0202
0000
0000
0000
0303
0000
0010
1000
0100
0000
0100
0010
0000
0001
0000
0100
,  // measure 27
0020
0000
0000
0030
0000
0000
0001
1000
0100
0000
0100
0010
0000
0001
0000
1000
,  // measure 28
2200
0000
0000
0000
0000
0000
0000
0000
0000
0000
0000
0000
3300
0000
0000
0000
0000
0000
1000
0000
0000
0100
0000
0000
0010
0000
0000
0000
0000
0000
0010
0000
0000
0100
0000
0000
0000
0000
0000
0010
0000
0000
0000
0000
0010
0000
0000
0000
,  // measure 29
0000
0000
1100
0000
0000
0000
0000
0011
0000
0000
0000
1100
0000
0000
0000
0000
0000
0000
1000
0000
0000
1000
0000
0000
,  // measure 30
0010
0001
0010
0100
0000
0010
0000
1000
0000
0000
0000
0000
1100
0000
1100
0000
,  // measure 31
0010
1000
0010
0100
0000
0010
0000
0001
0000
0000
0000
0000
0101
0000
0101
0000
,  // measure 32
0100
1000
0100
0010
0100
0001
0000
0100
0000
0100
0001
0100
1000
0010
0100
0010
,  // measure 33
0000
1000
0100
0001
0000
0001
0100
1000
0000
1000
0010
0100
0000
0000
0100
0000
,  // measure 34
1000
0001
0100
0010
0000
1001
0000
0110
0000
0000
0000
0001
0100
0000
0100
0000
,  // measure 35
0100
0010
1000
0001
0000
1001
0000
1001
0000
0000
0000
1000
0010
0000
0010
0000
,  // measure 36
1000
0100
0001
0010
0000
0010
0001
0100
0000
0110
0000
1000
0001
0000
0001
0000
,  // measure 37
0001
0100
1000
0010
0000
0010
1000
0100
0000
0110
0000
0001
1000
0000
1000
0000
,  // measure 38
1000
0010
0100
0001
0000
0001
0100
0010
0000
0010
0000
0100
0000
0000
0100
0000
,  // measure 39
2002
0000
0000
0000
0000
3003
0100
0100
,  // measure 40
1000
0010
0100
0001
0000
0101
0000
1010
0000
0010
0000
0000
0100
0000
0100
0000
,  // measure 41
0001
0010
0100
1000
0000
1100
0000
0011
0000
0010
0000
0000
0100
0000
0100
0000
,  // measure 42
2000
0000
0000
0000
0000
0000
3000
0002
0000
0000
0000
0000
0100
0000
0103
0000
,  // measure 43
2200
0000
0000
0000
0000
3300
0000
0022
0000
0000
0033
0000
0220
0000
0000
0330
,  // measure 44
0010
0100
0010
1000
0000
0110
0000
1001
0000
0000
0000
0000
0100
0000
0100
0000
,  // measure 45
0010
0100
0010
0001
0000
1001
0000
0110
0000
0000
0000
1000
0001
1000
0001
0000
,  // measure 46
1000
0010
0100
0010
0000
1000
0100
0001
0000
0100
0010
0001
0000
0100
0010
0100
,  // measure 47
0002
0000
0000
0000
0000
0000
0000
0003
;

//---------------dance-single - ----------------
#NOTES:
     dance-single:
     :
     Beginner:
     1:
     0.114,0.118,0.051,0.008,0.000,87.000,6.000,1.000,0.000,0.000:  // measure 1
0000
0000
0000
0000
,  // measure 2
1000
0000
0001
0000
,  // measure 3
0100
0000
0010
0000
,  // measure 4
0001
0000
0001
0000
,  // measure 5
0010
0000
0100
0000
,  // measure 6
1000
0000
1000
0000
,  // measure 7
0010
0000
0100
0000
,  // measure 8
0001
0000
0100
0000
,  // measure 9
0010
0000
1000
0000
,  // measure 10
0001
0000
0010
0000
,  // measure 11
1000
0000
0001
0000
,  // measure 12
0010
0000
0010
0000
,  // measure 13
0100
0000
0100
0000
,  // measure 14
1000
0000
0001
0000
,  // measure 15
0001
0000
1000
0000
,  // measure 16
0010
0000
0100
0000
,  // measure 17
0001
0000
0010
0000
,  // measure 18
0100
0000
1000
0000
,  // measure 19
0100
0000
0001
0000
,  // measure 20
1000
0000
0010
0000
,  // measure 21
1000
0000
0001
0000
,  // measure 22
1001
0000
0000
0000
,  // measure 23
0110
0000
0000
0000
,  // measure 24
1001
0000
1000
0000
,  // measure 25
0100
0000
0001
0000
,  // measure 26
0110
0000
0000
0000
,  // measure 27
1001
0000
0000
0000
,  // measure 28
0110
0000
0100
0000
,  // measure 29
0001
0000
1000
0000
,  // measure 30
1000
0000
0010
0000
,  // measure 31
0001
0000
0100
0000
,  // measure 32
0010
0000
0001
0000
,  // measure 33
0001
0000
1000
0000
,  // measure 34
0100
0000
0001
0000
,  // measure 35
1000
0000
0010
0000
,  // measure 36
0100
0000
0100
0000
,  // measure 37
0001
0000
1000
0000
,  // measure 38
0010
0000
0001
0000
,  // measure 39
0100
0000
0010
0000
,  // measure 40
1000
0000
0100
0000
,  // measure 41
0001
0000
0100
0000
,  // measure 42
1000
0000
0010
0000
,  // measure 43
0001
0000
0010
0000
,  // measure 44
1000
0000
0100
0000
,  // measure 45
0001
0000
0010
0000
,  // measure 46
0100
0000
1000
0000
,  // measure 47
0002
0000
0000
0003
0000
0000
0000
0000
;

//---------------dance-double - ----------------
#NOTES:
     dance-double:
     :
     Easy:
     3:
     0.239,0.238,0.221,0.034,0.017,167.000,26.000,4.000,0.000,0.000:  // measure 1
00000000
00000000
00000000
00000000
,  // measure 2
10000000
10000000
00010000
00010000
,  // measure 3
00001000
00001000
00000001
00000001
,  // measure 4
00000100
00000100
01000000
01000000
,  // measure 5
00100000
00100000
00000010
00000010
,  // measure 6
00010000
00100000
01000000
00010000
,  // measure 7
00001000
00000100
00000010
00000001
,  // measure 8
00001000
01000000
00010000
00100000
,  // measure 9
10000000
01000000
00010000
00001000
,  // measure 10
00001000
00000100
00000001
00001000
,  // measure 11
00100000
01000000
00001000
00010000
,  // measure 12
00000100
00001000
00100000
10000000
,  // measure 13
00020000
00000000
00000000
00030000
,  // measure 14
01000000
00010000
00011000
00010000
,  // measure 15
00001000
00010000
00001100
00100000
,  // measure 16
00001000
00000010
00000001
00000100
,  // measure 17
00010000
01000000
00100000
10000000
,  // measure 18
00010000
00001000
00000100
00001000
,  // measure 19
00010000
00100000
10000000
01000000
,  // measure 20
10000000
00010000
00000100
00000010
,  // measure 21
00001000
00000000
01000000
00000000
00002000
00000000
10000000
00003000
,  // measure 22
00011000
00000000
00001100
00000000
,  // measure 23
01100000
00000000
00001100
00000000
,  // measure 24
11000000
00000000
00100000
00010000
,  // measure 25
00001000
00000100
00000001
00001000
,  // measure 26
00110000
00000000
10000000
01000000
,  // measure 27
01010000
00000000
00010000
00000100
,  // measure 28
00010100
00000000
01000000
00010000
,  // measure 29
00000000
01000000
00000000
00000000
00001000
00000000
00000000
00011000
00000000
00000000
00000000
00000000
01000000
00000000
00000000
00000000
,  // measure 30
00001000
01000000
00110000
00100000
,  // measure 31
00001000
00000100
00000101
00000010
,  // measure 32
00010000
00100000
01000000
00001000
,  // measure 33
01000000
00100000
00010000
00001000
,  // measure 34
00010000
00000010
00010010
00010000
,  // measure 35
00000100
00001000
00001100
00001000
,  // measure 36
00100000
00010000
01100000
00100000
,  // measure 37
00010000
10000000
00110000
10000000
,  // measure 38
01000000
00010000
00001000
00000100
,  // measure 39
00000002
00000000
00000000
00000003
00000100
00000000
00000100
00000000
,  // measure 40
00010100
00001000
00000001
00001000
,  // measure 41
00101000
00000000
00100000
00000000
01000000
00000000
10000000
10000000
,  // measure 42
11000000
00000000
00000000
00000000
00000000
00000000
00000000
00110000
00000000
00000000
00000000
00000000
00000000
00000000
00000000
00000000
,  // measure 43
00010100
00000000
00000000
00000000
00000000
00000000
00000000
00001001
00000000
00000000
00000000
00000000
01000000
00000000
00000000
00000000
,  // measure 44
01010000
00100000
01000000
00010000
,  // measure 45
00011000
00100000
00001000
00000100
,  // measure 46
00001100
00010000
01000000
00100000
,  // measure 47
02000000
00000000
00000000
03000000
;

//---------------dance-double - ----------------
#NOTES:
     dance-double:
     :
     Medium:
     6:
     0.376,0.358,0.212,0.059,0.008,278.000,25.000,7.000,0.000,0.000:  // measure 1
00000000
00000000
00000000
00000000
,  // measure 2
10010000
10010000
00000000
01000000
00010000
00000000
00001000
00001000
,  // measure 3
00011000
00011000
00000000
00010000
00000100
00000000
00001000
00001000
,  // measure 4
00000101
00000101
00000000
00010000
00001000
00000000
00010000
00010000
,  // measure 5
01100000
01010000
00000000
00010000
01000000
00000000
10000000
01000000
,  // measure 6
00100000
00010000
01000000
00000000
00010000
00010000
00001000
00001000
,  // measure 7
00000100
00000001
00000010
00000000
00000100
00000100
00001000
00000100
,  // measure 8
00010000
01000000
00100000
00000000
10000000
01000000
10000000
00000000
,  // measure 9
10000000
01000000
00010000
00000000
00001000
00000100
00000010
00000100
,  // measure 10
00010000
00010000
00001000
00000000
00110000
00000000
01000000
01000000
,  // measure 11
00010000
01000000
00100000
00000000
01100000
00000000
01000000
01000000
,  // measure 12
00020000
00000000
00000000
00030000
00002000
00000000
00000000
00003000
,  // measure 13
00022000
00000000
00000000
00033000
,  // measure 14
10000000
01000000
00100000
01000000
10000000
00000000
01010000
01000000
,  // measure 15
00001000
00010000
00000100
00001000
00000010
00000000
00001010
00000010
,  // measure 16
00000100
00000001
00001000
00000100
00010000
00000000
00011000
00010000
,  // measure 17
00100000
01000000
10000000
00100000
01000000
00000000
01100000
01000000
,  // measure 18
00010000
00100000
00001000
00010000
00000100
00000000
00001100
00001000
,  // measure 19
00000100
00001000
00000100
00000010
00000001
00000000
00000011
00000001
,  // measure 20
00000010
00000100
00000010
00000000
00001000
00010000
00001000
00000000
,  // measure 21
00100000
01000000
00100000
10000000
02000000
00000000
00000000
03000000
,  // measure 22
10000000
01000000
10000000
00000000
00010000
00100000
00010000
00000000
,  // measure 23
01000000
00001000
01000000
00000000
00000010
00001000
00000010
00000000
,  // measure 24
00010000
00001000
00010000
00000000
01000000
00100000
01000000
00000000
,  // measure 25
00100000
00011000
00001000
00001001
,  // measure 26
00000100
00000010
00000001
00000000
00000100
00000010
00001000
00000000
,  // measure 27
00000100
00010000
00001000
00000000
01000000
00100000
10000000
00000000
,  // measure 28
01000000
00010000
01000000
00001000
01000000
00010000
01000000
00100000
,  // measure 29
00000000
11000000
00000000
00000000
00110000
00000000
00000000
11000000
00000000
00000000
00000000
00000000
01000000
00000000
01000000
00000000
,  // measure 30
00100000
00001000
00010000
00000100
00001000
00000000
00000100
00000100
,  // measure 31
00010000
00001000
00100000
00010000
01000000
00000000
00010000
00010000
,  // measure 32
00000100
00001000
00000010
00000100
00000010
00000000
00000100
00000100
,  // measure 33
00000001
00001000
00000100
00000010
00000001
00000000
00000110
00000000
,  // measure 34
00000001
00000100
00001000
00000100
00000001
00000000
00001001
00000000
,  // measure 35
00000001
00000100
00001000
00010000
01000000
00000000
10010000
00000000
,  // measure 36
10000000
01000000
00100000
00010000
00100000
01000000
00100000
00000000
,  // measure 37
00010000
01000000
00001000
00010000
00000100
00001000
00000001
00000000
,  // measure 38
00000100
00000010
00001000
00000100
00010000
00001000
00100000
00010000
,  // measure 39
02000000
00000000
03010000
00010000
,  // measure 40
01000000
00100000
10000000
00010000
01000000
00000000
00001000
00000000
,  // measure 41
00010000
00000100
00001000
00000001
00000100
00000000
00000010
00000000
,  // measure 42
00000100
00001000
00010000
00000000
00001000
00010000
00100000
00000000
,  // measure 43
00010000
00100000
10000000
00000000
01000000
01000000
10000000
10000000
,  // measure 44
00100000
10000000
00010000
01000000
00001000
00000000
00010000
00010000
,  // measure 45
00000100
00001000
00000001
00000100
00000010
00000000
00000100
00000100
,  // measure 46
00000010
00001000
00000100
00000001
00000100
00001000
00010000
01000000
,  // measure 47
20000000
00000000
00000000
00000000
00000000
00000000
00000000
30000000
;

//---------------dance-double - ----------------
#NOTES:
     dance-double:
     :
     Hard:
     9:
     0.577,0.578,0.356,0.034,0.972,430.000,42.000,4.000,0.000,0.000:  // measure 1
00000000
00000000
00000000
00000000
,  // measure 2
10010000
00000000
01010000
00000000
00000000
00100000
00001000
00010000
00000000
00001000
00000000
00100000
00000000
00000000
00001000
00000000
,  // measure 3
00011000
00000000
00011000
00000000
00000000
00000100
00001000
00000001
00000000
00001000
00000000
00000100
00000000
00000000
00001000
00000000
,  // measure 4
00001100
00000000
00001001
00000000
00000000
00000100
00000010
00001000
00000000
00000001
00000000
00000100
00000000
00000000
00000010
00000000
,  // measure 5
00010010
00000000
00011000
00000000
00000000
00010000
01000000
10000000
00000000
01000000
00000000
00100000
00000000
00000000
00010000
00000000
,  // measure 6
10000000
01000000
00100000
01000000
00000000
10000000
00010000
01000000
00000000
01000000
00001000
00010000
00000100
00010000
00001000
00000000
,  // measure 7
00001000
00000100
00000010
00000001
00000000
00000001
00000010
00000100
00000000
00001000
00000100
00000010
00000100
00001000
00000100
00000000
,  // measure 8
00000000
00100000
00010000
01000000
00000000
01000000
00000000
00100000
00000000
01000000
00001000
00010000
00000100
00010000
00001000
01000000
,  // measure 9
00000000
10000000
00010000
01000000
00000000
01000000
00100000
10000000
01000000
00010000
00001000
00000100
00000001
00000100
00001000
00000100
,  // measure 10
00000001
00000100
00000001
00000010
00000000
00000100
00000000
00001100
00000000
00001000
00000100
00000010
00000100
00000000
00000100
00000000
,  // measure 11
00000010
00000001
00000100
00001000
00000000
00010000
00000000
00000100
00000000
00001000
00000100
00000010
00000100
00000000
00000100
00000000
,  // measure 12
00010000
00001000
00100000
00010000
00000000
01000000
10000000
00100000
00000000
00100000
10000000
01000000
00000000
01000000
00100000
00010000
,  // measure 13
02000000
00000000
00000000
00000000
00000000
00000000
00010000
03010000
,  // measure 14
10000000
01000000
00000000
00100000
00010000
00000000
00000000
00110000
00000000
00000000
00000000
00000000
00010000
00000000
00010000
00000000
,  // measure 15
00001000
00000010
00000000
00000100
00000001
00000000
00000000
00000101
00000000
00000000
00000000
00000000
00000001
00000000
00000001
00000000
,  // measure 16
00000010
00000100
00000000
00010000
00001000
00000000
00000000
01100000
00000000
00000000
00000000
00000000
01000000
00000000
01000000
00000000
,  // measure 17
00010000
00100000
00000000
00000100
00001000
00000000
00000000
00001100
00000000
00000000
00000000
00000000
00000010
00000000
00000010
00000000
,  // measure 18
00000001
00001000
00000000
00010000
10000000
00000000
00000000
10010000
00000000
00000000
00000000
00000000
01000000
00000000
00100000
00000000
,  // measure 19
10000000
01000000
00000000
00010000
00100000
00000000
00000000
01100000
00000000
00000000
00000000
00000000
00010000
00000000
00000001
00000000
,  // measure 20
00000001
00000010
00000000
00010000
00100000
00000000
00000000
00110000
00000000
00000000
00000000
00000000
00010000
00000000
00001000
00000000
,  // measure 21
00010000
00000000
00001000
00010000
00000000
00000100
00000000
00002000
00000000
00000000
00000000
00000000
00003001
00000000
00000000
00000000
,  // measure 22
00001001
00000000
00000000
00000010
00000010
00001000
00000100
00000100
00000000
00000000
00000000
00010000
00010000
00001000
00100000
00100000
,  // measure 23
00000000
00000000
00000000
00100000
00100000
10000000
01000000
01000000
00000000
00000000
00000000
00010000
00010000
00100000
00000100
00000100
,  // measure 24
00000000
00000000
00000000
00001000
00001000
00000100
00000001
00000001
00000000
00000000
00000000
00010000
00010000
00010000
00001000
00001000
,  // measure 25
00000000
00010000
00001000
00000100
00000000
00001000
00010000
01000000
00000000
00010000
00001000
00000010
00000000
00001000
00010000
00100000
,  // measure 26
01100000
00000000
00000000
10000000
01000000
00010000
01000000
10000000
00000000
00000000
00000000
00100000
00001000
01000000
00100000
01000000
,  // measure 27
00000000
00000000
00000000
00010000
00000100
00000010
00000100
00001000
00000000
00000000
00000000
00000001
00000010
00001000
00000010
00000001
,  // measure 28
00000000
00000000
00000000
00000100
00000010
00010000
00000010
00001000
00000000
00000000
00000000
00000100
00000001
00000100
00001000
00000100
,  // measure 29
00000000
00100010
00000000
00000000
00100010
00000000
00000000
01000100
00000000
00000000
00000000
00000000
10000000
00000000
10000000
00000000
,  // measure 30
00100000
10000000
01000000
00010000
00000000
00001000
00000000
00000101
00000000
00000000
00000000
00000000
00000110
00000000
00000101
00000000
,  // measure 31
00000010
00000001
00000100
00001000
00000000
00010000
00000000
11000000
00000000
00000000
00000000
00000000
01100000
00000000
10100000
00000000
,  // measure 32
01000000
00010000
00100000
01000000
00010000
00001000
00000100
00000010
00000000
00000010
00000100
00000001
00000100
00000010
00001000
00001000
,  // measure 33
00000000
00010000
00001000
00010000
00000000
01000000
00100000
01000000
00000000
10000000
00010000
10000000
00000000
00100000
01000000
00100000
,  // measure 34
01000000
00010000
01000000
00001000
00000000
01000000
00000000
01010000
00000000
00000000
00000000
00100000
01000000
00000000
01000000
00000000
,  // measure 35
10000000
01000000
00100000
00010000
00000000
11000000
00000000
00110000
00000000
00000000
00000000
00001000
00010000
00000000
00010000
00000000
,  // measure 36
00010000
00001000
00000100
00000010
00000000
00001000
00000100
00000010
00000000
00000100
00000000
00000000
00000011
00000000
00000011
00000000
,  // measure 37
00000001
00000010
00000100
00001000
00000000
00000001
00000010
00000100
00000000
00000010
00000000
00000000
00000101
00000000
00000101
00000000
,  // measure 38
00000001
00000100
00000001
00000100
00000010
00001000
00000010
00001000
00000100
00010000
00000100
00010000
00001000
00100000
00001000
00100000
,  // measure 39
00020000
00000000
00000000
00000000
00000000
00000000
01000000
01030000
,  // measure 40
10000000
01000000
00010000
00001000
00000000
00011000
00000000
00011000
00000000
00000000
00000000
00000000
00000100
00000000
00000100
00000000
,  // measure 41
00000001
00000100
00001000
00010000
00000000
00011000
00000000
00011000
00000000
00000000
00000000
00000000
01000000
00000000
01000000
00000000
,  // measure 42
00100000
00010000
01000000
00010000
00000000
00001000
00010000
00001000
00000000
01000000
00001000
00010000
00000000
00010000
00001000
00010000
,  // measure 43
00000000
00000100
00001000
00000010
00000000
00000100
00000001
00000010
00000100
00001000
00000100
00001000
00000010
00000100
00000010
00000100
,  // measure 44
00000001
00000100
00000010
00000100
00000000
00000101
00000000
00001010
00000000
00000000
00000000
00000000
00000100
00000000
00000100
00000000
,  // measure 45
00010000
00001000
00100000
00010000
00000000
01010000
00000000
10100000
00000000
01000000
00000000
00000000
00100000
00000000
00100000
00000000
,  // measure 46
10000000
01000000
00100000
00010000
00000000
00010000
00100000
01000000
00000000
10000000
01000000
00010000
00000000
00001000
00000100
00000001
,  // measure 47
00000200
00000000
00000000
00000000
00000000
00000000
00000000
00000000
00000000
00000000
00000000
00000000
00000000
00000000
00000000
00000300
;
