#TITLE:Seduction;
#SUBTITLE:;
#ARTIST:NC feat. NRG Factory;
#TITLETRANSLIT:;
#SUBTITLETRANSLIT:;
#ARTISTTRANSLIT:;
#CREDIT:;
#BANNER:SEDUCTION(Vocal Remix).png;
#BACKGROUND:SEDUCTION(Vocal Remix)-bg.png;
#LYRICSPATH:;
#CDTITLE:B4-Cdtitle.png;
#MUSIC:SEDUCTION(Vocal Remix).mp3;
#OFFSET:-0.052;
#SAMPLESTART:51.879;
#SAMPLELENGTH:15.000;
#SELECTABLE:YES;
#BPMS:0.000=190.000;
#STOPS:;
#BGCHANGES:;
// cache tags:
#FIRSTBEAT:20.000;
#LASTBEAT:295.000;
#SONGFILENAME:Songs/Definitive Keyboard Megapack/Seduction[B4-NoA]/SEDUCTION(Vocal Remix).sm;
#HASMUSIC:1;
#HASBANNER:1;
#MUSICLENGTH:96.478;
// end cache tags

//---------------dance-single - ONI----------------
#NOTES:
     dance-single:
     ONI:
     Challenge:
     13:
     1.000,1.000,1.000,0.093,1.000,845.000,138.000,9.000,0.000,2.000:

0000
0000
0000
0000
,
0000
0000
0000
0000
,
0000
0000
0000
0000
,
0000
0000
0000
0000
,
0000
0000
0000
0000
,
0200
0301
1100
1001
0000
1000
0000
0101
,
2000
0000
3011
0000
0000
0000
1100
0000
0110
0000
1010
0000
2001
3000
0000
0000
,
0200
0301
1010
1001
0000
1000
0000
0101
,
2000
0000
3011
0000
0000
0000
1100
0000
0110
0000
1010
0000
2001
3000
0000
0000
,
2100
3001
0010
1000
0001
1000
0001
0010
0101
1000
0100
1000
0100
0010
0001
0100
,
0010
0100
1000
0100
0010
0100
0010
0100
1000
0100
0010
0100
0010
0001
0010
0100
,
1000
0100
0010
0100
1000
0100
0001
0010
0001
0010
0001
0100
1000
0100
0010
0100
,
0010
0001
0010
0100
1000
0010
0100
0010
1100
0010
0001
0010
0100
0010
0001
0100
,
0010
0100
1000
0100
0010
0001
0010
0100
1010
0001
0010
1000
0100
0001
0010
0100
,
0010
0100
1000
0100
1000
0100
0001
0010
0100
0010
0100
1000
0100
0001
0010
0100
,
0010
1000
0100
0001
0010
0001
1000
0100
1000
0100
1000
0100
0010
0100
0010
1000
,
0100
0010
0100
1000
0100
0010
0001
0010
0001
0010
0100
0001
0010
0100
0010
0100
,
1001
0010
0100
1000
0010
0001
0010
0100
0011
0100
0010
0001
0010
0100
1000
0100
,
1010
0001
0100
1000
0100
0001
0100
1000
0011
0100
0010
0100
1000
0100
0001
0010
,
0101
0010
0100
0010
0001
0010
1000
0100
1001
0010
1000
0100
0010
0001
0010
0001
,
0110
1000
0100
1000
0100
0010
0100
0001
1010
0100
1000
0001
0100
1000
0100
1000
,
0101
0010
0100
0010
0001
0010
0100
1000
0011
1000
0010
0100
1000
0100
0010
0100
,
1010
0100
0010
1000
0100
0001
0010
1000
0110
0001
0010
0001
0100
0010
0001
0100
,
1001
0010
0100
1000
0010
1000
0100
0010
1100
0001
0100
0010
0100
0010
0100
1000
,
0110
0000
0011
1100
0000
1010
0011
0000
,
1010
0101
0110
1100
0010
0101
1000
0110
,
0001
1010
0100
0001
0010
0100
1000
0001
,
0010
1100
0110
1010
0100
0011
0100
1001
,
0001
0110
1000
1010
0001
0100
0001
1000
,
1010
0101
0110
1100
0010
0101
1000
0110
,
0001
1010
0100
0001
0010
0100
1000
0001
,
0010
1100
0110
1010
0100
0011
0010
0101
,
1000
0110
0001
1010
0001
0100
0001
1000
,
0100
0001
0010
0001
0010
1100
0010
0101
,
1000
0011
0100
1000
0010
0100
0010
1000
,
0100
0001
0010
1000
0010
1001
0100
0011
,
1000
0101
0010
1000
0100
0010
0100
1000
,
1100
0010
0001
0010
1000
0100
0010
0100
0010
1000
0100
0010
0001
0010
0100
0010
,
1001
0100
0001
0010
0100
0001
0010
0100
0010
0100
0001
0010
0100
1000
0100
1000
,
0101
0010
0100
0001
0010
0001
0010
0100
1010
0001
1000
0001
1000
0001
0010
0100
,
0011
0100
1000
0010
0001
0010
0100
0010
1100
0010
0100
0010
1000
0100
0001
0100
,
1001
0011
1010
0100
0011
1100
0010
1001
,
0100
0110
0001
1000
0001
0010
0100
1000
,
0100
0001
0100
0010
1000
0101
0010
1001
,
0100
0011
1000
0100
0010
0100
1000
0001
,
1100
0010
0001
1000
0001
0110
1000
0101
,
0010
1010
0001
0100
0001
1000
0100
0010
,
1100
0001
0100
0010
0001
1100
0010
0101
,
0010
1001
0100
0010
1000
0001
0010
0100
,
0011
0100
1000
0100
0010
0100
1000
0100
0010
1000
0101
0010
0100
0001
1100
0010
,
0100
0001
1010
0100
0010
1000
0001
0100
0010
0001
0100
1000
0010
0100
0001
0010
,
0100
1000
0100
1000
0100
0001
0100
1000
0100
0001
1010
0100
0010
1000
0101
0010
,
0100
0010
1100
0010
0100
0010
0001
0010
0100
1000
0010
0001
0100
1000
0001
0010
,
1100
0010
1000
0100
0001
0100
0010
0001
0100
0010
1100
0010
0100
0001
1010
0100
,
1001
0010
0101
1000
0010
0100
0010
1000
0100
0010
1000
0010
0100
0001
0010
0100
,
1001
0100
0001
0010
1000
0001
0100
0010
0101
1000
0010
0001
0010
1000
0010
0100
,
1001
0010
0001
0100
1000
0100
0010
0100
1001
0010
0001
0100
1000
0001
0100
1000
,
0110
0100
1001
0010
0100
1000
0010
1000
,
0101
0010
1100
0100
0010
0001
0100
1000
,
0011
0100
1100
0010
0001
1000
0010
1000
,
0101
0010
1010
0010
0101
1000
0110
0000
,
1010
0010
0010
0010
0010
0010
0010
0010
,
0110
1000
1000
1000
1000
1000
1000
1000
,
0010
0100
0001
0010
0100
1000
0010
0100
1000
0010
0100
0001
0010
0100
0001
0010
,
0100
1000
0010
0100
1000
0010
0100
1000
0001
0010
0100
0010
1000
0010
0100
1000
,
0110
1000
0100
0010
1001
0100
0010
0100
0010
0100
1000
0010
0100
0001
0010
0100
,
0011
1000
0100
0001
1010
0100
0010
1000
0100
0010
0001
0100
0010
1000
0010
1000
,
0101
0010
0100
0001
1010
0100
0010
1000
0001
0100
1000
0010
0100
1000
0010
0100
,
0011
0100
0010
0001
1100
0010
0100
0001
0010
0100
1000
0010
0100
0001
0010
0100
,
1001
0010
0100
0001
1000
0100
0010
0100
1000
0100
0010
0001
0100
1000
0010
0100
,
1001
0010
0100
1000
0001
0100
0010
0100
1000
0010
0100
0010
1000
0100
0010
0100
,
1001
0010
1000
0100
0010
0001
0100
0010
1001
0100
0010
0100
0001
0100
0010
0100
,
1000
0100
0010
0001
1000
0100
0010
0001
1000
0100
0010
0001
1000
0100
0010
0001
1000
0100
0010
0001
1000
0100
0010
0001
1000
0100
0010
0001
1000
0100
0010
0001
,
2002
0000
0000
3003
;
