#TITLE:Act 1 Boss Theme;
#SUBTITLE:- Sonic 3;
#ARTIST:Sonic Team;
#TITLETRANSLIT:;
#SUBTITLETRANSLIT:;
#ARTISTTRANSLIT:;
#CREDIT:Crazylegz;
#BANNER:Act 1 Boss Theme - Banner.bmp;
#BACKGROUND:Act 1 Boss Theme - Background.bmp;
#LYRICSPATH:;
#CDTITLE:;
#MUSIC:Sonic 3 - Act 1 Boss Theme.mp3;
#OFFSET:-0.275;
#SAMPLESTART:54.545;
#SAMPLELENGTH:12.000;
#SELECTABLE:YES;
#BPMS:0.000=109.900,88.000=110.000,159.000=109.900,165.000=110.000;
#STOPS:51.000=0.136
,66.750=0.136
,162.500=0.136
,178.250=0.136
;
#BGCHANGES:;
// cache tags:
#FIRSTBEAT:3.000;
#LASTBEAT:228.500;
#SONGFILENAME:Songs/new cc/Sonic 3 - Act 1 Boss Theme (Crazylegz Edit)/Act 1 Theme.sm;
#HASMUSIC:1;
#HASBANNER:1;
#MUSICLENGTH:130.123;
// end cache tags

//---------------dance-single - ----------------
#NOTES:
     dance-single:
     :
     Hard:
     10:
     0.575,0.608,0.215,0.223,0.680,467.000,28.000,29.000,0.000,0.000:
0000
0000
0000
0000
0000
0000
0000
0000
0000
0000
0000
0000
1000
0001
0000
0000
,
1001
0000
0000
0000
0000
0000
0000
0000
0000
0000
0000
0000
0000
0000
0000
0000
0000
0000
0000
0000
0000
0001
0000
0000
0100
0000
0000
0000
0000
0000
0000
0000
0010
0000
0000
0000
0000
0000
0000
0000
0100
0000
0000
0000
0000
0001
0000
0000
0100
0000
0000
0000
0000
0001
0000
0000
0100
0000
0000
0000
0000
0000
0000
0000
,
0000
0000
0000
0000
0000
0000
0000
0000
1000
0000
0000
0000
0000
0000
0000
0000
0001
0000
0000
0000
0000
1000
0000
0000
0001
0000
0000
0000
0000
0000
0000
0000
1000
0000
0000
0000
0000
0000
0000
0000
1000
0000
0000
0000
0000
1000
0000
0000
0002
0000
0000
0000
0000
0000
0000
0000
0003
0000
0000
0000
0000
0000
0000
0000
,
0000
0011
0000
1100
0000
1010
0000
0101
,
0000
1001
0000
0000
0011
0000
0000
0001
0010
0200
1000
0000
1000
0000
1000
0000
,
1300
0000
0000
0000
0000
0000
0000
0000
0000
0000
0000
0000
0000
0000
0000
0000
0000
0000
0000
0000
0000
1000
0000
0000
0010
0000
0000
0000
0000
0000
0000
0000
1010
0000
0000
0000
0000
0000
0000
0000
0010
0000
0000
0000
0100
0000
0000
0000
0010
0000
0000
0000
0000
0000
0000
0000
0000
0000
0000
0000
0100
0000
0000
0000
,
0001
0100
0001
0000
0000
1000
0001
0010
0001
1000
0200
0000
1000
0000
0300
0000
,
2001
0000
0000
0000
0000
0000
3001
0000
0000
0000
0000
0000
1000
0100
1000
0100
1000
0100
1000
0100
1000
0100
1000
0100
,
1000
0001
1000
0001
1000
0001
1000
0001
1000
0001
1000
0001
0000
0000
0000
0000
0000
0000
0000
0000
0000
1001
0000
0000
,
0000
0000
0001
0000
0010
0000
0100
0000
1000
0000
0100
0000
0010
0001
0000
0000
,
0000
0000
1000
0000
0010
0000
0100
0000
0001
0000
0100
0000
0010
1000
0000
0000
,
0000
0000
0100
0000
0001
0000
0100
0000
0001
0010
0100
1000
0001
0010
0100
1000
,
0100
0000
1000
0000
0001
0000
1000
0000
1000
0000
2000
0000
0000
0000
3001
0100
,
0001
0000
1000
0000
0000
0000
0010
0100
0000
0100
0000
0100
0010
0000
0000
0000
,
0000
0000
0000
0000
0010
0000
0000
0000
0000
0000
0000
0000
1000
0000
0000
0000
0000
0010
0000
0000
0100
0000
0000
0000
0000
0000
0000
0000
0100
0000
0000
0000
0000
0000
0000
0000
0100
0000
0000
0000
0000
0100
0000
0000
0010
0000
0000
0000
0000
0000
0000
0000
0000
0000
0000
0000
1000
0000
0000
0000
0000
0000
0000
0000
,
0010
0000
1000
0000
0000
0000
0001
0100
0000
0010
0000
0100
0001
0000
0000
0000
,
0000
0000
0000
0000
0001
0000
0000
0000
0000
0000
0000
0000
0010
0000
0000
0000
0000
0100
0000
0000
2000
0000
0000
0000
0000
0000
0000
0000
0001
0000
0000
0000
0000
0000
0000
0000
0001
0000
0000
0000
0000
0000
0000
0000
3001
0000
0000
0000
0000
0000
0000
0000
0001
0000
0000
0000
0000
0000
0000
0000
0010
0000
0000
0000
,
0000
1000
0000
0000
0000
0010
0001
0000
1000
0000
0010
1000
0000
0000
0000
0000
,
0100
0000
0000
0000
0000
0000
0000
0000
0010
0000
0000
0000
0000
0100
0000
0000
0002
0000
0000
0000
0000
0000
0000
0000
2003
0000
0000
0000
0000
0000
0000
0000
3000
0000
0000
0000
0000
0001
0000
0000
1000
0000
0000
0000
0000
0000
0000
0000
0000
0000
0000
0000
0001
0000
0000
0000
0000
0000
0000
0000
0010
0000
0000
0000
,
0000
0100
0000
0000
0000
0010
0001
0000
0010
0000
0001
1000
0000
0000
0001
0000
,
1000
0100
1000
0000
0001
0100
0001
0000
1000
0100
1000
0000
0001
0100
0001
0000
,
1000
0010
0100
0001
0010
0110
0000
0000
,
0001
0000
1000
0000
0000
0010
0001
0000
0100
0000
0010
1000
0010
0100
0000
0000
,
0001
0000
0000
0000
0000
0000
0000
0000
0010
0000
0000
0000
0000
0001
0000
0000
0010
0000
0000
0000
0000
0000
0000
0000
0010
0000
0000
0000
0000
0000
0000
0000
0010
0000
0000
0000
0000
0010
0000
0000
0001
0000
0000
0000
0000
0000
0000
0000
0000
0000
0000
0000
0000
0000
0000
0000
1001
0000
0000
0000
0000
0000
0000
0000
,
1000
0001
0100
0000
0001
1000
0100
0000
1000
0001
0100
0000
0001
1000
0200
0000
,
1000
1300
2000
0100
3100
0200
0010
0310
,
0020
0001
0031
0002
1000
1003
2002
0000
,
0000
0000
0000
0000
0000
0000
0000
0000
0000
0000
3003
0000
0000
0000
0001
0100
,
0000
0010
1000
0100
0000
0010
0001
0000
0010
0000
1001
0000
0000
0000
2000
0000
,
0000
0000
0000
0000
0000
0000
0000
0000
3000
0000
0000
0000
0000
0001
0000
0000
0100
0000
0000
0000
0000
0000
0000
0000
0001
0000
0000
0000
0000
0000
0000
0000
1000
0000
0000
0000
0000
0100
0000
0000
1000
0000
0000
0000
0000
0100
0000
0000
1000
0000
0000
0000
0000
0000
0000
0000
0000
0000
0000
0000
0000
0000
0000
0000
,
0001
0000
0000
0000
0000
0000
0000
0000
0100
0000
0000
0000
0000
0001
0000
0000
0100
0000
0000
0000
0000
0000
0000
0000
0100
0000
0000
0000
0000
0000
0000
0000
0100
0000
0000
0000
0000
0100
0000
0000
0010
0000
0000
0000
0000
0000
0000
0000
0000
0000
0000
0000
0000
0000
0000
0000
0000
0000
0000
0000
0000
0000
0000
0000
,
1010
0000
0000
0000
1100
0000
0000
0000
0101
0000
0000
0000
0011
0000
0000
1010
,
0000
0000
1100
0000
0000
0010
1000
0200
0010
0000
0010
0000
0010
0000
0310
0000
,
0000
0000
0000
0000
0000
0000
0000
0000
0000
0000
0000
0000
0000
0010
0000
0000
0001
0000
0000
0000
0000
0000
0000
0000
0011
0000
0000
0000
0000
0000
0000
0000
0001
0000
0000
0000
0010
0000
0000
0000
0001
0000
0000
0000
0000
0000
0000
0000
0000
0000
0000
0000
1000
0000
0000
0000
0100
0000
0000
0000
1000
0000
0000
0000
,
0100
0000
0000
1000
0010
0100
0001
0100
0020
0000
0030
0000
1000
0000
1010
0000
,
0000
0000
0000
0000
0000
0000
0000
0000
0000
0001
0100
0001
0100
0001
0100
0001
0100
0001
0100
0001
0100
0001
1000
0001
,
1000
0001
1000
0001
1000
0001
1000
0001
1000
0000
0000
0000
0000
0000
0000
0000
0000
0000
1001
0000
0000
0000
0000
0000
,
0001
0000
0100
0000
0010
0000
1000
0000
0010
0000
0100
0001
0000
0000
0000
0000
,
0001
0000
0010
0000
0100
0000
1000
0000
0100
0000
0010
0001
0000
0000
0000
0000
,
0100
0000
1000
0000
0100
0000
1000
0100
0010
0001
1000
0100
0010
0001
0010
0000
,
0001
0000
2000
0000
0001
0000
0001
0000
0001
0000
3001
0000
1000
0100
1000
0000
,
0001
0000
0000
0000
1000
0010
0000
0100
0000
0001
0010
0000
0000
0000
0000
0100
,
0000
0000
0000
0000
1000
0000
0000
0000
0000
0010
0000
0000
0100
0000
0000
0000
0000
0000
0000
0000
0001
0000
0000
0000
0000
0000
0000
0000
0001
0000
0000
0000
0000
0001
0000
0000
0010
0000
0000
0000
0000
0000
0000
0000
0000
0000
0000
0000
0010
0000
0000
0000
0000
0000
0000
0000
0100
0000
0000
0000
0000
0000
0000
0000
,
1000
0000
0000
0000
0001
1000
0000
0010
0000
1000
0001
0000
0000
0000
0000
1000
,
0000
0000
0000
0000
0100
0000
0000
0000
0000
0010
0000
0000
0002
0000
0000
0000
0000
0000
0000
0000
1000
0000
0000
0000
0000
0000
0000
0000
1000
0000
0000
0000
0000
0000
0000
0000
1003
0000
0000
0000
0000
0000
0000
0000
0001
0000
0000
0000
0000
0000
0000
0000
1000
0000
0000
0000
0000
0000
0000
0000
0001
0000
0000
0000
,
0000
0000
0000
1000
0010
0000
0100
0000
0010
1000
0000
0000
0000
0000
0001
0000
,
0010
0000
0000
0000
0000
0100
0000
0000
2000
0000
0000
0000
0000
0000
0000
0000
3002
0000
0000
0000
0000
0000
0000
0000
0003
0000
0000
0000
0000
1000
0000
0000
0001
0000
0000
0000
0000
0000
0000
0000
0000
0000
0000
0000
1000
0000
0000
0000
0000
0000
0000
0000
0001
0000
0000
0000
0000
0000
0000
0000
1000
0000
0000
0000
,
0000
0000
0000
0001
0100
0000
0010
0000
1000
0010
0000
0000
1010
0000
1000
0010
,
1000
0000
0001
0010
0001
0000
1000
0010
1000
0000
0001
0010
0001
0000
1000
0000
,
0010
0100
0001
0010
0110
0000
0000
1000
,
0001
0000
0000
1000
0100
0000
0010
0000
0001
0010
0100
1000
0000
0000
1000
0000
,
0100
0000
0000
0000
0000
1000
0000
0000
0100
0000
0000
0000
0000
0000
0000
0000
0100
0000
0000
0000
0000
0000
0000
0000
0100
0000
0000
0000
0000
0100
0000
0000
1000
0000
0000
0000
0000
0000
0000
0000
0000
0000
0000
0000
0000
0000
0000
0000
1001
0000
0000
0000
0000
0000
0000
0000
0001
0000
0000
0000
1000
0000
0000
0000
,
0100
0000
1000
0001
0100
0000
0001
1000
0100
0000
1000
0001
0200
0000
0010
0000
,
0310
0020
1000
1030
2000
0100
3100
0200
,
1000
1300
2000
0001
3001
2002
0000
0000
,
0000
0000
0000
0000
0000
0000
0000
0000
3003
0000
0000
0000
1000
0100
0000
0010
,
0001
0100
0000
0010
1000
0000
0000
0000
1001
0000
0000
0000
0000
0000
0000
0000
;

//---------------dance-single - ----------------
#NOTES:
     dance-single:
     :
     Medium:
     8:
     0.427,0.393,0.146,0.131,0.377,353.000,19.000,17.000,0.000,0.000:
0000
0000
0000
0000
0000
0000
0020
0030
,
1001
0000
0010
0000
0100
0000
0001
0000
0010
0000
0000
0010
0000
0000
0000
0001
,
0010
0100
1000
0000
0001
0000
1000
0000
0001
0000
0010
0000
0001
0000
0100
0000
,
0010
1000
0010
0000
0100
0000
0001
0000
0010
0000
0000
0010
0000
0000
0000
0001
,
0010
0001
0010
0000
0001
0000
0010
0000
0100
0000
0100
0000
0100
0000
0100
0000
,
1000
0001
1000
0000
0010
0000
0100
0000
0001
0000
0000
0001
0000
0000
0000
0001
,
1000
0001
1000
0000
0001
0000
0010
0000
1000
0000
0010
0000
0001
0000
0100
0000
,
0010
1000
0010
0000
0100
0000
0001
0000
0010
0000
0000
0010
0000
0000
0000
0001
,
0010
0100
1000
0000
0001
0000
1000
0000
0002
0000
0000
0000
0000
0000
0010
0000
,
0003
0001
1000
0001
0100
0001
0010
0000
,
0000
0001
1000
0010
1000
0100
1000
0000
,
0000
1000
0010
0100
0001
0001
0010
0010
,
0001
0000
0100
0000
0010
0000
1000
0000
0100
0000
1000
0000
0020
0000
0030
1000
,
0000
0000
0000
0100
0000
0000
0000
0010
0000
0000
0000
0001
0000
0000
0000
0000
,
0000
0100
0000
0010
0000
1000
0000
0010
0000
0100
0000
0001
0000
0000
0000
0010
,
0000
0000
0000
0001
0000
0000
0000
1000
0000
0000
0000
0001
0000
0000
0000
0000
,
0000
0001
0000
0100
0000
0010
0000
1000
0000
1000
0000
1000
0000
0000
0001
0000
,
0000
1000
0000
0010
0000
0100
0000
0000
,
0001
0010
0200
1300
0000
1100
0000
0000
,
1000
0001
0100
0010
0010
0010
0000
1010
,
0000
0000
1001
0000
0000
0000
0101
0000
0000
0000
1001
0000
0000
0000
1000
0001
,
1000
0000
0010
0000
0001
0000
0010
0000
0000
0010
0000
0000
0000
0100
0001
0100
,
0010
0000
1000
0000
0010
0000
0100
0000
0100
0000
0001
0000
0001
0000
1000
0001
,
1000
0000
0001
0000
0100
0000
0010
0000
0000
0010
0000
0000
0000
1000
0010
0100
,
0001
0010
0100
1000
0100
2000
3000
0101
,
0000
0000
0000
0000
0000
0000
0000
0000
0000
0000
0000
0000
0000
0000
0000
1010
0000
0000
0000
0000
0000
0000
0000
0000
0000
0000
0000
0000
0000
0000
0000
0000
0000
0000
0000
0000
0000
0000
0000
1100
0000
0000
0000
0000
0000
0000
0000
0000
0000
0000
0000
0000
0000
0000
0000
0000
0000
0000
0000
0000
0000
0000
0000
0110
,
0000
0000
0000
0000
0000
0000
0000
0000
0000
0000
0000
0000
0000
0000
0000
0000
0000
0000
0000
0000
0000
0000
0000
0011
0000
0000
0000
0000
0000
0000
0000
0000
0000
0000
0000
0000
0000
0000
0000
0000
0000
0000
0000
0000
0000
0000
0000
2002
0000
0000
0000
0000
0000
0000
0000
0000
0000
0000
0000
0000
0000
0000
0000
0000
,
0000
0000
0000
0000
0000
3003
0000
1000
,
0000
0000
0001
0000
0000
0000
0020
0000
0030
0000
0001
0000
0001
0000
1000
0100
,
1000
0000
0010
0000
0100
0000
0001
0000
0000
0001
0000
0000
0000
0001
0010
0100
,
1000
0000
0010
0000
0100
0000
0010
0000
1000
0000
0100
0000
1000
0000
0001
1000
,
0001
0000
0100
0000
0010
0000
1000
0000
0000
1000
0000
0000
0000
1000
0100
1000
,
0100
0000
0010
0000
0001
0000
1000
0000
1000
0000
1000
0000
1000
0000
0001
1000
,
0001
0000
1000
0000
0100
0000
0010
0000
0000
0010
0000
0000
0000
0001
0010
0001
,
0010
0000
0100
0000
1000
0000
0001
0000
1000
0000
0100
0000
0010
0000
0001
0010
,
0001
0000
0100
0000
0010
0000
1000
0000
0000
1000
0000
0000
0000
1000
0010
0100
,
0001
0010
0001
1000
1000
1000
0020
0030
,
1000
0010
0100
0001
0010
0001
0000
0000
,
0001
0010
0100
1000
0100
1000
0000
0000
,
1000
0010
0100
0001
1000
0001
1000
0001
,
0010
0000
0100
0000
1000
0000
0001
0000
0001
0000
0001
0000
0000
1000
0000
0000
,
0000
0010
0000
0000
0000
0100
0000
0000
0000
0001
0000
0000
0000
0000
0000
0001
,
0000
0000
0020
0030
0000
0000
0100
0000
0000
0000
2000
0000
0000
0000
0000
0000
0000
0000
3001
0000
0000
0000
0000
0000
0000
0000
0000
0000
0000
0000
1000
0000
,
0000
0010
0000
0100
0000
0001
0000
0100
0000
0010
0000
0000
0000
0000
0000
0001
,
0000
0010
0000
0100
0000
1000
0000
1000
0000
1000
0000
0000
0010
0000
0000
0000
,
0100
0000
0001
0000
1000
0000
0000
0001
,
0020
0030
0100
0000
2000
0000
0000
0000
3001
0000
0000
0000
0000
0000
0100
0000
,
0010
1000
0010
0010
0010
0000
1000
0000
,
0100
0000
0000
0000
0010
0000
0000
0000
0001
0000
0000
0000
0001
0100
0001
0000
,
0100
0000
0010
0000
1000
0000
0000
1000
0000
0000
0000
1000
0100
1000
0100
0000
,
1000
0000
0010
0000
0100
0000
0001
0000
0010
0000
0001
0000
1000
0001
1000
0000
,
0001
0000
1000
0000
0010
0000
0000
0010
0000
0000
0000
1000
0010
1000
0010
0000
,
0100
0001
0001
0001
0002
0003
0011
0000
,
0000
0000
0000
0000
0000
0000
0000
1100
0000
0000
0000
0000
0000
0000
0000
0000
0000
0000
0000
0000
0000
0000
0000
0000
0000
0000
0000
0000
0000
0000
0000
1010
0000
0000
0000
0000
0000
0000
0000
0000
0000
0000
0000
0000
0000
0000
0000
0000
0000
0000
0000
0000
0000
0000
0000
0101
0000
0000
0000
0000
0000
0000
0000
0000
,
0000
0000
0000
0000
0000
0000
0000
0000
0000
0000
0000
0000
0000
0000
0000
0110
0000
0000
0000
0000
0000
0000
0000
0000
0000
0000
0000
0000
0000
0000
0000
0000
0000
0000
0000
0000
0000
0000
0000
2002
0000
0000
0000
0000
0000
0000
0000
0000
0000
0000
0000
0000
0000
0000
0000
0000
0000
0000
0000
0000
0000
0000
0000
0000
,
0000
0000
3003
1000
,
0010
0000
0000
0000
0001
0000
0000
0000
0200
0000
0000
0300
1001
0000
0000
0000
;

//---------------dance-single - ----------------
#NOTES:
     dance-single:
     :
     Easy:
     6:
     0.296,0.307,0.146,0.061,0.219,243.000,19.000,8.000,0.000,0.000:
0000
0000
0000
0000
,
0001
0000
0010
0000
1000
0000
0010
0000
0001
0000
0000
0001
0000
0000
0000
0000
,
0100
0001
0100
0010
1000
0000
1000
0000
,
0100
0000
0000
0000
0010
0000
0000
0000
0001
0000
0000
0001
0000
0000
0000
0000
,
0001
0100
0001
1000
0001
0000
0001
0000
,
1010
0000
0000
0000
1000
0000
0001
0000
0100
0000
0000
0100
0000
0000
0000
0000
,
0011
1000
1100
0001
,
1000
0000
0010
0000
0100
0000
0001
0000
0010
0000
0000
0010
0000
0000
0000
0000
,
0001
0000
0010
0000
0100
0100
0100
2000
,
3000
0001
0100
0000
0010
0000
1000
0000
,
0000
1000
0100
0000
0010
0000
0001
0000
,
0000
0001
1000
0000
0010
0000
0100
0000
,
0001
0000
0010
0000
0100
0000
1000
0000
0100
0000
0000
0000
1100
0000
0000
1000
,
0000
0000
0000
0100
0000
0000
0000
0010
0000
0000
0000
0001
0000
0000
0000
0000
,
0000
0001
0000
0200
0000
0300
0000
0010
0000
0000
0000
1000
0000
0000
0000
0000
,
0000
0010
0000
0100
0000
0000
0000
0001
0000
0000
0000
1000
0000
0000
0000
0000
,
0000
0001
0000
1000
0000
0001
0000
1000
0000
0100
0000
1000
0000
0000
1000
0000
,
0000
0100
0000
0010
0000
0001
0000
0000
,
0100
0001
0000
0101
0000
1001
0000
0000
,
1000
0010
1000
0010
0000
1010
0000
0200
,
0000
0000
0000
0000
0000
0000
0000
0301
,
0000
0000
0010
0000
0100
0000
1000
0000
0000
1000
0000
0000
0000
0000
1000
0000
,
0000
0010
0100
0001
0010
0001
0100
0010
,
0000
0000
1000
0000
0100
0000
1000
0000
0000
0001
0000
0000
0000
0000
0100
0000
,
0000
0001
0000
1000
0000
0100
0000
0010
,
0000
0000
0000
0000
0000
0000
0000
0000
0000
0000
0000
0000
0000
0000
0000
0001
0000
0000
0000
0000
0000
0000
0000
0000
0000
0000
0000
0000
0000
0000
0000
0000
0000
0000
0000
0000
0000
0000
0000
0100
0000
0000
0000
0000
0000
0000
0000
0000
0000
0000
0000
0000
0000
0000
0000
0000
0000
0000
0000
0000
0000
0000
0000
0010
,
0000
0000
0000
0000
0000
0000
0000
0000
0000
0000
0000
0000
0000
0000
0000
0000
0000
0000
0000
0000
0000
0000
0000
1000
0000
0000
0000
0000
0000
0000
0000
0000
0000
0000
0000
0000
0000
0000
0000
0000
0000
0000
0000
0000
0000
0000
0000
0200
0000
0000
0000
0000
0000
0000
0000
0000
0000
0000
0000
0000
0000
0000
0000
0000
,
0000
0000
0000
0000
0000
0000
0000
1300
,
0000
0001
0000
1000
0000
1001
0000
0020
,
0000
0000
0130
0000
0001
0000
1000
0000
0000
1000
0000
0000
0000
0000
1000
0000
,
0000
0010
0100
0001
0000
0101
0000
0001
,
0000
0000
0010
0000
0100
0000
1000
0000
0000
1000
0000
0000
0000
0000
0010
0000
,
0000
1001
0000
0010
0000
1001
0000
1000
,
0000
0000
0001
0000
0100
0000
0001
0000
0000
0001
0000
0000
0000
0000
0001
0000
,
0000
0010
0000
0100
0000
1000
0000
0010
,
0000
0000
0100
0000
0001
0000
1000
0000
0000
1001
0000
0000
0000
0000
2000
0000
,
0000
0001
0000
0001
0000
0000
3001
0000
,
0001
0100
0000
0010
0000
1000
0000
0000
,
1000
0100
0000
0010
0000
0001
0000
0000
,
0001
0100
0000
0010
1000
0010
1000
0100
,
0000
0000
0010
0000
0000
0000
0001
0000
0000
0000
1000
0000
0000
0010
0000
0000
,
0000
1000
0000
0000
0000
0001
0000
0000
0000
0010
0000
0000
0000
0000
0000
0001
,
0000
0010
0000
0000
0000
0100
0000
0000
0000
1000
0000
0000
0000
0000
0000
1000
,
0000
0010
0000
0000
0000
0100
0000
0000
0000
0001
0000
0000
0000
0000
0000
0001
,
0000
1000
0000
0000
0000
0100
0000
0100
0000
0100
0000
0000
1000
0000
0000
0000
,
0010
0000
0001
0000
0010
0000
0000
1000
,
0100
0000
0100
0000
1100
0000
0000
1000
,
0001
0000
0010
0010
0010
0000
0011
0000
,
1001
0101
1001
1000
,
0010
0000
0100
0000
0010
0000
0000
0010
0000
0000
0000
0000
1000
0000
0000
0000
,
0100
0010
0001
0000
0001
0000
0101
0000
,
0001
0000
0100
0000
0010
0000
0000
1000
0000
0000
0000
0000
1000
0000
0000
0000
,
0001
1000
0001
1000
,
0000
0000
0000
0000
0000
0000
0000
0010
0000
0000
0000
0000
0000
0000
0000
0000
0000
0000
0000
0000
0000
0000
0000
0000
0000
0000
0000
0000
0000
0000
0000
0100
0000
0000
0000
0000
0000
0000
0000
0000
0000
0000
0000
0000
0000
0000
0000
0000
0000
0000
0000
0000
0000
0000
0000
0001
0000
0000
0000
0000
0000
0000
0000
0000
,
0000
0000
0000
0000
0000
0000
0000
0000
0000
0000
0000
0000
0000
0000
0000
0010
0000
0000
0000
0000
0000
0000
0000
0000
0000
0000
0000
0000
0000
0000
0000
0000
0000
0000
0000
0000
0000
0000
0000
0200
0000
0000
0000
0000
0000
0000
0000
0000
0000
0000
0000
0000
0000
0000
0000
0000
0000
0000
0000
0000
0000
0000
0000
0000
,
0000
0000
0000
1300
,
1000
1000
1001
0200
,
0000
0300
0000
0000
0000
0000
0000
0000
;
