#TITLE:Odorikuruu Mamboleo;
#SUBTITLE:- Best AMV 2001;
#ARTIST:Elissa;
#TITLETRANSLIT:;
#SUBTITLETRANSLIT:;
#ARTISTTRANSLIT:;
#CREDIT:;
#BANNER:Mamboleo.png;
#BACKGROUND:MamboleoBG.png;
#LYRICSPATH:;
#CDTITLE:;
#MUSIC:Mamboleo.mp3;
#OFFSET:1.940;
#SAMPLESTART:46.881;
#SAMPLELENGTH:12.000;
#SELECTABLE:ROULETTE;
#BPMS:0.000=130.120,260.500=65.060,260.750=65.060,267.250=130.120,267.500=130.120;
#STOPS:260.500=0.200
,267.250=0.260
;
#BGCHANGES:33.000=mamboleo.avi=1.000=0=0=1,
465.000=mamboleobg.png=1.000=0=0=1,
99999=-nosongbg-=1.000=0=0=0 // don't automatically add -songbackground-
;
// cache tags:
#FIRSTBEAT:34.000;
#LASTBEAT:464.000;
#SONGFILENAME:Songs/Anime Songs/Mamboleo/Mamboleo.sm;
#HASMUSIC:1;
#HASBANNER:1;
#MUSICLENGTH:222.409;
// end cache tags

//---------------dance-single - Challenge----------------
#NOTES:
     dance-single:
     Challenge:
     Challenge:
     5:
     0.330,0.443,0.414,0.085,0.000,402.000,92.000,19.000,0.000,0.000:

0000
0000
0000
0000
,
0000
0000
0000
0000
,
0000
0000
0000
0000
,
0000
0000
0000
0000
,
0000
0000
0000
0000
,
0000
0000
0000
0000
,
0000
0000
0000
0000
,
0000
0000
0000
0000
,
0000
0000
0001
0001
,
0001
0001
1000
1000
,
1000
1000
0001
0001
,
0001
0001
0110
1001
,
0110
0000
1000
1000
,
1000
1000
0001
0001
,
0001
0001
1000
1000
,
1000
1000
0110
1001
,
0110
0000
0100
1000
,
0100
1000
0100
1000
,
0100
1100
0100
0001
,
0100
0001
0100
0001
,
0100
0101
1000
0100
,
0001
0100
1000
0100
,
0001
0100
1000
0100
,
0001
0100
1000
0100
,
0001
0100
0000
0100
,
0100
0100
0100
0100
,
0010
0010
0010
1000
,
1000
1000
1000
0001
,
0001
0001
0001
0010
,
1000
1000
1000
0010
,
0001
0001
0001
1000
,
0001
1000
1000
0001
,
1001
0200
0000
0300
,
0110
0100
1100
0010
,
0101
0100
1001
0010
,
1001
0100
1001
0110
,
1001
0110
1001
1000
,
1000
1000
0100
1000
,
0001
0001
0100
0001
,
0010
0100
1000
0001
,
0110
1001
0110
0000
,
1000
1000
0001
0001
,
1000
0100
0001
1000
,
0001
0001
1000
1000
,
1001
0110
1001
0000
,
0001
0001
1000
1000
,
0001
0100
1000
1000
,
0001
0001
0010
0100
,
1000
1000
1000
0100
,
0010
0001
0010
0010
,
1000
1000
0100
0100
,
0001
0001
0010
0100
,
0010
0100
0110
0200
,
0000
0300
1001
0100
,
1100
0100
0101
0010
,
1100
0100
0101
0100
,
1001
0010
1001
0110
,
1001
0000
1000
0001
,
0100
0100
0001
1000
,
0100
0100
1000
0001
,
0010
0010
0110
1001
,
0110
0000
1100
0101
,
1100
0101
0110
1001
,
0110
0000
1100
0101
,
1100
0101
0110
1001
,
0110
0000
0100
0001
0100
1000
0100
0001
,
0100
1000
0100
0001
0100
1000
0001
0000
,
1000
0001
1000
0100
,
1000
0100
1000
0100
,
0100
1100
0100
0100
,
0001
0100
0001
0001
,
0101
1000
1000
0001
,
0001
1000
0001
1000
,
0001
1001
0100
0010
,
0100
0010
0100
0010
,
1001
0110
2000
3000
,
0002
0003
2000
3000
,
0200
0300
0020
0030
,
0002
0003
0200
0300
,
0020
0030
2000
3000
,
0002
0003
0200
0300
,
0020
0030
2000
3000
,
0002
0003
0220
0000
,
0000
0330
0000
0000
0001
0000
0001
0000
,
0100
0001
1000
0001
,
1001
1000
1000
0100
,
1000
0001
0001
1000
,
1001
0000
0001
0001
,
0100
0001
0001
1000
,
1001
1000
1000
0100
,
1000
0001
1000
0001
,
1001
0010
0010
0020
,
0000
0030
0000
0000
0100
0000
1000
0000
,
0100
1100
0100
0001
,
0100
0101
0010
0100
,
0010
0110
1001
0110
,
1001
0001
0001
0100
,
0001
0101
1000
1000
,
0100
1100
1000
0001
,
1000
1001
0110
1001
,
0110
0000
1000
1000
,
0100
1100
0001
0001
,
0100
0101
1000
0001
,
1000
1001
0110
1001
,
0110
0001
0001
0100
,
0001
0101
1000
0100
,
1000
1100
0001
0100
,
0001
0101
0110
1001
,
0110
0000
0001
0001
,
0001
0001
1000
1000
,
1000
1000
0001
0001
,
0001
0001
1001
0110
,
1001
0000
0001
0001
,
0001
0001
1000
1000
,
1000
1000
0001
0001
,
0001
0001
0110
1001
,
0110
0000
0000
0000;
