#TITLE:Dawn of Victory;
#SUBTITLE:Dawn of Victory (2000);
#ARTIST:Rhapsody;
#TITLETRANSLIT:;
#SUBTITLETRANSLIT:;
#ARTISTTRANSLIT:;
#CREDIT:;
#BANNER:BN.png;
#BACKGROUND:BG.png;
#LYRICSPATH:;
#CDTITLE:CDTitle.gif;
#MUSIC:Rhapsody - Dawn Of Victory.mp3;
#OFFSET:-3.630;
#SAMPLESTART:61.708;
#SAMPLELENGTH:13.240;
#SELECTABLE:YES;
#BPMS:0.000=190.000,840.000=100.001,848.000=92.001,852.000=90.001,856.000=89.001;
#STOPS:;
#BGCHANGES:;
// cache tags:
#FIRSTBEAT:0.000;
#LASTBEAT:864.500;
#SONGFILENAME:Songs/Astronomic Metal Collection 2/(Charlo) Dawn of Victory/Dawn Of Victory.sm;
#HASMUSIC:1;
#HASBANNER:1;
#MUSICLENGTH:290.612;
// end cache tags

//---------------dance-single - ----------------
#NOTES:
     dance-single:
     :
     Hard:
     13:
     1.000,1.000,1.000,1.000,1.000,2363.000,291.000,310.000,0.000,0.000:
1100
0010
0100
0010
1000
0100
1000
0100
0010
0001
0010
0001
0100
0010
0100
0010
,
1001
0100
0010
0100
0010
0001
0010
0001
0020
0000
2030
0000
3200
0000
2300
3000
,
0011
0100
1000
0100
1000
0001
1000
0001
0010
0100
0010
0100
0010
0001
0010
0001
,
1010
0100
0001
0100
0001
1000
0001
1000
0020
0000
2030
0000
3200
0000
0000
0300
,
0011
1000
0010
1000
0001
0100
0001
0100
0010
0100
0010
0100
0001
1000
0001
1000
,
0011
0100
1000
0100
0010
0001
0010
0001
2000
0000
3002
0000
0203
0000
0320
0030
,
1100
0001
0010
0001
1000
0001
1000
0001
0010
0100
0010
0100
1000
0100
1000
0100
,
0011
1000
0100
1000
0001
0100
0001
0100
0010
1000
0001
0100
0010
0100
0001
0010
,
2002
0000
0000
3003
0011
0000
1100
0000
0022
0000
0000
0000
0000
0000
0000
0033
,
0000
0000
1000
0010
0100
0001
0010
0001
,
1000
0000
0000
0000
0110
0000
1010
0000
0220
0000
0000
0000
0000
0000
0000
0330
,
0001
0000
0000
0000
1000
0000
0001
0000
0010
0000
0100
0000
0020
0000
0000
0030
,
2001
0000
0000
3100
0011
0000
1100
0000
,
0101
0000
0010
0100
1000
0010
0001
1000
,
0110
0000
0000
0000
0001
0000
0010
0000
0002
0000
0000
0000
0000
0000
0000
0003
,
0200
0000
0000
0000
0000
0000
0000
0000
0000
0000
0000
0000
0000
0000
0000
0300
,
0011
0000
0000
0000
1010
0000
0101
0000
2020
0000
0000
0000
0000
0000
0000
3030
,
0000
0000
0100
0010
1000
0001
0100
1000
,
0010
0000
0000
0000
0110
0000
1001
0000
0220
0000
0000
0000
0000
0000
0000
0330
,
0001
0000
0000
0000
1000
0000
0001
0000
0010
0000
0100
0000
0020
0000
0000
0030
,
0201
0000
0000
0310
1001
0000
1100
0000
,
0110
0000
0001
0010
1000
0100
0001
0100
,
0010
0000
0000
0000
0100
0000
0010
0000
2000
0000
0000
0000
0010
0000
0100
3000
,
0220
0000
0000
0000
0000
0000
0000
0330
1000
0000
0001
0100
0001
1000
0010
1000
,
0110
0000
0010
0000
0100
0000
0100
0000
0010
0000
0010
0000
1000
0000
1000
0100
,
0020
0000
0030
0100
0002
0000
0003
1000
,
0002
0000
0003
1000
0010
0100
0010
1000
,
0200
0000
0000
0000
0300
0000
0010
0001
0020
0000
0000
0000
0030
0000
0001
0000
,
2000
0000
3000
0010
0100
0001
1000
0010
,
0200
0000
0300
0000
0020
0000
0030
1000
,
0101
0101
1100
1100
0110
0110
1001
1001
,
0202
0000
0000
0303
0022
0000
0000
0033
2200
0000
0000
3300
0220
0000
0000
0330
,
1001
0000
0000
0000
0000
0000
0000
0000
0022
0000
0000
0000
0000
0000
0000
0033
,
1100
0010
0001
0100
0010
0100
0001
0010
0001
1000
0010
1000
0100
0010
0001
0100
,
0010
1000
0100
0010
0100
1000
0001
0010
0001
1000
0010
1000
0100
0010
0001
1000
,
0220
0000
0000
0330
2200
0000
0000
3300
0202
0000
0000
0303
2002
0000
0000
3003
0220
0000
0000
0330
2200
0000
0000
3300
,
0202
0000
0000
0303
2020
0000
0000
3030
0022
0000
0000
0033
2200
0000
0000
0000
0000
0000
0000
0000
0000
0000
0000
0000
,
0000
0000
0000
0000
3300
0000
0110
0000
0011
0100
1000
0010
0100
0001
0010
0001
,
1000
0010
1000
0100
0010
0001
0100
0010
1000
0100
0010
0001
1000
0100
1000
0001
,
0100
0000
0000
0001
0000
0000
0010
0000
0000
0100
0000
0000
1000
0000
0000
0010
0000
0000
0100
0000
0000
0001
0000
0000
2020
0000
0000
0000
0000
0000
3030
0000
0220
0000
0000
0000
0000
0000
0330
0000
0202
0000
0000
0000
0000
0000
0303
0000
,
2020
0000
0000
3030
0220
0000
0000
0330
0022
0000
0000
0033
2020
0000
0000
3030
2002
0000
0000
3003
0220
0000
0000
0330
,
2002
0000
0000
0000
0000
0000
0000
0000
0000
0000
3003
0000
0020
0000
0000
0030
,
0101
1000
0010
1100
0010
0100
0101
1000
,
0011
0100
1000
0110
1000
0001
0101
1000
,
0110
0000
0000
0000
0000
0000
0000
0000
2002
0000
0000
0000
0000
0000
0000
3003
,
0011
0100
1000
0010
0100
0010
1000
0100
0010
0001
1000
0010
1000
0001
0010
0100
,
1000
0001
0100
0001
0010
0100
1000
0001
0100
0010
1000
0010
0100
0001
1000
0100
,
2020
0000
0000
3030
0220
0000
0000
0330
2200
0000
0000
3300
0220
0000
0000
0330
0202
0000
0000
0303
2002
0000
0000
3003
,
0202
0000
0000
0303
0022
0000
0000
0033
0220
0000
0000
0330
2002
0000
0000
0000
0000
0000
0000
0000
0000
0000
0000
0000
,
0000
0000
0000
0000
3003
0000
0011
0000
1100
0010
0001
0100
0010
1000
0100
1000
,
0010
0100
0001
0010
0100
1000
0010
0100
0001
0010
0100
1000
0001
0100
0001
1000
,
0100
0000
0000
0010
0000
0000
0100
0000
0000
1000
0000
0000
0001
0000
0000
0010
0000
0000
0100
0000
0000
0010
0000
0000
2002
0000
0000
0000
0000
0000
3003
0000
2020
0000
0000
0000
0000
0000
3030
0000
0022
0000
0000
0000
0000
0000
0033
0000
,
2020
0000
0000
3030
0220
0000
0000
0330
2200
0000
0000
3300
2002
0000
0000
3003
0202
0000
0000
0303
0220
0000
0000
0330
,
2002
0000
0000
0000
0000
0000
0000
0000
0000
0000
3003
0000
0200
0000
0000
0300
,
0011
1000
0100
1100
0001
0100
0011
0100
,
1010
0010
0001
1001
0100
1000
0110
0001
,
1010
0000
0000
0000
0000
0000
0000
0000
0022
0000
0000
0000
0000
0000
0000
0033
,
0202
0000
0000
0000
0000
0000
0000
0303
0220
0000
0000
0000
0000
0000
0000
0330
,
1001
0100
0010
0001
1000
0100
1000
0001
0010
0001
1000
0010
1100
0010
0001
1000
,
0110
0001
0010
0100
1000
0010
0100
0001
0110
1000
0100
1000
0001
0100
0001
1000
,
0101
0010
0100
1000
0010
0100
0001
1000
0100
0010
0100
1000
0110
0001
0010
0100
,
1001
0010
0100
1000
0001
0010
0001
1000
0010
1000
0100
0010
0100
1000
0001
0010
,
1100
0001
0010
0100
1000
0001
0100
0010
1000
0100
0010
0001
0110
1000
0010
0100
,
0011
1000
0100
0010
0001
1000
0100
0010
1001
0010
0100
0010
0001
1000
0010
0100
,
0011
1000
0010
0100
0010
1000
0001
0010
0100
1000
0001
1000
0101
0010
0001
1000
,
0110
0001
1000
0010
0100
0010
1000
0100
0010
0100
1000
0001
0010
0001
1000
0010
,
2100
0000
0000
0000
0000
0000
0000
0000
0000
0000
0000
0000
0010
0000
0000
0000
0100
0000
0000
0000
0010
0000
0000
0000
0100
0000
0000
0000
0000
0000
0000
0000
0000
0000
0000
0000
0100
0000
0000
0000
0010
0000
0000
0000
0100
3000
0000
0000
,
0012
0000
0000
1000
0100
1000
0100
1000
0100
1000
0100
1000
,
0100
0000
0000
0000
0000
0000
0000
0000
0000
0000
0000
0000
0100
0000
0000
0000
1000
0000
0000
0000
0100
0003
0000
0000
2010
0000
0000
0000
0000
0000
0000
0000
0000
0000
0000
0000
0001
0000
0000
0000
0010
0000
0000
0000
0001
3000
0000
0000
,
0020
0000
0000
0000
0000
0000
0000
0000
0000
0000
0000
0000
0001
0000
0000
0000
0100
0000
0000
0000
0001
0030
0000
0000
0200
0000
0000
0000
0001
0000
0000
0000
1000
0000
0000
0000
0001
0000
0000
0000
1000
0000
0000
0000
0001
0300
0000
0000
,
1100
0010
0001
0100
0010
0100
0001
0010
0100
1000
0001
0100
0010
1000
0100
0010
,
1001
0100
0010
0100
1000
0001
0010
0001
1000
0010
1000
0100
0010
0100
1000
0001
,
0010
0001
1000
0010
1000
0100
0010
0100
1000
0001
0010
0100
1000
0001
0010
0100
,
1010
0001
0100
0010
1000
0100
0010
0001
0110
1000
0100
0010
0100
1000
0001
1000
,
0110
0001
1000
0010
0100
0001
0010
0100
1000
0010
0100
0001
1000
0100
0010
0001
,
1100
0010
0001
0100
0010
1000
0100
0010
0001
1000
0010
1000
0001
0100
0010
1000
,
0101
0010
0100
1000
0001
0100
0010
1000
0100
0010
0100
1000
0001
0010
0100
0010
,
1001
0100
0010
0100
1000
0001
0100
0010
0100
0001
0010
0100
1000
0001
1000
0010
,
0101
0010
1000
0010
1000
0001
1000
0001
0010
0100
0010
0100
1000
0100
1000
0100
,
0011
1000
0001
1000
0010
0100
0010
0100
0002
0000
2003
0000
3200
0000
0320
0030
,
1100
0001
0100
0001
0100
0010
0100
0010
1000
0100
1000
0100
0010
0001
0010
0001
,
1010
0100
0010
0100
1000
0100
1000
0100
0020
0000
2030
0000
3002
0000
0000
0003
,
0110
1000
0001
1000
0010
0100
0010
0100
0001
0100
0001
0100
0010
1000
0010
1000
,
0110
1000
0100
1000
0001
0010
0001
0010
0002
0000
2003
0000
3200
0000
2300
3000
,
0101
0010
1000
0010
1000
0100
1000
0100
0010
0001
0010
0001
1000
0010
1000
0010
,
1001
0100
0010
0100
0010
0001
0010
0001
1000
0010
0100
0001
0010
0100
0010
0001
,
1100
0000
0000
0000
0110
0000
0101
0000
0220
0000
0000
0000
0000
0000
0000
0330
,
0000
0000
1000
0010
1000
0001
0100
1000
,
0010
0000
0000
0000
1100
0000
0101
0000
2200
0000
0000
0000
0000
0000
0000
3300
,
0010
0000
0000
0000
0100
0000
0001
0000
1000
0000
0100
0000
0002
0000
0000
0003
,
0120
0000
0000
1030
0101
0000
1100
0000
,
0110
0000
0001
1000
0100
1000
0001
0010
,
1100
0000
0010
1000
0200
0000
0000
0000
,
0302
0000
0000
0000
0000
0000
0000
0000
0000
0000
1003
0100
1000
0001
0010
0001
,
0110
1000
0001
0100
0001
0010
0100
1000
0001
0100
0001
0010
0100
0010
0001
1000
,
0001
0100
0010
0100
0001
1000
0100
0010
0001
1000
0100
0010
0001
1000
0001
0010
,
2200
0000
0000
3300
2002
0000
0000
3003
2020
0000
0000
3030
0022
0000
0000
0033
0202
0000
0000
0303
0022
0000
0000
0033
,
0220
0000
0000
0330
2200
0000
0000
3300
0202
0000
0000
0303
2002
0000
0000
0000
0000
0000
0000
0000
0000
0000
0000
0000
,
0000
0000
0000
0000
0000
3003
1100
0000
0101
0010
0001
1000
0010
1000
0100
0010
,
0001
1000
0010
1000
0100
0010
0001
0100
0001
0010
0100
1000
0010
1000
0001
0010
,
0001
0000
0000
1000
0000
0000
0100
0000
0000
1000
0000
0000
0001
0000
0000
0100
0000
0000
0010
0000
0000
1000
0000
0000
0220
0000
0000
0000
0000
0000
0330
0000
0202
0000
0000
0000
0000
0000
0303
0000
2002
0000
0000
0000
0000
0000
3003
0000
,
0220
0000
0000
0330
2002
0000
0000
3003
2200
0000
0000
3300
0220
0000
0000
0330
2020
0000
0000
3030
0022
0000
0000
0033
,
0202
0000
0000
0000
0000
0000
0000
0000
0000
0000
0000
0303
2000
0000
0000
3000
,
0110
0001
1000
1010
0100
0010
0101
0010
,
0011
1000
0100
1010
0100
1000
0110
0001
,
1001
0000
0000
0000
0000
0000
0000
0000
0022
0000
0000
0000
0000
0000
0000
0033
,
2020
0000
0000
0000
0000
0000
0000
3030
0220
0000
0000
0000
0000
0000
0000
0330
,
1100
0010
0001
0100
0010
1000
0100
1000
0001
0010
0001
1000
0110
0001
1000
0010
,
1100
0001
0010
0100
1000
0001
1000
0100
0011
1000
0010
0100
0001
0010
0100
1000
,
0110
0001
1000
0001
0010
0100
1000
0010
0100
0001
0010
0100
1010
0001
0100
0010
,
1100
0010
0001
1000
0010
1000
0100
0010
0001
0100
0010
1000
0001
0010
0001
1000
,
0011
1000
0100
0010
0001
0010
0100
1000
0100
0010
0001
1000
0101
0010
0100
1000
,
0110
0001
0010
0100
1000
0001
0100
0010
1100
0010
0001
1000
0010
1000
0100
0010
,
1001
0010
0100
0010
0001
1000
0010
0100
0010
1000
0100
0010
1100
0001
0010
0100
,
1001
0010
0100
0010
0001
1000
0100
0010
0100
1000
0001
0100
0010
0100
0001
1000
,
0120
0000
0000
0100
1000
0100
1000
0000
0000
1000
0100
1030
,
0201
0000
0000
0010
1000
0010
1000
0010
1000
0010
1000
0010
,
1000
0000
0000
0001
0010
0301
1020
0000
0000
0100
0001
0130
,
1002
0000
0000
0010
1000
0013
2100
0001
0100
0001
0100
3001
,
0110
1000
0001
0100
0001
0010
0100
1000
0001
0100
0010
1000
0100
0010
0100
1000
,
0101
0010
0100
1000
0001
0100
0010
1000
0100
0010
0001
1000
0100
1000
0010
0100
,
0001
1000
0100
0010
0100
1000
0001
0100
0010
0100
0001
1000
0010
1000
0001
0010
,
1100
0001
0100
0010
1000
0100
0010
0001
1010
0100
0010
0001
0100
0010
0100
0001
,
0110
1000
0001
0100
0010
1000
0001
0010
0001
1000
0010
1000
0001
0100
0001
0010
,
1100
0001
0100
0010
1000
0100
0010
0001
0100
0010
1000
0100
1000
0001
0100
0001
,
0110
1000
0001
0010
0100
1000
0001
1000
0100
0010
0001
1000
0100
1000
0010
0100
,
1001
0010
0100
1000
0010
0100
0010
1000
0100
0010
0001
1000
0001
0010
0100
0010
,
0001
1000
0100
0010
0000
0000
0001
1000
0010
1000
0000
0000
0100
0010
0001
0010
0000
0000
0100
1000
0010
0100
0000
0000
,
0001
0010
0001
1000
0000
0000
0100
1000
0010
0100
0000
0000
0001
0010
0100
0010
0000
0000
0001
1000
0010
1000
0000
0000
,
0001
0010
0100
1000
0000
0000
0100
0010
0100
1000
0000
0000
0001
0010
0100
1000
0000
0000
0001
0100
0010
1000
0000
0000
,
0100
0000
0010
0000
0001
0000
0100
0000
0010
0000
1000
0000
0002
0000
0000
0000
0000
0000
0000
0000
0000
0000
0000
0003
,
1000
0100
0010
0001
0000
0000
1000
0100
1000
0010
0000
0000
0100
0010
1000
0100
0000
0000
0010
0001
0010
0100
0000
0000
,
1000
0001
0100
0001
0000
0000
0010
0100
1000
0010
0000
0000
1000
0100
0010
0001
0000
0000
1000
0010
0100
0001
0000
0000
,
0010
0100
0010
0001
0000
0000
1000
0010
0100
0001
0000
0000
1000
0010
1000
0001
0000
0000
0010
0100
1000
0001
0000
0000
,
1000
0000
0100
0000
0010
0000
0100
0000
1000
0000
0001
0000
0200
0000
0000
0000
0000
0000
0000
0000
0000
0000
0000
0300
,
1000
0100
1000
0100
0010
1000
0010
1000
0100
0010
0100
0010
0001
0100
0001
0100
,
1000
0001
1000
0001
0010
1000
0010
1000
0100
0010
0100
0010
0001
0010
0001
0010
,
1000
0100
1000
0100
0010
1000
0010
1000
0100
0010
0100
0010
0001
0100
0001
0100
,
1000
0001
1000
0001
0010
1000
0010
1000
0002
0000
0023
0000
0230
0000
0320
0000
,
0031
1000
0001
1000
0100
0001
0100
0001
0010
0100
0010
0100
1000
0010
1000
0010
,
0001
0010
0001
0010
0100
0001
0100
0001
0010
0100
0010
0100
1000
0010
1000
0010
,
0001
1000
0001
1000
0100
0001
0100
0001
0010
0100
0010
0100
1000
0010
1000
0010
,
0001
0010
0001
0010
0100
0001
0100
0001
2000
0000
3200
0000
0320
0000
0230
0000
,
2300
0000
0000
0000
0000
0000
3100
0000
0000
0010
0000
0001
0010
0100
1000
0200
0000
0000
0000
0000
0000
0320
0000
0000
,
2030
0000
0000
0000
0000
0000
0000
0000
0000
0000
0000
0000
0000
0000
0000
0000
0000
0000
3000
0000
0000
0000
0000
0000
1000
0000
0000
0000
0000
0000
0000
0000
0100
0000
0000
0000
0000
0000
0000
0000
0010
0000
0000
0000
0000
0000
0000
0000
0002
0000
0000
0000
0000
0000
0000
0000
0000
0000
0000
0000
0000
0000
0000
0000
0000
0000
0000
0000
0000
0000
0000
0000
0103
0000
0000
0000
0000
0000
0000
0000
0010
0000
0000
0000
0000
0000
0000
0000
0001
0000
0000
0000
0000
0000
0000
0000
1000
0000
0000
0000
0000
0000
0000
0000
0001
0000
0000
0000
0000
0000
0000
0000
0010
0000
0000
0000
0000
0000
0000
0000
0200
0000
0000
0000
0000
0000
0000
0000
0000
0000
0000
0000
0000
0000
0000
0000
0000
0000
0000
0000
0000
0000
0000
0000
0000
0000
0000
0000
0000
0000
0000
0000
0000
0000
0000
0000
0000
0000
0000
0000
0000
0000
0000
0000
0000
0000
0000
0000
0000
0000
0000
0000
0000
0000
0000
0000
0000
0300
0000
0000
0000
0000
0000
0000
0000
0000
0000
0000
0000
0000
0000
0000
,
0002
0000
0000
0000
0000
0000
0000
0000
0000
0000
0000
0000
0000
0000
0000
0000
0000
0000
0000
0000
0000
0000
0000
0000
0000
0000
0000
0000
0000
0000
0000
0000
0000
0000
0000
0000
0000
0000
0000
0000
0000
0000
0000
0000
0000
0000
0000
0000
0000
0000
0000
0000
0000
0000
0000
0000
0000
0000
0000
0000
0000
0000
0000
0000
0000
0000
0000
0000
0000
0000
0000
0000
1003
0000
0000
0000
0000
0000
0000
0000
0100
0000
0000
0000
0000
0000
0000
0000
0000
0000
0000
0000
0010
0000
0000
0000
0000
0000
0000
0000
0000
0000
0001
0000
0000
0000
0000
0000
0000
0000
0000
0000
0010
0000
0000
0000
0000
0000
0000
0000
0200
0000
0000
0000
0000
0000
0000
0000
0000
0000
0000
0000
0000
0000
0000
0000
0000
0000
0000
0000
0000
0000
0000
0000
0000
0000
0000
0000
0000
0000
0000
0000
0000
0000
0000
0000
0000
0000
0000
0000
0000
0000
0000
0000
0000
0000
0000
0000
0310
0000
0000
0000
0000
0000
0000
0000
0000
0000
0000
0000
0000
0000
0000
0000
0000
0000
0000
0000
0000
0000
0000
0000
,
1000
0001
0100
0010
2000
0000
0000
0000
,
3002
0000
0000
0000
0000
0000
0000
0000
0000
0103
0000
0001
1000
0010
0100
0020
0000
0000
0000
0000
0000
1030
0000
0000
,
0100
0000
0010
0001
2000
0000
3010
0100
0001
0010
0002
0000
0000
0000
0003
0000
,
0020
0000
0000
0000
0000
0000
0030
0000
0000
1000
0100
0010
0001
0010
0100
2000
0000
0000
0000
0000
0000
3100
0000
0000
,
0010
0000
0100
0000
0001
0000
0010
0000
0200
0000
0000
0000
0000
0000
0000
0300
,
1000
0100
0010
0001
0000
0000
1000
0010
0100
0001
0000
0000
0010
0100
0010
0001
0000
0000
1000
0100
0010
0100
0000
0000
,
1000
0100
1000
0001
0000
0000
0010
0100
0010
0001
0000
0000
1000
0100
0010
0001
0000
0000
0100
0010
1000
0100
0000
0000
,
0010
0001
0010
0100
0000
0000
1000
0010
0100
0001
0000
0000
0010
0100
1000
0001
0000
0000
1000
0100
0010
0001
0000
0000
,
1000
0010
0100
0001
0010
0001
0200
0000
0000
0000
0000
0300
,
0001
0010
0100
0010
0000
0000
0001
0100
0010
1000
0000
0000
0100
0010
0100
1000
0000
0000
0001
0100
0001
1000
0000
0000
,
0010
1000
0100
0010
0000
0000
0001
0010
0100
1000
0000
0000
0010
0100
0001
0010
0000
0000
0100
1000
0010
0100
0000
0000
,
0001
0010
0001
1000
0000
0000
0100
1000
0010
1000
0000
0000
0100
0010
0001
1000
0000
0000
0001
0010
0100
1000
0000
0000
,
0001
0010
0001
1000
0010
1000
0200
0000
0000
0000
0000
0000
,
0310
0001
1000
0010
1000
0100
0010
0100
1000
0001
0100
0010
,
1000
0000
0000
0000
0000
0000
0000
0000
0000
0000
0000
0000
0000
0000
0000
0000
0001
0000
0000
0000
0000
0000
0000
0000
0000
0000
0000
0000
0000
0000
0000
0000
0010
0000
0000
0000
0000
0000
0000
0000
0000
0000
0000
0000
0000
0000
0000
0000
0001
0000
0000
0000
0000
0000
0000
0000
0000
0000
0000
0000
0000
0000
0000
0000
1000
0000
0000
0000
0000
0000
0000
0000
0000
0000
0000
0000
0000
0000
0000
0000
0010
0000
0000
0000
0000
0000
0000
0000
0000
0000
0000
0000
0000
0000
0000
0000
1000
0000
0000
0000
0000
0000
0000
0000
0000
0000
0000
0000
0000
0000
0000
0000
0100
0000
0000
0000
0000
0000
0000
0000
0000
0000
0000
0000
0000
0000
0000
0000
0010
0000
0000
0000
0000
0000
0000
0000
0000
0000
0000
0000
0000
0000
0000
0000
0001
0000
0000
0000
0000
0000
0000
0000
0000
0000
0000
0000
0000
0000
0000
0000
1000
0000
0000
0000
0000
0000
0000
0000
0000
0000
0000
0000
0000
0000
0000
0000
0010
0000
0000
0000
0000
0000
0000
0000
0000
0000
0100
0000
0000
0000
0000
0000
,
0002
0000
0000
0000
0000
0000
0000
0000
0000
0000
0000
0000
0000
0000
0000
0000
0000
0000
0000
0000
0000
0000
0000
0000
0000
0000
0003
0020
0000
0000
0000
0000
0000
0000
0000
0000
0000
0000
0000
0000
0000
0000
0000
0000
0000
0000
0030
0000
,
0110
1000
0001
0100
0001
0010
0100
1000
0001
0100
0010
1000
0010
0100
0001
0010
,
0100
1000
0010
1000
0100
0010
0001
0100
0010
1000
0100
0010
0001
1000
0010
1000
,
0100
0010
0100
1000
0001
0100
0010
0100
0001
1000
0001
0010
0100
0010
0001
0100
,
2020
0000
0000
3030
0220
0000
0000
0330
2002
0000
0000
3003
2020
0000
0000
3030
0220
0000
0000
0330
0202
0000
0000
0303
,
1010
0001
0100
0010
1000
0100
0010
0100
1000
0001
0100
0010
1000
0010
0100
0001
,
0010
0001
1000
0010
1000
0100
0010
0001
0100
0010
1000
0100
1000
0001
0010
0100
,
0010
0001
1000
0010
1000
0001
0010
0001
1000
0100
0010
0100
1000
0001
0100
0010
,
0202
0000
0000
0300
2000
0000
0000
3000
0020
0000
0000
0033
0220
0000
0000
0000
0000
0000
0000
0000
0000
0000
0330
0000
,
1100
0010
0001
0100
0010
0100
0001
0010
0001
1000
0010
1000
0100
0010
0001
1000
,
0100
1000
0001
0100
0001
1000
0010
1000
0100
0010
0001
0100
0010
1000
0100
0010
,
0001
0010
0100
1000
0001
1000
0100
0010
0100
1000
0001
0100
0010
0100
0001
1000
,
0022
0000
0000
0033
0220
0000
0000
0330
0202
0000
0000
0303
2002
0000
0000
3003
2020
0000
0000
3030
2002
0000
0000
3003
,
0110
0001
1000
0010
1000
0100
0010
0001
0010
0100
1000
0010
0100
0001
0010
0100
,
1000
0001
0100
0001
1000
0100
0010
0100
1000
0001
1000
0010
0100
0010
1000
0001
,
0010
0100
0010
0001
0100
0010
1000
0100
0010
0100
1000
0001
0100
0010
1000
0010
,
2200
0000
0000
0000
0000
0000
3300
0000
2020
0000
0000
0000
0000
0000
3030
0000
0202
0000
0000
0000
0000
0000
0303
0000
0220
0000
0000
0000
0000
0000
0000
0000
0000
0000
0000
0000
0000
0000
0000
0330
0000
0000
1001
0000
0000
0000
0000
0000
,
0110
0001
1000
0101
0010
1000
1100
0010
,
0110
0001
1000
0101
0001
1000
0011
1000
,
0110
0000
0000
0000
0000
0000
0000
0000
2200
0000
0000
0000
0000
0000
0000
3300
,
2020
0000
0000
0000
0000
0000
0000
3030
2200
0000
0000
0000
0000
0000
0000
3300
,
0110
0001
1000
0010
1000
0100
0010
0001
0100
0010
0100
0001
0110
1000
0001
1000
,
0101
0010
0001
1000
0010
0100
0001
1000
0011
0100
1000
0010
0100
0001
0100
0010
,
1100
0010
0001
1000
0010
0100
0001
0010
0100
1000
0010
0100
1010
0001
0100
0010
,
1100
0010
0001
0100
0010
0100
0001
0010
0100
1000
0010
0100
0001
0010
0001
1000
,
0110
0001
1000
0010
1000
0100
0010
0001
1000
0100
1000
0001
0110
1000
0001
1000
,
0110
0001
1000
0010
0100
0001
0010
0001
1100
0010
0001
0100
0010
0100
0001
1000
,
0101
0010
0100
1000
0001
0100
0010
1000
0100
0010
0001
1000
0101
0010
0100
1000
,
0110
0001
1000
0010
0100
0001
0010
0100
1000
0010
0100
0001
0100
0010
1000
0100
,
0012
0000
0000
1000
0100
1000
0100
0000
0000
0100
1000
0103
,
2010
0000
0000
0001
0100
0001
0100
0001
0100
0001
0100
0001
,
0100
0000
0000
0100
0001
3100
0021
0000
0000
1000
0001
1030
,
0201
0000
0000
1000
0010
1300
0021
0100
1000
0100
1000
0130
,
0011
0100
1000
0010
0100
0001
0100
0010
1000
0100
0010
0001
0100
0010
0100
0001
,
0110
1000
0001
0100
0001
1000
0010
0100
0010
1000
0001
0010
0001
1000
0010
1000
,
0001
0100
0001
0010
0100
0010
0001
1000
0100
1000
0001
0100
0001
0010
0100
1000
,
0101
0010
0001
1000
0010
0100
0010
1000
0011
0100
1000
0010
0100
0001
0010
0100
,
1001
0010
0100
1000
0001
0100
0010
1000
0100
0010
0100
1000
0001
0100
0010
0100
,
1010
0001
0010
0100
1000
0010
0100
0001
0010
0100
0010
0001
1000
0010
0100
0010
,
1100
0010
0001
0100
0010
0100
0001
0010
0100
0010
0100
1000
0001
0100
0010
1000
,
0011
0100
1000
0010
0100
0010
1000
0100
0010
0001
1000
0100
0010
0001
0100
0010
,
2001
0000
0000
0010
0100
0010
0100
0000
0000
0100
0010
3100
,
0021
0000
0000
1000
0100
1000
0100
1000
0100
1000
0100
1000
,
0100
0000
0000
0100
1000
0130
2001
0000
0000
0010
0100
3010
,
0201
0000
0000
1000
0010
1300
0012
0100
1000
0100
1000
0103
,
1010
0001
0100
0010
1000
0100
0010
0001
0010
0100
1000
0001
0100
0010
1000
0100
,
0011
1000
0100
0010
0001
0100
0010
0100
0001
0010
0100
0010
0001
1000
0010
0100
,
0001
0010
0100
0010
0001
0100
0010
1000
0100
1000
0001
0100
0001
0010
0100
1000
,
0110
0001
1000
0010
0100
0001
0010
0001
0110
1000
0100
0010
0001
0100
0010
1000
,
0220
0000
0000
0000
0000
0000
0000
0000
0000
0000
0000
0000
0000
0000
0000
0330
,
2002
0000
0000
0000
0000
0000
0000
0000
0000
0000
0000
0000
0000
0000
0000
3003
,
0202
0000
0000
0000
0000
0000
0000
0000
0000
0000
0000
0000
0000
0000
0000
0303
,
2200
0000
0000
0000
0000
0000
0000
0000
0000
0000
0000
0000
0000
0000
0000
3300
,
0220
0000
0000
0000
,
0000
0000
0000
0000
0000
0000
0000
0000
0000
0000
0000
0000
0000
0000
0000
0330
,
2002
3003
0000
0000
0000
0000
0000
0000
;
